0
SECTION
2
HEADER
9
$ACADVER
1
AC1018
9
$DWGCODEPAGE
3
ANSI_1252
9
$LASTSAVEDBY
1
sefagserrule
9
$HANDSEED
5
1DA
9
$ANGBASE
50
0.0
9
$ANGDIR
70
0
9
$ATTMODE
70
1
9
$AUNITS
70
0
9
$AUPREC
70
0
9
$CECOLOR
62
256
9
$CELTSCALE
40
1.0
9
$CELTYPE
6
ByLayer
9
$CELWEIGHT
370
13
9
$CLAYER
8
0
9
$CMLJUST
70
0
9
$CMLSCALE
40
1.0
9
$CMLSTYLE
2
Standard
9
$DIMSTYLE
2
Standard
9
$TEXTSIZE
40
0.2
9
$TEXTSTYLE
7
Standard
9
$LUNITS
70
2
9
$LUPREC
70
4
9
$EXTNAMES
290
1
9
$INSBASE
10
0.0
20
0.0
30
0.0
9
$INSUNITS
70
4
9
$LTSCALE
40
1.0
9
$LWDISPLAY
290
0
9
$PDMODE
70
0
9
$PDSIZE
40
0.0
9
$PLINEGEN
70
0
9
$PSLTSCALE
70
1
9
$TDCREATE
40
2460881.56947729
9
$TDUCREATE
40
2460881.48614397
9
$TDUPDATE
40
2460881.5694802
9
$TDUUPDATE
40
2460881.48614686
9
$TDINDWG
40
0.00000001157407
9
$DIMADEC
70
0
9
$DIMAUNIT
70
0
9
$DIMASZ
40
0.18
9
$DIMAZIN
70
3
9
$DIMSAH
70
0
9
$DIMBLK
1

9
$DIMLDRBLK
1

9
$DIMCEN
40
0.09
9
$DIMCLRD
70
0
9
$DIMCLRE
70
0
9
$DIMCLRT
70
0
9
$DIMDEC
70
2
9
$DIMDLE
40
0.0
9
$DIMDLI
40
0.38
9
$DIMDSEP
70
46
9
$DIMEXE
40
0.18
9
$DIMEXO
40
0.0625
9
$DIMGAP
40
0.09
9
$DIMJUST
70
0
9
$DIMLFAC
40
1.0
9
$DIMLUNIT
70
2
9
$DIMLWD
70
-2
9
$DIMLWE
70
-2
9
$DIMPOST
1
<>
9
$DIMRND
40
0.0
9
$DIMSCALE
40
1.0
9
$DIMSD1
70
0
9
$DIMSD2
70
0
9
$DIMSE1
70
0
9
$DIMSE2
70
0
9
$DIMTAD
70
1
9
$DIMTIH
70
0
9
$DIMTOH
70
0
9
$DIMTXT
40
0.18
9
$DIMZIN
70
0
9
$DIMFRAC
70
0
9
$DIMLTYPE
6
ByBlock
9
$DIMLTEX1
6
ByBlock
9
$DIMLTEX2
6
ByBlock
0
ENDSEC
0
SECTION
2
CLASSES
0
CLASS
1
RASTERVARIABLES
2
AcDbRasterVariables
3
ISM
90
0
91
1
280
0
281
0
0
ENDSEC
0
SECTION
2
TABLES
0
TABLE
2
APPID
5
9
330
0
100
AcDbSymbolTable
70
9
0
APPID
5
12
330
9
100
AcDbSymbolTableRecord
100
AcDbRegAppTableRecord
2
ACAD
70
0
0
APPID
5
C6
330
9
100
AcDbSymbolTableRecord
100
AcDbRegAppTableRecord
2
ACAD_DSTYLE_DIMBREAK
70
0
0
APPID
5
17A
330
9
100
AcDbSymbolTableRecord
100
AcDbRegAppTableRecord
2
ACAD_DSTYLE_DIM_LINETYPE
70
0
0
APPID
5
17B
330
9
100
AcDbSymbolTableRecord
100
AcDbRegAppTableRecord
2
ACAD_DSTYLE_DIM_EXT1_LINETYPE
70
0
0
APPID
5
17C
330
9
100
AcDbSymbolTableRecord
100
AcDbRegAppTableRecord
2
ACAD_DSTYLE_DIM_EXT2_LINETYPE
70
0
0
APPID
5
1BC
330
9
100
AcDbSymbolTableRecord
100
AcDbRegAppTableRecord
2
ACAD_MLEADERVER
70
0
0
APPID
5
1CF
330
9
100
AcDbSymbolTableRecord
100
AcDbRegAppTableRecord
2
AcCmTransparency
70
0
0
APPID
5
1D0
330
9
100
AcDbSymbolTableRecord
100
AcDbRegAppTableRecord
2
GradientColor1ACI
70
0
0
APPID
5
1D1
330
9
100
AcDbSymbolTableRecord
100
AcDbRegAppTableRecord
2
GradientColor2ACI
70
0
0
ENDTAB
0
TABLE
2
VPORT
5
8
330
0
100
AcDbSymbolTable
70
1
0
VPORT
5
29
330
8
100
AcDbSymbolTableRecord
100
AcDbViewportTableRecord
2
*Active
70
0
74
    3
10
0.0
20
0.0
11
1.0
21
1.0
12
-2.37499786884459
22
33.1289189989748
13
0.0
23
0.0
14
0.5
24
0.5
15
0.5
25
0.5
16
0.0
26
0.0
36
1.0
17
0.0
27
0.0
37
0.0
40
254.0
41
0.069908
75
0
76
0
0
ENDTAB
0
TABLE
2
LTYPE
5
5
330
0
100
AcDbSymbolTable
70
12
0
LTYPE
5
14
330
5
100
AcDbSymbolTableRecord
100
AcDbLinetypeTableRecord
70
0
2
ByBlock
3

72
65
73
0
40
0.0
0
LTYPE
5
15
330
5
100
AcDbSymbolTableRecord
100
AcDbLinetypeTableRecord
70
0
2
ByLayer
3

72
65
73
0
40
0.0
0
LTYPE
5
16
330
5
100
AcDbSymbolTableRecord
100
AcDbLinetypeTableRecord
70
0
2
Continuous
3
Solid line
72
65
73
0
40
0.0
0
LTYPE
5
5F
330
5
100
AcDbSymbolTableRecord
100
AcDbLinetypeTableRecord
70
0
2
ACAD_ISO04W100
3
ISO long-dash dot ____ . ____ . ____ . ____ . _
72
65
73
4
40
30.0
49
24.0
74
0
49
-3.0
74
0
49
0.0
74
0
49
-3.0
74
0
0
LTYPE
5
60
330
5
100
AcDbSymbolTableRecord
100
AcDbLinetypeTableRecord
70
0
2
ACAD_ISO05W100
3
ISO long-dash double-dot ____ .. ____ .. ____ . 
72
65
73
6
40
33.0
49
24.0
74
0
49
-3.0
74
0
49
0.0
74
0
49
-3.0
74
0
49
0.0
74
0
49
-3.0
74
0
0
LTYPE
5
61
330
5
100
AcDbSymbolTableRecord
100
AcDbLinetypeTableRecord
70
0
2
ACAD_ISO06W100
3
ISO long-dash triple-dot ____ ... ____ ... ____
72
65
73
8
40
36.0
49
24.0
74
0
49
-3.0
74
0
49
0.0
74
0
49
-3.0
74
0
49
0.0
74
0
49
-3.0
74
0
49
0.0
74
0
49
-3.0
74
0
0
LTYPE
5
62
330
5
100
AcDbSymbolTableRecord
100
AcDbLinetypeTableRecord
70
0
2
ACAD_ISO09W100
3
ISO long-dash double-short-dash ____ __ __ ____
72
65
73
6
40
45.0
49
24.0
74
0
49
-3.0
74
0
49
6.0
74
0
49
-3.0
74
0
49
6.0
74
0
49
-3.0
74
0
0
LTYPE
5
63
330
5
100
AcDbSymbolTableRecord
100
AcDbLinetypeTableRecord
70
0
2
CENTER
3
____ _ ____ _ ____ _ ____
72
65
73
4
40
47.5
49
22.0
74
0
49
-8.5
74
0
49
8.5
74
0
49
-8.5
74
0
0
LTYPE
5
64
330
5
100
AcDbSymbolTableRecord
100
AcDbLinetypeTableRecord
70
0
2
DASHDOT
3
_._._._._._._._._._._._._._._._.
72
65
73
4
40
70.0
49
31.0
74
0
49
-13.0
74
0
49
13.0
74
0
49
-13.0
74
0
0
LTYPE
5
65
330
5
100
AcDbSymbolTableRecord
100
AcDbLinetypeTableRecord
70
0
2
DASHED
3
__ __ __ __ __ __ __ __ __
72
65
73
2
40
25.72
49
12.86
74
0
49
-12.86
74
0
0
LTYPE
5
66
330
5
100
AcDbSymbolTableRecord
100
AcDbLinetypeTableRecord
70
0
2
DOT
3
.........................
72
65
73
2
40
10.0
49
0.0
74
0
49
-10.0
74
0
0
LTYPE
5
67
330
5
100
AcDbSymbolTableRecord
100
AcDbLinetypeTableRecord
70
0
2
PHANTOM
3
____ _ _ ____ _ _ _____ _ _ ____
72
65
73
6
40
50.5
49
18.0
74
0
49
-6.5
74
0
49
6.5
74
0
49
-6.5
74
0
49
6.5
74
0
49
-6.5
74
0
0
ENDTAB
0
TABLE
2
LAYER
5
2
330
0
100
AcDbSymbolTable
70
11
0
LAYER
5
10
330
2
100
AcDbSymbolTableRecord
100
AcDbLayerTableRecord
2
0
70
0
62
7
6
Continuous
290
1
370
-3
390
0
0
LAYER
5
69
330
2
100
AcDbSymbolTableRecord
100
AcDbLayerTableRecord
2
1
70
0
62
4
6
Continuous
290
1
370
50
390
0
0
LAYER
5
77
330
2
100
AcDbSymbolTableRecord
100
AcDbLayerTableRecord
2
SK1
70
0
62
4
6
Continuous
290
1
370
50
390
0
0
LAYER
5
84
330
2
100
AcDbSymbolTableRecord
100
AcDbLayerTableRecord
2
4
70
0
62
2
6
CENTER
290
1
370
25
390
0
0
LAYER
5
86
330
2
100
AcDbSymbolTableRecord
100
AcDbLayerTableRecord
2
SK4
70
0
62
2
6
CENTER
290
1
370
25
390
0
0
LAYER
5
A8
330
2
100
AcDbSymbolTableRecord
100
AcDbLayerTableRecord
2
NOCUT
70
0
62
7
6
Continuous
290
1
370
25
390
0
0
LAYER
5
AA
330
2
100
AcDbSymbolTableRecord
100
AcDbLayerTableRecord
2
CUT
70
0
62
1
6
Continuous
290
1
370
25
390
0
0
LAYER
5
C5
330
2
100
AcDbSymbolTableRecord
100
AcDbLayerTableRecord
2
SK6
70
0
62
5
6
Continuous
290
1
370
35
390
0
0
LAYER
5
CD
330
2
100
AcDbSymbolTableRecord
100
AcDbLayerTableRecord
2
Defpoints
70
0
62
7
6
Continuous
290
0
370
-3
390
0
0
LAYER
5
DC
330
2
100
AcDbSymbolTableRecord
100
AcDbLayerTableRecord
2
2
70
0
62
7
6
Continuous
290
1
370
25
390
0
0
LAYER
5
FA
330
2
100
AcDbSymbolTableRecord
100
AcDbLayerTableRecord
2
SK2
70
0
62
7
6
Continuous
290
1
370
25
390
0
0
ENDTAB
0
TABLE
2
STYLE
5
3
330
0
100
AcDbSymbolTable
70
4
0
STYLE
5
11
330
3
100
AcDbSymbolTableRecord
100
AcDbTextStyleTableRecord
2
Standard
3
monos.ttf
70
0
71
0
40
0.0
41
1.0
42
0.0
50
0.0
1001
ACAD
1000
Monospac821 BT
1071
0
0
STYLE
5
C4
330
3
100
AcDbSymbolTableRecord
100
AcDbTextStyleTableRecord
2
DWGDirectTextStyle
3
monos.ttf
70
0
71
0
40
0.0
41
1.0
42
0.0
50
0.0
1001
ACAD
1000
Monospac821 BT
1071
0
0
STYLE
5
1C5
330
3
100
AcDbSymbolTableRecord
100
AcDbTextStyleTableRecord
2
Monospac821 BT
3
monos.ttf
70
0
71
0
40
0.0
41
1.0
42
0.0
50
0.0
1001
ACAD
1000
Monospac821 BT
1071
0
0
STYLE
5
1CC
330
3
100
AcDbSymbolTableRecord
100
AcDbTextStyleTableRecord
2
STANDARD 3.5
3
monos.ttf
70
0
71
0
40
3.5
41
1.0
42
3.5
50
0.0
1001
ACAD
1000
Monospac821 BT
1071
0
0
ENDTAB
0
TABLE
2
DIMSTYLE
5
A
330
0
100
AcDbSymbolTable
70
3
100
AcDbDimStyleTable
0
DIMSTYLE
105
27
330
A
100
AcDbSymbolTableRecord
100
AcDbDimStyleTableRecord
2
Standard
70
0
3
<>
40
1.0
41
0.18
42
0.0625
43
0.38
44
0.18
45
0.0
46
0.0
73
0
74
0
75
0
76
0
77
1
78
0
79
3
140
0.18
141
0.09
144
1.0
147
0.09
176
0
177
0
178
0
179
0
271
2
275
0
276
0
277
2
278
46
280
0
281
0
282
0
340
11
173
0
345
14
346
14
347
14
371
-2
372
-2
0
DIMSTYLE
105
1CD
330
A
100
AcDbSymbolTableRecord
100
AcDbDimStyleTableRecord
2
DimStandard35
70
0
3
<>
40
1.0
41
0.18
42
0.0625
43
0.38
44
0.18
45
0.0
46
0.0
73
0
74
0
75
0
76
0
77
1
78
0
79
0
140
3.5
141
0.09
144
1.0
147
0.09
176
0
177
0
178
0
179
0
271
2
275
0
276
0
277
2
278
46
280
0
281
0
282
0
340
1CC
173
0
345
14
346
14
347
14
371
-2
372
-2
0
DIMSTYLE
105
1CE
330
A
100
AcDbSymbolTableRecord
100
AcDbDimStyleTableRecord
2
NewStyle
70
0
3
<>
40
1.0
41
0.18
42
0.0625
43
0.38
44
0.18
45
0.0
46
0.0
73
0
74
0
75
0
76
0
77
1
78
0
79
0
140
0.18
141
0.09
144
1.0
147
0.09
176
0
177
0
178
0
179
0
271
2
275
0
276
0
277
2
278
46
280
0
281
0
282
0
340
11
173
0
345
14
346
14
347
14
371
-2
372
-2
0
ENDTAB
0
TABLE
2
VIEW
5
6
330
0
100
AcDbSymbolTable
70
0
0
ENDTAB
0
TABLE
2
UCS
5
7
330
0
100
AcDbSymbolTable
70
0
0
ENDTAB
0
TABLE
2
BLOCK_RECORD
5
1
330
0
100
AcDbSymbolTable
70
15
0
BLOCK_RECORD
5
1F
330
1
100
AcDbSymbolTableRecord
100
AcDbBlockTableRecord
2
*Model_Space
340
22
0
BLOCK_RECORD
5
1B
330
1
100
AcDbSymbolTableRecord
100
AcDbBlockTableRecord
2
*Paper_Space
340
1E
0
BLOCK_RECORD
5
23
330
1
100
AcDbSymbolTableRecord
100
AcDbBlockTableRecord
2
*Paper_Space0
340
26
0
BLOCK_RECORD
5
CE
330
1
100
AcDbSymbolTableRecord
100
AcDbBlockTableRecord
2
*D1
340
0
0
BLOCK_RECORD
5
DD
330
1
100
AcDbSymbolTableRecord
100
AcDbBlockTableRecord
2
_U0
340
0
70
0
280
1
281
0
1001
ACAD
1000
DesignCenter Data
1002
{
1070
1
1070
0
1002
}
0
BLOCK_RECORD
5
EC
330
1
100
AcDbSymbolTableRecord
100
AcDbBlockTableRecord
2
*D3
340
0
0
BLOCK_RECORD
5
FB
330
1
100
AcDbSymbolTableRecord
100
AcDbBlockTableRecord
2
_U1
340
0
70
0
280
1
281
0
1001
ACAD
1000
DesignCenter Data
1002
{
1070
1
1070
0
1002
}
0
BLOCK_RECORD
5
10A
330
1
100
AcDbSymbolTableRecord
100
AcDbBlockTableRecord
2
*D5
340
0
0
BLOCK_RECORD
5
116
330
1
100
AcDbSymbolTableRecord
100
AcDbBlockTableRecord
2
_U2
340
0
70
0
280
1
281
0
1001
ACAD
1000
DesignCenter Data
1002
{
1070
1
1070
0
1002
}
0
BLOCK_RECORD
5
123
330
1
100
AcDbSymbolTableRecord
100
AcDbBlockTableRecord
2
*D7
340
0
0
BLOCK_RECORD
5
12F
330
1
100
AcDbSymbolTableRecord
100
AcDbBlockTableRecord
2
_U3
340
0
70
0
280
1
281
0
1001
ACAD
1000
DesignCenter Data
1002
{
1070
1
1070
0
1002
}
0
BLOCK_RECORD
5
13C
330
1
100
AcDbSymbolTableRecord
100
AcDbBlockTableRecord
2
*D9
340
0
0
BLOCK_RECORD
5
149
330
1
100
AcDbSymbolTableRecord
100
AcDbBlockTableRecord
2
_U4
340
0
70
0
280
1
281
0
1001
ACAD
1000
DesignCenter Data
1002
{
1070
1
1070
0
1002
}
0
BLOCK_RECORD
5
156
330
1
100
AcDbSymbolTableRecord
100
AcDbBlockTableRecord
2
*D11
340
0
0
BLOCK_RECORD
5
162
330
1
100
AcDbSymbolTableRecord
100
AcDbBlockTableRecord
2
_U5
340
0
70
0
280
1
281
0
1001
ACAD
1000
DesignCenter Data
1002
{
1070
1
1070
0
1002
}
0
ENDTAB
0
ENDSEC
0
SECTION
2
BLOCKS
0
BLOCK
5
20
330
1F
100
AcDbEntity
8
0
100
AcDbBlockBegin
2
*Model_Space
70
0
10
0.0
20
0.0
30
0.0
3
*Model_Space
0
ENDBLK
5
21
330
1F
100
AcDbEntity
8
0
100
AcDbBlockEnd
0
BLOCK
5
1C
330
1B
100
AcDbEntity
8
0
100
AcDbBlockBegin
2
*Paper_Space
70
0
10
0.0
20
0.0
30
0.0
3
*Paper_Space
0
ENDBLK
5
1D
330
1B
100
AcDbEntity
8
0
100
AcDbBlockEnd
0
BLOCK
5
24
330
23
100
AcDbEntity
67
1
8
0
100
AcDbBlockBegin
2
*Paper_Space0
70
0
10
0.0
20
0.0
30
0.0
3
*Paper_Space0
0
VIEWPORT
5
1CB
330
23
100
AcDbEntity
67
1
8
0
62
256
6
ByLayer
370
-1
48
1.0
60
0
100
AcDbViewport
10
0.0
20
0.0
30
0.0
40
297.0
41
210.0
68
1
69
1
12
50.0
22
100.0
13
0.0
23
0.0
14
10.0
24
10.0
15
10.0
25
10.0
16
0.0
26
0.0
36
1.0
17
0.0
27
0.0
37
0.0
42
50.0
43
0.0
44
0.0
45
250.0
50
0.0
51
0.0
72
1000
90
819232
110
0.0
120
0.0
130
0.0
111
1.0
121
0.0
131
0.0
112
0.0
122
1.0
132
0.0
0
ENDBLK
5
25
330
23
100
AcDbEntity
8
0
100
AcDbBlockEnd
0
BLOCK
5
CF
330
CE
100
AcDbEntity
8
0
100
AcDbBlockBegin
2
*D1
70
1
10
0.0
20
0.0
30
0.0
3
*D1
0
LINE
5
D1
330
CE
100
AcDbEntity
8
0
62
7
6
ByLayer
370
-2
48
1.0
60
0
100
AcDbLine
10
23.3409511311554
20
1.50699999897481
30
0.0
11
47.0099251311554
21
1.50699999897481
31
0.0
39
0.0
210
0.0
220
0.0
230
1.0
0
LINE
5
D2
330
CE
100
AcDbEntity
8
0
62
7
6
ByLayer
370
-2
48
1.0
60
0
100
AcDbLine
10
23.5000001311554
20
-1.50700000102519
30
0.0
11
47.0099251311554
21
-1.50700000102519
31
0.0
39
0.0
210
0.0
220
0.0
230
1.0
0
LINE
5
D3
330
CE
100
AcDbEntity
8
0
62
7
6
ByLayer
370
-2
48
1.0
60
0
100
AcDbLine
10
45.0099251311554
20
1.50699999897481
30
0.0
11
45.0099251311554
21
40.8114999989748
31
0.0
39
0.0
210
0.0
220
0.0
230
1.0
0
LINE
5
D4
330
CE
100
AcDbEntity
8
0
62
7
6
ByLayer
370
-2
48
1.0
60
0
100
AcDbLine
10
45.0099251311554
20
4.00699999897481
30
0.0
11
45.0099251311554
21
6.50699999897481
31
0.0
39
0.0
210
0.0
220
0.0
230
1.0
0
LINE
5
D5
330
CE
100
AcDbEntity
8
0
62
7
6
ByLayer
370
-2
48
1.0
60
0
100
AcDbLine
10
45.0099251311554
20
-4.00700000102519
30
0.0
11
45.0099251311554
21
-6.50700000102519
31
0.0
39
0.0
210
0.0
220
0.0
230
1.0
0
SOLID
5
D6
330
CE
100
AcDbEntity
8
0
62
7
6
ByLayer
370
-1
48
1.0
60
0
100
AcDbTrace
10
44.5932591311554
20
4.00699999897481
30
0.0
11
45.4265921311554
21
4.00699999897481
31
0.0
12
45.0099251311554
22
1.50699999897481
32
0.0
13
45.0099251311554
23
1.50699999897481
33
0.0
39
0.0
210
0.0
220
0.0
230
1.0
0
SOLID
5
D7
330
CE
100
AcDbEntity
8
0
62
7
6
ByLayer
370
-1
48
1.0
60
0
100
AcDbTrace
10
45.4265921311554
20
-4.00700000102519
30
0.0
11
44.5932591311554
21
-4.00700000102519
31
0.0
12
45.0099251311554
22
-1.50700000102519
32
0.0
13
45.0099251311554
23
-1.50700000102519
33
0.0
39
0.0
210
0.0
220
0.0
230
1.0
0
MTEXT
5
D8
330
CE
100
AcDbEntity
8
0
62
7
6
ByLayer
370
13
48
1.0
60
0
100
AcDbMText
10
39.6986751311554
20
29.9999999989748
30
0.0
210
0.0
220
0.0
230
1.0
1
\A1;3.014
40
3.5
41
0.0
44
1.0
50
90.0
71
5
72
5
7
Monospac821 BT
0
POINT
5
D9
330
CE
100
AcDbEntity
8
Defpoints
62
0
6
ByLayer
370
-1
48
1.0
60
0
100
AcDbPoint
10
23.3409511311554
20
1.50699999897481
30
0.0
39
0.0
210
0.0
220
0.0
230
1.0
50
360.0
0
POINT
5
DA
330
CE
100
AcDbEntity
8
Defpoints
62
0
6
ByLayer
370
-1
48
1.0
60
0
100
AcDbPoint
10
23.5000001311554
20
-1.50700000102519
30
0.0
39
0.0
210
0.0
220
0.0
230
1.0
50
360.0
0
POINT
5
DB
330
CE
100
AcDbEntity
8
Defpoints
62
0
6
ByLayer
370
-1
48
1.0
60
0
100
AcDbPoint
10
45.0099251311554
20
-1.50700000102519
30
0.0
39
0.0
210
0.0
220
0.0
230
1.0
50
360.0
0
ENDBLK
5
D0
330
CE
100
AcDbEntity
8
0
100
AcDbBlockEnd
0
BLOCK
5
E5
330
DD
100
AcDbEntity
8
0
100
AcDbBlockBegin
2
_U0
70
0
10
0.0
20
0.0
30
0.0
3
_U0
0
MTEXT
5
DE
330
DD
100
AcDbEntity
8
2
62
7
6
Continuous
370
13
48
1.0
60
0
100
AcDbMText
10
43.9395211311554
20
24.8200899989748
30
0.0
210
0.0
220
0.0
230
1.0
1
\fMonospac821 BT|b0|i0;\W1.0938;3,014
40
3.5
41
0.0
44
1.072372
50
90.0
71
7
72
5
7
Monospac821 BT
0
MTEXT
5
DF
330
DD
100
AcDbEntity
8
2
62
7
6
Continuous
370
13
48
1.0
60
0
100
AcDbMText
10
43.9395211311554
20
18.9187249989748
30
0.0
210
0.0
220
0.0
230
1.0
1
\fMonospac821 BT|b0|i0;%%c
40
3.5
41
0.0
44
1.072372
50
90.0
71
7
72
5
7
Monospac821 BT
0
LINE
5
E0
330
DD
100
AcDbEntity
8
2
62
7
6
ByLayer
370
13
48
1.0
60
0
100
AcDbLine
10
23.5000001311554
20
1.50699999897481
30
0.0
11
47.0099251311554
21
1.50699999897481
31
0.0
39
0.0
210
0.0
220
0.0
230
1.0
0
LINE
5
E1
330
DD
100
AcDbEntity
8
2
62
7
6
ByLayer
370
13
48
1.0
60
0
100
AcDbLine
10
23.5000001311554
20
-1.50700000102519
30
0.0
11
47.0099251311554
21
-1.50700000102519
31
0.0
39
0.0
210
0.0
220
0.0
230
1.0
0
LINE
5
E2
330
DD
100
AcDbEntity
8
2
62
7
6
ByLayer
370
13
48
1.0
60
0
100
AcDbLine
10
45.0099251311554
20
-10.2570000010252
30
0.0
11
45.0099251311554
21
41.2387749989748
31
0.0
39
0.0
210
0.0
220
0.0
230
1.0
0
SOLID
5
E3
330
DD
100
AcDbEntity
8
2
62
7
6
ByLayer
370
13
48
1.0
60
0
100
AcDbTrace
10
45.0099251311554
20
1.50699999897481
30
0.0
11
44.4556891311554
21
4.00699799897481
31
0.0
12
45.5641621311554
22
4.00700199897481
32
0.0
13
45.5641621311554
23
4.00700199897481
33
0.0
39
0.0
210
0.0
220
0.0
230
1.0
0
SOLID
5
E4
330
DD
100
AcDbEntity
8
2
62
7
6
ByLayer
370
13
48
1.0
60
0
100
AcDbTrace
10
45.0099251311554
20
-1.50700000102519
30
0.0
11
45.5641621311554
21
-4.00699800102518
31
0.0
12
44.4556891311554
22
-4.00700200102519
32
0.0
13
44.4556891311554
23
-4.00700200102519
33
0.0
39
0.0
210
0.0
220
0.0
230
1.0
0
ENDBLK
5
E6
330
DD
100
AcDbEntity
8
0
100
AcDbBlockEnd
0
BLOCK
5
ED
330
EC
100
AcDbEntity
8
0
100
AcDbBlockBegin
2
*D3
70
1
10
0.0
20
0.0
30
0.0
3
*D3
0
LINE
5
EF
330
EC
100
AcDbEntity
8
0
62
7
6
ByLayer
370
-2
48
1.0
60
0
100
AcDbLine
10
-24.3019358688446
20
-2.00000000102519
30
0.0
11
-46.9900748688446
21
-2.00000000102519
31
0.0
39
0.0
210
0.0
220
0.0
230
1.0
0
LINE
5
F0
330
EC
100
AcDbEntity
8
0
62
7
6
ByLayer
370
-2
48
1.0
60
0
100
AcDbLine
10
-24.4999998688446
20
1.99999999897481
30
0.0
11
-46.9900748688446
21
1.99999999897481
31
0.0
39
0.0
210
0.0
220
0.0
230
1.0
0
LINE
5
F1
330
EC
100
AcDbEntity
8
0
62
7
6
ByLayer
370
-2
48
1.0
60
0
100
AcDbLine
10
-44.9900748688446
20
1.99999999897481
30
0.0
11
-44.9900748688446
21
34.7442499989748
31
0.0
39
0.0
210
0.0
220
0.0
230
1.0
0
LINE
5
F2
330
EC
100
AcDbEntity
8
0
62
7
6
ByLayer
370
-2
48
1.0
60
0
100
AcDbLine
10
-44.9900748688446
20
-4.50000000102519
30
0.0
11
-44.9900748688446
21
-7.00000000102519
31
0.0
39
0.0
210
0.0
220
0.0
230
1.0
0
LINE
5
F3
330
EC
100
AcDbEntity
8
0
62
7
6
ByLayer
370
-2
48
1.0
60
0
100
AcDbLine
10
-44.9900748688446
20
4.49999999897481
30
0.0
11
-44.9900748688446
21
6.99999999897481
31
0.0
39
0.0
210
0.0
220
0.0
230
1.0
0
SOLID
5
F4
330
EC
100
AcDbEntity
8
0
62
7
6
ByLayer
370
-1
48
1.0
60
0
100
AcDbTrace
10
-44.5734078688446
20
-4.50000000102519
30
0.0
11
-45.4067408688446
21
-4.50000000102519
31
0.0
12
-44.9900748688446
22
-2.00000000102519
32
0.0
13
-44.9900748688446
23
-2.00000000102519
33
0.0
39
0.0
210
0.0
220
0.0
230
1.0
0
SOLID
5
F5
330
EC
100
AcDbEntity
8
0
62
7
6
ByLayer
370
-1
48
1.0
60
0
100
AcDbTrace
10
-45.4067408688446
20
4.49999999897481
30
0.0
11
-44.5734078688446
21
4.49999999897481
31
0.0
12
-44.9900748688446
22
1.99999999897481
32
0.0
13
-44.9900748688446
23
1.99999999897481
33
0.0
39
0.0
210
0.0
220
0.0
230
1.0
0
MTEXT
5
F6
330
EC
100
AcDbEntity
8
0
62
7
6
ByLayer
370
13
48
1.0
60
0
100
AcDbMText
10
-50.2400748688446
20
29.9999999989748
30
0.0
210
0.0
220
0.0
230
1.0
1
\A1;4
40
3.5
41
0.0
44
1.0
50
90.0
71
5
72
5
7
Monospac821 BT
0
POINT
5
F7
330
EC
100
AcDbEntity
8
Defpoints
62
0
6
ByLayer
370
-1
48
1.0
60
0
100
AcDbPoint
10
-24.3019358688446
20
-2.00000000102519
30
0.0
39
0.0
210
0.0
220
0.0
230
1.0
50
360.0
0
POINT
5
F8
330
EC
100
AcDbEntity
8
Defpoints
62
0
6
ByLayer
370
-1
48
1.0
60
0
100
AcDbPoint
10
-24.4999998688446
20
1.99999999897481
30
0.0
39
0.0
210
0.0
220
0.0
230
1.0
50
360.0
0
POINT
5
F9
330
EC
100
AcDbEntity
8
Defpoints
62
0
6
ByLayer
370
-1
48
1.0
60
0
100
AcDbPoint
10
-44.9900748688446
20
1.99999999897481
30
0.0
39
0.0
210
0.0
220
0.0
230
1.0
50
360.0
0
ENDBLK
5
EE
330
EC
100
AcDbEntity
8
0
100
AcDbBlockEnd
0
BLOCK
5
103
330
FB
100
AcDbEntity
8
0
100
AcDbBlockBegin
2
_U1
70
0
10
0.0
20
0.0
30
0.0
3
_U1
0
MTEXT
5
FC
330
FB
100
AcDbEntity
8
SK2
62
7
6
Continuous
370
13
48
1.0
60
0
100
AcDbMText
10
-46.0604788688446
20
31.5905639989748
30
0.0
210
0.0
220
0.0
230
1.0
1
\fMonospac821 BT|b0|i0;\W1.0000;4
40
3.5
41
0.0
44
1.072372
50
90.0
71
7
72
5
7
Monospac821 BT
0
MTEXT
5
FD
330
FB
100
AcDbEntity
8
SK2
62
7
6
Continuous
370
13
48
1.0
60
0
100
AcDbMText
10
-46.0604788688446
20
25.6891989989748
30
0.0
210
0.0
220
0.0
230
1.0
1
\fMonospac821 BT|b0|i0;%%c
40
3.5
41
0.0
44
1.072372
50
90.0
71
7
72
5
7
Monospac821 BT
0
LINE
5
FE
330
FB
100
AcDbEntity
8
SK2
62
7
6
ByLayer
370
13
48
1.0
60
0
100
AcDbLine
10
-24.4999998688446
20
-2.00000000102519
30
0.0
11
-46.9900748688446
21
-2.00000000102519
31
0.0
39
0.0
210
0.0
220
0.0
230
1.0
0
LINE
5
FF
330
FB
100
AcDbEntity
8
SK2
62
7
6
ByLayer
370
13
48
1.0
60
0
100
AcDbLine
10
-24.4999998688446
20
1.99999999897481
30
0.0
11
-46.9900748688446
21
1.99999999897481
31
0.0
39
0.0
210
0.0
220
0.0
230
1.0
0
LINE
5
100
330
FB
100
AcDbEntity
8
SK2
62
7
6
ByLayer
370
13
48
1.0
60
0
100
AcDbLine
10
-44.9900748688446
20
34.4683009989748
30
0.0
11
-44.9900748688446
21
-10.7500000010252
31
0.0
39
0.0
210
0.0
220
0.0
230
1.0
0
SOLID
5
101
330
FB
100
AcDbEntity
8
SK2
62
7
6
ByLayer
370
13
48
1.0
60
0
100
AcDbTrace
10
-44.9900748688446
20
-2.00000000102519
30
0.0
11
-44.4358378688446
21
-4.49999800102519
31
0.0
12
-45.5443108688446
22
-4.50000200102519
32
0.0
13
-45.5443108688446
23
-4.50000200102519
33
0.0
39
0.0
210
0.0
220
0.0
230
1.0
0
SOLID
5
102
330
FB
100
AcDbEntity
8
SK2
62
7
6
ByLayer
370
13
48
1.0
60
0
100
AcDbTrace
10
-44.9900748688446
20
1.99999999897481
30
0.0
11
-45.5443108688446
21
4.49999799897481
31
0.0
12
-44.4358378688446
22
4.50000199897481
32
0.0
13
-44.4358378688446
23
4.50000199897481
33
0.0
39
0.0
210
0.0
220
0.0
230
1.0
0
ENDBLK
5
104
330
FB
100
AcDbEntity
8
0
100
AcDbBlockEnd
0
BLOCK
5
10B
330
10A
100
AcDbEntity
8
0
100
AcDbBlockBegin
2
*D5
70
1
10
0.0
20
0.0
30
0.0
3
*D5
0
LINE
5
10D
330
10A
100
AcDbEntity
8
0
62
7
6
ByLayer
370
-2
48
1.0
60
0
100
AcDbLine
10
-24.9999998688446
20
-0.83983000102519
30
0.0
11
-24.9999998688446
21
76.9874449989748
31
0.0
39
0.0
210
0.0
220
0.0
230
1.0
0
LINE
5
10E
330
10A
100
AcDbEntity
8
0
62
7
6
ByLayer
370
-2
48
1.0
60
0
100
AcDbLine
10
25.0000001311554
20
-0.00000000102519
30
0.0
11
25.0000001311554
21
76.9874449989748
31
0.0
39
0.0
210
0.0
220
0.0
230
1.0
0
LINE
5
10F
330
10A
100
AcDbEntity
8
0
62
7
6
ByLayer
370
-2
48
1.0
60
0
100
AcDbLine
10
-22.4999998688446
20
74.9874449989748
30
0.0
11
22.5000001311554
21
74.9874449989748
31
0.0
39
0.0
210
0.0
220
0.0
230
1.0
0
SOLID
5
110
330
10A
100
AcDbEntity
8
0
62
7
6
ByLayer
370
-1
48
1.0
60
0
100
AcDbTrace
10
-22.4999998688446
20
75.4041119989748
30
0.0
11
-22.4999998688446
21
74.5707789989748
31
0.0
12
-24.9999998688446
22
74.9874449989748
32
0.0
13
-24.9999998688446
23
74.9874449989748
33
0.0
39
0.0
210
0.0
220
0.0
230
1.0
0
SOLID
5
111
330
10A
100
AcDbEntity
8
0
62
7
6
ByLayer
370
-1
48
1.0
60
0
100
AcDbTrace
10
22.5000001311554
20
74.5707789989748
30
0.0
11
22.5000001311554
21
75.4041119989748
31
0.0
12
25.0000001311554
22
74.9874449989748
32
0.0
13
25.0000001311554
23
74.9874449989748
33
0.0
39
0.0
210
0.0
220
0.0
230
1.0
0
MTEXT
5
112
330
10A
100
AcDbEntity
8
0
62
7
6
ByLayer
370
13
48
1.0
60
0
100
AcDbMText
10
0.00000013115542
20
80.2986949989748
30
0.0
210
0.0
220
0.0
230
1.0
1
\A1;50
40
3.5
41
0.0
44
1.0
50
0.0
71
5
72
5
7
Monospac821 BT
0
POINT
5
113
330
10A
100
AcDbEntity
8
Defpoints
62
0
6
ByLayer
370
-1
48
1.0
60
0
100
AcDbPoint
10
-24.9999998688446
20
-0.83983000102519
30
0.0
39
0.0
210
0.0
220
0.0
230
1.0
50
360.0
0
POINT
5
114
330
10A
100
AcDbEntity
8
Defpoints
62
0
6
ByLayer
370
-1
48
1.0
60
0
100
AcDbPoint
10
25.0000001311554
20
-0.00000000102519
30
0.0
39
0.0
210
0.0
220
0.0
230
1.0
50
360.0
0
POINT
5
115
330
10A
100
AcDbEntity
8
Defpoints
62
0
6
ByLayer
370
-1
48
1.0
60
0
100
AcDbPoint
10
25.0000001311554
20
74.9874449989748
30
0.0
39
0.0
210
0.0
220
0.0
230
1.0
50
360.0
0
ENDBLK
5
10C
330
10A
100
AcDbEntity
8
0
100
AcDbBlockEnd
0
BLOCK
5
11D
330
116
100
AcDbEntity
8
0
100
AcDbBlockBegin
2
_U2
70
0
10
0.0
20
0.0
30
0.0
3
_U2
0
MTEXT
5
117
330
116
100
AcDbEntity
8
SK2
62
7
6
Continuous
370
13
48
1.0
60
0
100
AcDbMText
10
-3.0247368688446
20
75.7060609989748
30
0.0
210
0.0
220
0.0
230
1.0
1
\fMonospac821 BT|b0|i0;\W1.0591;50
40
3.5
41
0.0
44
1.072372
50
0.0
71
7
72
5
7
Monospac821 BT
0
LINE
5
118
330
116
100
AcDbEntity
8
SK2
62
7
6
ByLayer
370
13
48
1.0
60
0
100
AcDbLine
10
25.0000001311554
20
0.49999999897482
30
0.0
11
25.0000001311554
21
76.9874449989748
31
0.0
39
0.0
210
0.0
220
0.0
230
1.0
0
LINE
5
119
330
116
100
AcDbEntity
8
SK2
62
7
6
ByLayer
370
13
48
1.0
60
0
100
AcDbLine
10
-24.9999998688446
20
1.59999999897481
30
0.0
11
-24.9999998688446
21
76.9874449989748
31
0.0
39
0.0
210
0.0
220
0.0
230
1.0
0
LINE
5
11A
330
116
100
AcDbEntity
8
SK2
62
7
6
ByLayer
370
13
48
1.0
60
0
100
AcDbLine
10
25.0000001311554
20
74.9874449989748
30
0.0
11
-24.9999998688446
21
74.9874449989748
31
0.0
39
0.0
210
0.0
220
0.0
230
1.0
0
SOLID
5
11B
330
116
100
AcDbEntity
8
SK2
62
7
6
ByLayer
370
13
48
1.0
60
0
100
AcDbTrace
10
25.0000001311554
20
74.9874449989748
30
0.0
11
22.5000021311554
21
74.4332089989748
31
0.0
12
22.4999981311554
22
75.5416819989748
32
0.0
13
22.4999981311554
23
75.5416819989748
33
0.0
39
0.0
210
0.0
220
0.0
230
1.0
0
SOLID
5
11C
330
116
100
AcDbEntity
8
SK2
62
7
6
ByLayer
370
13
48
1.0
60
0
100
AcDbTrace
10
-24.9999998688446
20
74.9874449989748
30
0.0
11
-22.5000018688446
21
75.5416819989748
31
0.0
12
-22.4999978688446
22
74.4332089989748
32
0.0
13
-22.4999978688446
23
74.4332089989748
33
0.0
39
0.0
210
0.0
220
0.0
230
1.0
0
ENDBLK
5
11E
330
116
100
AcDbEntity
8
0
100
AcDbBlockEnd
0
BLOCK
5
124
330
123
100
AcDbEntity
8
0
100
AcDbBlockBegin
2
*D7
70
1
10
0.0
20
0.0
30
0.0
3
*D7
0
LINE
5
126
330
123
100
AcDbEntity
8
0
62
7
6
ByLayer
370
-2
48
1.0
60
0
100
AcDbLine
10
25.0000001311554
20
0.09773099897481
30
0.0
11
25.0000001311554
21
61.9874449989748
31
0.0
39
0.0
210
0.0
220
0.0
230
1.0
0
LINE
5
127
330
123
100
AcDbEntity
8
0
62
7
6
ByLayer
370
-2
48
1.0
60
0
100
AcDbLine
10
0.00000013115542
20
-0.00000000102519
30
0.0
11
0.00000013115542
21
61.9874449989748
31
0.0
39
0.0
210
0.0
220
0.0
230
1.0
0
LINE
5
128
330
123
100
AcDbEntity
8
0
62
7
6
ByLayer
370
-2
48
1.0
60
0
100
AcDbLine
10
22.5000001311554
20
59.9874449989748
30
0.0
11
2.50000013115542
21
59.9874449989748
31
0.0
39
0.0
210
0.0
220
0.0
230
1.0
0
SOLID
5
129
330
123
100
AcDbEntity
8
0
62
7
6
ByLayer
370
-1
48
1.0
60
0
100
AcDbTrace
10
22.5000001311554
20
59.5707789989748
30
0.0
11
22.5000001311554
21
60.4041119989748
31
0.0
12
25.0000001311554
22
59.9874449989748
32
0.0
13
25.0000001311554
23
59.9874449989748
33
0.0
39
0.0
210
0.0
220
0.0
230
1.0
0
SOLID
5
12A
330
123
100
AcDbEntity
8
0
62
7
6
ByLayer
370
-1
48
1.0
60
0
100
AcDbTrace
10
2.50000013115542
20
60.4041119989748
30
0.0
11
2.50000013115542
21
59.5707789989748
31
0.0
12
0.00000013115542
22
59.9874449989748
32
0.0
13
0.00000013115542
23
59.9874449989748
33
0.0
39
0.0
210
0.0
220
0.0
230
1.0
0
MTEXT
5
12B
330
123
100
AcDbEntity
8
0
62
7
6
ByLayer
370
13
48
1.0
60
0
100
AcDbMText
10
12.5000001311554
20
65.2986949989748
30
0.0
210
0.0
220
0.0
230
1.0
1
\A1;25
40
3.5
41
0.0
44
1.0
50
0.0
71
5
72
5
7
Monospac821 BT
0
POINT
5
12C
330
123
100
AcDbEntity
8
Defpoints
62
0
6
ByLayer
370
-1
48
1.0
60
0
100
AcDbPoint
10
25.0000001311554
20
0.09773099897481
30
0.0
39
0.0
210
0.0
220
0.0
230
1.0
50
360.0
0
POINT
5
12D
330
123
100
AcDbEntity
8
Defpoints
62
0
6
ByLayer
370
-1
48
1.0
60
0
100
AcDbPoint
10
0.00000013115542
20
-0.00000000102519
30
0.0
39
0.0
210
0.0
220
0.0
230
1.0
50
360.0
0
POINT
5
12E
330
123
100
AcDbEntity
8
Defpoints
62
0
6
ByLayer
370
-1
48
1.0
60
0
100
AcDbPoint
10
0.00000013115542
20
59.9874449989748
30
0.0
39
0.0
210
0.0
220
0.0
230
1.0
50
360.0
0
ENDBLK
5
125
330
123
100
AcDbEntity
8
0
100
AcDbBlockEnd
0
BLOCK
5
136
330
12F
100
AcDbEntity
8
0
100
AcDbBlockBegin
2
_U3
70
0
10
0.0
20
0.0
30
0.0
3
_U3
0
MTEXT
5
130
330
12F
100
AcDbEntity
8
2
62
7
6
Continuous
370
13
48
1.0
60
0
100
AcDbMText
10
9.4752631311554
20
60.7060609989748
30
0.0
210
0.0
220
0.0
230
1.0
1
\fMonospac821 BT|b0|i0;\W1.0591;25
40
3.5
41
0.0
44
1.072372
50
0.0
71
7
72
5
7
Monospac821 BT
0
LINE
5
131
330
12F
100
AcDbEntity
8
2
62
7
6
ByLayer
370
13
48
1.0
60
0
100
AcDbLine
10
0.00000013115542
20
1.59999999897481
30
0.0
11
0.00000013115542
21
61.9874449989748
31
0.0
39
0.0
210
0.0
220
0.0
230
1.0
0
LINE
5
132
330
12F
100
AcDbEntity
8
2
62
7
6
ByLayer
370
13
48
1.0
60
0
100
AcDbLine
10
25.0000001311554
20
0.49999999897482
30
0.0
11
25.0000001311554
21
61.9874449989748
31
0.0
39
0.0
210
0.0
220
0.0
230
1.0
0
LINE
5
133
330
12F
100
AcDbEntity
8
2
62
7
6
ByLayer
370
13
48
1.0
60
0
100
AcDbLine
10
0.00000013115542
20
59.9874449989748
30
0.0
11
25.0000001311554
21
59.9874449989748
31
0.0
39
0.0
210
0.0
220
0.0
230
1.0
0
SOLID
5
134
330
12F
100
AcDbEntity
8
2
62
7
6
ByLayer
370
13
48
1.0
60
0
100
AcDbTrace
10
0.00000013115542
20
59.9874449989748
30
0.0
11
2.49999813115542
21
60.5416819989748
31
0.0
12
2.50000213115541
22
59.4332089989748
32
0.0
13
2.50000213115541
23
59.4332089989748
33
0.0
39
0.0
210
0.0
220
0.0
230
1.0
0
SOLID
5
135
330
12F
100
AcDbEntity
8
2
62
7
6
ByLayer
370
13
48
1.0
60
0
100
AcDbTrace
10
25.0000001311554
20
59.9874449989748
30
0.0
11
22.5000021311554
21
59.4332089989748
31
0.0
12
22.4999981311554
22
60.5416819989748
32
0.0
13
22.4999981311554
23
60.5416819989748
33
0.0
39
0.0
210
0.0
220
0.0
230
1.0
0
ENDBLK
5
137
330
12F
100
AcDbEntity
8
0
100
AcDbBlockEnd
0
BLOCK
5
13D
330
13C
100
AcDbEntity
8
0
100
AcDbBlockBegin
2
*D9
70
1
10
0.0
20
0.0
30
0.0
3
*D9
0
LINE
5
13F
330
13C
100
AcDbEntity
8
0
62
7
6
ByLayer
370
-2
48
1.0
60
0
100
AcDbLine
10
25.0000001311554
20
-0.00000000102519
30
0.0
11
25.0000001311554
21
31.9874449989748
31
0.0
39
0.0
210
0.0
220
0.0
230
1.0
0
LINE
5
140
330
13C
100
AcDbEntity
8
0
62
7
6
ByLayer
370
-2
48
1.0
60
0
100
AcDbLine
10
13.0000001311554
20
-0.24400000102519
30
0.0
11
13.0000001311554
21
31.9874449989748
31
0.0
39
0.0
210
0.0
220
0.0
230
1.0
0
LINE
5
141
330
13C
100
AcDbEntity
8
0
62
7
6
ByLayer
370
-2
48
1.0
60
0
100
AcDbLine
10
27.5000001311554
20
29.9874449989748
30
0.0
11
30.0000001311554
21
29.9874449989748
31
0.0
39
0.0
210
0.0
220
0.0
230
1.0
0
LINE
5
142
330
13C
100
AcDbEntity
8
0
62
7
6
ByLayer
370
-2
48
1.0
60
0
100
AcDbLine
10
10.5000001311554
20
29.9874449989748
30
0.0
11
8.00000013115542
21
29.9874449989748
31
0.0
39
0.0
210
0.0
220
0.0
230
1.0
0
SOLID
5
143
330
13C
100
AcDbEntity
8
0
62
7
6
ByLayer
370
-1
48
1.0
60
0
100
AcDbTrace
10
27.5000001311554
20
30.4041119989748
30
0.0
11
27.5000001311554
21
29.5707789989748
31
0.0
12
25.0000001311554
22
29.9874449989748
32
0.0
13
25.0000001311554
23
29.9874449989748
33
0.0
39
0.0
210
0.0
220
0.0
230
1.0
0
SOLID
5
144
330
13C
100
AcDbEntity
8
0
62
7
6
ByLayer
370
-1
48
1.0
60
0
100
AcDbTrace
10
10.5000001311554
20
29.5707789989748
30
0.0
11
10.5000001311554
21
30.4041119989748
31
0.0
12
13.0000001311554
22
29.9874449989748
32
0.0
13
13.0000001311554
23
29.9874449989748
33
0.0
39
0.0
210
0.0
220
0.0
230
1.0
0
MTEXT
5
145
330
13C
100
AcDbEntity
8
0
62
7
6
ByLayer
370
13
48
1.0
60
0
100
AcDbMText
10
19.0000001311554
20
35.2479449989748
30
0.0
210
0.0
220
0.0
230
1.0
1
\A1;12
40
3.5
41
0.0
44
1.0
50
0.0
71
5
72
5
7
Monospac821 BT
0
POINT
5
146
330
13C
100
AcDbEntity
8
Defpoints
62
0
6
ByLayer
370
-1
48
1.0
60
0
100
AcDbPoint
10
25.0000001311554
20
-0.00000000102519
30
0.0
39
0.0
210
0.0
220
0.0
230
1.0
50
360.0
0
POINT
5
147
330
13C
100
AcDbEntity
8
Defpoints
62
0
6
ByLayer
370
-1
48
1.0
60
0
100
AcDbPoint
10
13.0000001311554
20
-0.24400000102519
30
0.0
39
0.0
210
0.0
220
0.0
230
1.0
50
360.0
0
POINT
5
148
330
13C
100
AcDbEntity
8
Defpoints
62
0
6
ByLayer
370
-1
48
1.0
60
0
100
AcDbPoint
10
13.0000001311554
20
29.9874449989748
30
0.0
39
0.0
210
0.0
220
0.0
230
1.0
50
360.0
0
ENDBLK
5
13E
330
13C
100
AcDbEntity
8
0
100
AcDbBlockEnd
0
BLOCK
5
150
330
149
100
AcDbEntity
8
0
100
AcDbBlockBegin
2
_U4
70
0
10
0.0
20
0.0
30
0.0
3
_U4
0
MTEXT
5
14A
330
149
100
AcDbEntity
8
2
62
7
6
Continuous
370
13
48
1.0
60
0
100
AcDbMText
10
15.9752631311554
20
30.7060609989748
30
0.0
210
0.0
220
0.0
230
1.0
1
\fMonospac821 BT|b0|i0;\W1.0591;12
40
3.5
41
0.0
44
1.072372
50
0.0
71
7
72
5
7
Monospac821 BT
0
LINE
5
14B
330
149
100
AcDbEntity
8
2
62
7
6
ByLayer
370
13
48
1.0
60
0
100
AcDbLine
10
25.0000001311554
20
0.49999999897482
30
0.0
11
25.0000001311554
21
31.9874449989748
31
0.0
39
0.0
210
0.0
220
0.0
230
1.0
0
LINE
5
14C
330
149
100
AcDbEntity
8
2
62
7
6
ByLayer
370
13
48
1.0
60
0
100
AcDbLine
10
13.0000001311554
20
1.25799999897481
30
0.0
11
13.0000001311554
21
31.9874449989748
31
0.0
39
0.0
210
0.0
220
0.0
230
1.0
0
LINE
5
14D
330
149
100
AcDbEntity
8
2
62
7
6
ByLayer
370
13
48
1.0
60
0
100
AcDbLine
10
25.0000001311554
20
29.9874449989748
30
0.0
11
13.0000001311554
21
29.9874449989748
31
0.0
39
0.0
210
0.0
220
0.0
230
1.0
0
SOLID
5
14E
330
149
100
AcDbEntity
8
2
62
7
6
ByLayer
370
13
48
1.0
60
0
100
AcDbTrace
10
25.0000001311554
20
29.9874449989748
30
0.0
11
22.5000021311554
21
29.4332089989748
31
0.0
12
22.4999981311554
22
30.5416819989748
32
0.0
13
22.4999981311554
23
30.5416819989748
33
0.0
39
0.0
210
0.0
220
0.0
230
1.0
0
SOLID
5
14F
330
149
100
AcDbEntity
8
2
62
7
6
ByLayer
370
13
48
1.0
60
0
100
AcDbTrace
10
13.0000001311554
20
29.9874449989748
30
0.0
11
15.4999981311554
21
30.5416819989748
31
0.0
12
15.5000021311554
22
29.4332089989748
32
0.0
13
15.5000021311554
23
29.4332089989748
33
0.0
39
0.0
210
0.0
220
0.0
230
1.0
0
ENDBLK
5
151
330
149
100
AcDbEntity
8
0
100
AcDbBlockEnd
0
BLOCK
5
157
330
156
100
AcDbEntity
8
0
100
AcDbBlockBegin
2
*D11
70
1
10
0.0
20
0.0
30
0.0
3
*D11
0
LINE
5
159
330
156
100
AcDbEntity
8
0
62
7
6
ByLayer
370
-2
48
1.0
60
0
100
AcDbLine
10
25.0000001311554
20
-0.50000000102519
30
0.0
11
25.0000001311554
21
46.9874449989748
31
0.0
39
0.0
210
0.0
220
0.0
230
1.0
0
LINE
5
15A
330
156
100
AcDbEntity
8
0
62
7
6
ByLayer
370
-2
48
1.0
60
0
100
AcDbLine
10
4.00000013115542
20
-0.50000000102519
30
0.0
11
4.00000013115542
21
46.9874449989748
31
0.0
39
0.0
210
0.0
220
0.0
230
1.0
0
LINE
5
15B
330
156
100
AcDbEntity
8
0
62
7
6
ByLayer
370
-2
48
1.0
60
0
100
AcDbLine
10
22.5000001311554
20
44.9874449989748
30
0.0
11
6.50000013115542
21
44.9874449989748
31
0.0
39
0.0
210
0.0
220
0.0
230
1.0
0
SOLID
5
15C
330
156
100
AcDbEntity
8
0
62
7
6
ByLayer
370
-1
48
1.0
60
0
100
AcDbTrace
10
22.5000001311554
20
44.5707789989748
30
0.0
11
22.5000001311554
21
45.4041119989748
31
0.0
12
25.0000001311554
22
44.9874449989748
32
0.0
13
25.0000001311554
23
44.9874449989748
33
0.0
39
0.0
210
0.0
220
0.0
230
1.0
0
SOLID
5
15D
330
156
100
AcDbEntity
8
0
62
7
6
ByLayer
370
-1
48
1.0
60
0
100
AcDbTrace
10
6.50000013115542
20
45.4041119989748
30
0.0
11
6.50000013115542
21
44.5707789989748
31
0.0
12
4.00000013115542
22
44.9874449989748
32
0.0
13
4.00000013115542
23
44.9874449989748
33
0.0
39
0.0
210
0.0
220
0.0
230
1.0
0
MTEXT
5
15E
330
156
100
AcDbEntity
8
0
62
7
6
ByLayer
370
13
48
1.0
60
0
100
AcDbMText
10
14.5000001311554
20
50.2479449989748
30
0.0
210
0.0
220
0.0
230
1.0
1
\A1;21
40
3.5
41
0.0
44
1.0
50
0.0
71
5
72
5
7
Monospac821 BT
0
POINT
5
15F
330
156
100
AcDbEntity
8
Defpoints
62
0
6
ByLayer
370
-1
48
1.0
60
0
100
AcDbPoint
10
25.0000001311554
20
-0.50000000102519
30
0.0
39
0.0
210
0.0
220
0.0
230
1.0
50
360.0
0
POINT
5
160
330
156
100
AcDbEntity
8
Defpoints
62
0
6
ByLayer
370
-1
48
1.0
60
0
100
AcDbPoint
10
4.00000013115542
20
-0.50000000102519
30
0.0
39
0.0
210
0.0
220
0.0
230
1.0
50
360.0
0
POINT
5
161
330
156
100
AcDbEntity
8
Defpoints
62
0
6
ByLayer
370
-1
48
1.0
60
0
100
AcDbPoint
10
4.00000013115542
20
44.9874449989748
30
0.0
39
0.0
210
0.0
220
0.0
230
1.0
50
360.0
0
ENDBLK
5
158
330
156
100
AcDbEntity
8
0
100
AcDbBlockEnd
0
BLOCK
5
169
330
162
100
AcDbEntity
8
0
100
AcDbBlockBegin
2
_U5
70
0
10
0.0
20
0.0
30
0.0
3
_U5
0
MTEXT
5
163
330
162
100
AcDbEntity
8
2
62
7
6
Continuous
370
13
48
1.0
60
0
100
AcDbMText
10
11.4752631311554
20
45.7060609989748
30
0.0
210
0.0
220
0.0
230
1.0
1
\fMonospac821 BT|b0|i0;\W1.0591;21
40
3.5
41
0.0
44
1.072372
50
0.0
71
7
72
5
7
Monospac821 BT
0
LINE
5
164
330
162
100
AcDbEntity
8
2
62
7
6
ByLayer
370
13
48
1.0
60
0
100
AcDbLine
10
25.0000001311554
20
0.49999999897482
30
0.0
11
25.0000001311554
21
46.9874449989748
31
0.0
39
0.0
210
0.0
220
0.0
230
1.0
0
LINE
5
165
330
162
100
AcDbEntity
8
2
62
7
6
ByLayer
370
13
48
1.0
60
0
100
AcDbLine
10
4.00000013115542
20
0.49999999897482
30
0.0
11
4.00000013115542
21
46.9874449989748
31
0.0
39
0.0
210
0.0
220
0.0
230
1.0
0
LINE
5
166
330
162
100
AcDbEntity
8
2
62
7
6
ByLayer
370
13
48
1.0
60
0
100
AcDbLine
10
25.0000001311554
20
44.9874449989748
30
0.0
11
4.00000013115542
21
44.9874449989748
31
0.0
39
0.0
210
0.0
220
0.0
230
1.0
0
SOLID
5
167
330
162
100
AcDbEntity
8
2
62
7
6
ByLayer
370
13
48
1.0
60
0
100
AcDbTrace
10
25.0000001311554
20
44.9874449989748
30
0.0
11
22.5000021311554
21
44.4332089989748
31
0.0
12
22.4999981311554
22
45.5416819989748
32
0.0
13
22.4999981311554
23
45.5416819989748
33
0.0
39
0.0
210
0.0
220
0.0
230
1.0
0
SOLID
5
168
330
162
100
AcDbEntity
8
2
62
7
6
ByLayer
370
13
48
1.0
60
0
100
AcDbTrace
10
4.00000013115542
20
44.9874449989748
30
0.0
11
6.49999813115542
21
45.5416819989748
31
0.0
12
6.50000213115541
22
44.4332089989748
32
0.0
13
6.50000213115541
23
44.4332089989748
33
0.0
39
0.0
210
0.0
220
0.0
230
1.0
0
ENDBLK
5
16A
330
162
100
AcDbEntity
8
0
100
AcDbBlockEnd
0
ENDSEC
0
SECTION
2
ENTITIES
0
VIEWPORT
5
1CA
330
1B
100
AcDbEntity
67
1
8
0
62
256
6
ByLayer
370
-1
48
1.0
60
0
100
AcDbViewport
10
0.0
20
0.0
30
0.0
40
297.0
41
210.0
68
1
69
1
12
50.0
22
100.0
13
0.0
23
0.0
14
10.0
24
10.0
15
10.0
25
10.0
16
0.0
26
0.0
36
1.0
17
0.0
27
0.0
37
0.0
42
50.0
43
0.0
44
0.0
45
250.0
50
0.0
51
0.0
72
1000
90
819232
110
0.0
120
0.0
130
0.0
111
1.0
121
0.0
131
0.0
112
0.0
122
1.0
132
0.0
0
LINE
5
68
330
1F
100
AcDbEntity
67
0
8
1
62
256
6
ByLayer
370
-1
48
1.0
60
0
100
AcDbLine
10
25.0000001311554
20
0.24313199897482
30
0.0
11
25.0000001311554
21
0.76262999897482
31
0.0
39
0.0
210
0.0
220
0.0
230
1.0
0
LINE
5
6A
330
1F
100
AcDbEntity
67
0
8
1
62
256
6
ByLayer
370
-1
48
1.0
60
0
100
AcDbLine
10
12.7873271311554
20
0.31098399897481
30
0.0
11
12.5000001311554
21
0.31098399897481
31
0.0
39
0.0
210
0.0
220
0.0
230
1.0
0
LINE
5
6B
330
1F
100
AcDbEntity
67
0
8
1
62
256
6
ByLayer
370
-1
48
1.0
60
0
100
AcDbLine
10
12.7873271311554
20
1.45797399897481
30
0.0
11
7.1108001311554
21
1.45797399897481
31
0.0
39
0.0
210
0.0
220
0.0
230
1.0
0
LINE
5
6C
330
1F
100
AcDbEntity
67
0
8
1
62
256
6
ByLayer
370
-1
48
1.0
60
0
100
AcDbLine
10
24.4990701311554
20
-1.24304700102519
30
0.0
11
24.4785531311554
21
-1.49767000102518
31
0.0
39
0.0
210
0.0
220
0.0
230
1.0
0
LINE
5
6D
330
1F
100
AcDbEntity
67
0
8
1
62
256
6
ByLayer
370
-1
48
1.0
60
0
100
AcDbLine
10
24.4785531311554
20
-1.49767000102518
30
0.0
11
25.0000001311554
21
-0.99194700102518
31
0.0
39
0.0
210
0.0
220
0.0
230
1.0
0
LINE
5
6E
330
1F
100
AcDbEntity
67
0
8
1
62
256
6
ByLayer
370
-1
48
1.0
60
0
100
AcDbLine
10
24.5177761311554
20
-1.19919200102518
30
0.0
11
24.4990701311554
21
-1.24304700102519
31
0.0
39
0.0
210
0.0
220
0.0
230
1.0
0
LINE
5
6F
330
1F
100
AcDbEntity
67
0
8
1
62
256
6
ByLayer
370
-1
48
1.0
60
0
100
AcDbLine
10
24.4990701311554
20
-1.24304700102519
30
0.0
11
12.5000001311554
21
-1.24304700102519
31
0.0
39
0.0
210
0.0
220
0.0
230
1.0
0
LINE
5
70
330
1F
100
AcDbEntity
67
0
8
1
62
256
6
ByLayer
370
-1
48
1.0
60
0
100
AcDbLine
10
24.5177761311554
20
0.76263199897481
30
0.0
11
24.4990701311554
21
0.69999999897482
31
0.0
39
0.0
210
0.0
220
0.0
230
1.0
0
LINE
5
71
330
1F
100
AcDbEntity
67
0
8
1
62
256
6
ByLayer
370
-1
48
1.0
60
0
100
AcDbLine
10
24.4990701311554
20
0.69999999897482
30
0.0
11
24.4785531311554
21
0.15395899897482
31
0.0
39
0.0
210
0.0
220
0.0
230
1.0
0
LINE
5
72
330
1F
100
AcDbEntity
67
0
8
1
62
256
6
ByLayer
370
-1
48
1.0
60
0
100
AcDbLine
10
24.4990701311554
20
0.69999999897482
30
0.0
11
12.5000001311554
21
0.69999999897482
31
0.0
39
0.0
210
0.0
220
0.0
230
1.0
0
LINE
5
73
330
1F
100
AcDbEntity
67
0
8
1
62
256
6
ByLayer
370
-1
48
1.0
60
0
100
AcDbLine
10
24.4785531311554
20
0.15395899897482
30
0.0
11
24.4774091311554
21
0.15006199897481
31
0.0
39
0.0
210
0.0
220
0.0
230
1.0
0
LINE
5
74
330
1F
100
AcDbEntity
67
0
8
1
62
256
6
ByLayer
370
-1
48
1.0
60
0
100
AcDbLine
10
24.4785531311554
20
0.15395899897482
30
0.0
11
25.0000001311554
21
0.24313199897482
31
0.0
39
0.0
210
0.0
220
0.0
230
1.0
0
LINE
5
75
330
1F
100
AcDbEntity
67
0
8
1
62
256
6
ByLayer
370
-1
48
1.0
60
0
100
AcDbLine
10
4.00000013115542
20
-0.13476600102518
30
0.0
11
5.9023411311554
21
-0.13476600102518
31
0.0
39
0.0
210
0.0
220
0.0
230
1.0
0
LINE
5
76
330
1F
100
AcDbEntity
67
0
8
SK1
62
256
6
ByLayer
370
-1
48
1.0
60
0
100
AcDbLine
10
-24.6999998688446
20
1.99999999897481
30
0.0
11
-24.9999998688446
21
1.69999999897482
31
0.0
39
0.0
210
0.0
220
0.0
230
1.0
0
LINE
5
78
330
1F
100
AcDbEntity
67
0
8
SK1
62
256
6
ByLayer
370
-1
48
1.0
60
0
100
AcDbLine
10
0.00000013115542
20
1.99999999897481
30
0.0
11
-24.6999998688446
21
1.99999999897481
31
0.0
39
0.0
210
0.0
220
0.0
230
1.0
0
LINE
5
79
330
1F
100
AcDbEntity
67
0
8
SK1
62
256
6
ByLayer
370
-1
48
1.0
60
0
100
AcDbLine
10
-24.6999998688446
20
-2.00000000102519
30
0.0
11
0.00000013115542
21
-2.00000000102519
31
0.0
39
0.0
210
0.0
220
0.0
230
1.0
0
LINE
5
7A
330
1F
100
AcDbEntity
67
0
8
1
62
256
6
ByLayer
370
-1
48
1.0
60
0
100
AcDbLine
10
4.00000013115542
20
1.45799999897481
30
0.0
11
0.00000013115542
21
1.99999999897481
31
0.0
39
0.0
210
0.0
220
0.0
230
1.0
0
LINE
5
7B
330
1F
100
AcDbEntity
67
0
8
1
62
256
6
ByLayer
370
-1
48
1.0
60
0
100
AcDbLine
10
0.00000013115542
20
-2.00000000102519
30
0.0
11
4.00000013115542
21
-1.45800000102518
31
0.0
39
0.0
210
0.0
220
0.0
230
1.0
0
LINE
5
7C
330
1F
100
AcDbEntity
67
0
8
SK1
62
256
6
ByLayer
370
-1
48
1.0
60
0
100
AcDbLine
10
-24.9999998688446
20
1.69999999897482
30
0.0
11
-24.9999998688446
21
-1.70000000102519
31
0.0
39
0.0
210
0.0
220
0.0
230
1.0
0
LINE
5
7D
330
1F
100
AcDbEntity
67
0
8
SK1
62
256
6
ByLayer
370
-1
48
1.0
60
0
100
AcDbLine
10
0.00000013115542
20
-2.00000000102519
30
0.0
11
0.00000013115542
21
1.99999999897481
31
0.0
39
0.0
210
0.0
220
0.0
230
1.0
0
LINE
5
7E
330
1F
100
AcDbEntity
67
0
8
SK1
62
256
6
ByLayer
370
-1
48
1.0
60
0
100
AcDbLine
10
-24.6999998688446
20
1.99999999897481
30
0.0
11
-24.6999998688446
21
-2.00000000102519
31
0.0
39
0.0
210
0.0
220
0.0
230
1.0
0
LINE
5
7F
330
1F
100
AcDbEntity
67
0
8
1
62
256
6
ByLayer
370
-1
48
1.0
60
0
100
AcDbLine
10
12.7873271311554
20
-1.45797400102519
30
0.0
11
12.7873271311554
21
-1.42444800102518
31
0.0
39
0.0
210
0.0
220
0.0
230
1.0
0
LINE
5
80
330
1F
100
AcDbEntity
67
0
8
1
62
256
6
ByLayer
370
-1
48
1.0
60
0
100
AcDbLine
10
13.0000001311554
20
-1.49549900102519
30
0.0
11
13.0000001311554
21
-1.48430900102518
31
0.0
39
0.0
210
0.0
220
0.0
230
1.0
0
LINE
5
81
330
1F
100
AcDbEntity
67
0
8
1
62
256
6
ByLayer
370
-1
48
1.0
60
0
100
AcDbLine
10
0.00000013115542
20
-2.00000000102519
30
0.0
11
0.00000013115542
21
1.99999999897481
31
0.0
39
0.0
210
0.0
220
0.0
230
1.0
0
LINE
5
82
330
1F
100
AcDbEntity
67
0
8
1
62
256
6
ByLayer
370
-1
48
1.0
60
0
100
AcDbLine
10
4.00000013115542
20
-1.45800000102518
30
0.0
11
4.00000013115542
21
-0.75863900102519
31
0.0
39
0.0
210
0.0
220
0.0
230
1.0
0
LINE
5
83
330
1F
100
AcDbEntity
67
0
8
4
62
256
6
ByLayer
370
-1
48
1.0
60
0
100
AcDbLine
10
26.5000001311554
20
-0.00000000102519
30
0.0
11
-1.49999986884458
21
-0.00000000102519
31
0.0
39
0.0
210
0.0
220
0.0
230
1.0
0
LINE
5
85
330
1F
100
AcDbEntity
67
0
8
SK4
62
256
6
ByLayer
370
-1
48
1.0
60
0
100
AcDbLine
10
26.5000001311554
20
-0.00000000102519
30
0.0
11
-26.4999998688446
21
-0.00000000102519
31
0.0
39
0.0
210
0.0
220
0.0
230
1.0
0
LINE
5
87
330
1F
100
AcDbEntity
67
0
8
SK1
62
256
6
ByLayer
370
-1
48
1.0
60
0
100
AcDbLine
10
-24.9999998688446
20
-1.70000000102519
30
0.0
11
-24.6999998688446
21
-2.00000000102519
31
0.0
39
0.0
210
0.0
220
0.0
230
1.0
0
LINE
5
88
330
1F
100
AcDbEntity
67
0
8
1
62
256
6
ByLayer
370
-1
48
1.0
60
0
100
AcDbLine
10
13.0000001311554
20
0.00202799897481
30
0.0
11
13.0000001311554
21
0.18261199897481
31
0.0
39
0.0
210
0.0
220
0.0
230
1.0
0
LINE
5
89
330
1F
100
AcDbEntity
67
0
8
1
62
256
6
ByLayer
370
-1
48
1.0
60
0
100
AcDbLine
10
25.0000001311554
20
0.08550499897481
30
0.0
11
24.5000001311554
21
-0.00000000102519
31
0.0
39
0.0
210
0.0
220
0.0
230
1.0
0
LINE
5
8A
330
1F
100
AcDbEntity
67
0
8
1
62
256
6
ByLayer
370
-1
48
1.0
60
0
100
AcDbLine
10
25.0000001311554
20
0.08550499897481
30
0.0
11
25.0000001311554
21
0.24313199897482
31
0.0
39
0.0
210
0.0
220
0.0
230
1.0
0
LINE
5
8B
330
1F
100
AcDbEntity
67
0
8
1
62
256
6
ByLayer
370
-1
48
1.0
60
0
100
AcDbLine
10
6.96617113115542
20
-0.75863900102519
30
0.0
11
4.00000013115542
21
-0.75863900102519
31
0.0
39
0.0
210
0.0
220
0.0
230
1.0
0
LINE
5
8C
330
1F
100
AcDbEntity
67
0
8
1
62
256
6
ByLayer
370
-1
48
1.0
60
0
100
AcDbLine
10
4.00000013115542
20
-0.13476600102518
30
0.0
11
4.00000013115542
21
1.24508299897481
31
0.0
39
0.0
210
0.0
220
0.0
230
1.0
0
LINE
5
8D
330
1F
100
AcDbEntity
67
0
8
1
62
256
6
ByLayer
370
-1
48
1.0
60
0
100
AcDbLine
10
4.00000013115542
20
1.45799999897481
30
0.0
11
4.00000013115542
21
1.45175799897481
31
0.0
39
0.0
210
0.0
220
0.0
230
1.0
0
LINE
5
8E
330
1F
100
AcDbEntity
67
0
8
1
62
256
6
ByLayer
370
-1
48
1.0
60
0
100
AcDbLine
10
25.0000001311554
20
0.99735899897482
30
0.0
11
25.0000001311554
21
1.02207699897481
31
0.0
39
0.0
210
0.0
220
0.0
230
1.0
0
LINE
5
8F
330
1F
100
AcDbEntity
67
0
8
1
62
256
6
ByLayer
370
-1
48
1.0
60
0
100
AcDbLine
10
25.0000001311554
20
1.02207699897481
30
0.0
11
24.5000001311554
21
1.50699999897481
31
0.0
39
0.0
210
0.0
220
0.0
230
1.0
0
LINE
5
90
330
1F
100
AcDbEntity
67
0
8
1
62
256
6
ByLayer
370
-1
48
1.0
60
0
100
AcDbLine
10
6.78113113115541
20
1.45799999897481
30
0.0
11
4.00000013115542
21
1.45799999897481
31
0.0
39
0.0
210
0.0
220
0.0
230
1.0
0
LINE
5
91
330
1F
100
AcDbEntity
67
0
8
1
62
256
6
ByLayer
370
-1
48
1.0
60
0
100
AcDbLine
10
25.0000001311554
20
-1.02207700102518
30
0.0
11
25.0000001311554
21
-0.99194700102518
31
0.0
39
0.0
210
0.0
220
0.0
230
1.0
0
LINE
5
92
330
1F
100
AcDbEntity
67
0
8
1
62
256
6
ByLayer
370
-1
48
1.0
60
0
100
AcDbLine
10
25.0000001311554
20
-1.02207700102518
30
0.0
11
24.5000001311554
21
-1.50700000102519
31
0.0
39
0.0
210
0.0
220
0.0
230
1.0
0
LINE
5
93
330
1F
100
AcDbEntity
67
0
8
1
62
256
6
ByLayer
370
-1
48
1.0
60
0
100
AcDbLine
10
24.4785531311554
20
-1.49767000102518
30
0.0
11
24.4774091311554
21
-1.49948700102519
31
0.0
39
0.0
210
0.0
220
0.0
230
1.0
0
LINE
5
94
330
1F
100
AcDbEntity
67
0
8
1
62
256
6
ByLayer
370
-1
48
1.0
60
0
100
AcDbLine
10
4.00000013115542
20
1.45175799897481
30
0.0
11
5.9023411311554
21
1.45175799897481
31
0.0
39
0.0
210
0.0
220
0.0
230
1.0
0
LINE
5
95
330
1F
100
AcDbEntity
67
0
8
1
62
256
6
ByLayer
370
-1
48
1.0
60
0
100
AcDbLine
10
25.0000001311554
20
-0.99194700102518
30
0.0
11
25.0000001311554
21
-0.76718800102519
31
0.0
39
0.0
210
0.0
220
0.0
230
1.0
0
LINE
5
96
330
1F
100
AcDbEntity
67
0
8
1
62
256
6
ByLayer
370
-1
48
1.0
60
0
100
AcDbLine
10
12.7873271311554
20
-1.45797400102519
30
0.0
11
7.1108001311554
21
-1.45797400102519
31
0.0
39
0.0
210
0.0
220
0.0
230
1.0
0
LINE
5
97
330
1F
100
AcDbEntity
67
0
8
1
62
256
6
ByLayer
370
-1
48
1.0
60
0
100
AcDbLine
10
12.7873271311554
20
-1.42444800102518
30
0.0
11
12.5000001311554
21
-1.42444800102518
31
0.0
39
0.0
210
0.0
220
0.0
230
1.0
0
LINE
5
98
330
1F
100
AcDbEntity
67
0
8
1
62
256
6
ByLayer
370
-1
48
1.0
60
0
100
AcDbLine
10
12.5000001311554
20
-1.24058800102519
30
0.0
11
12.5000001311554
21
-1.42444800102518
31
0.0
39
0.0
210
0.0
220
0.0
230
1.0
0
LINE
5
99
330
1F
100
AcDbEntity
67
0
8
1
62
256
6
ByLayer
370
-1
48
1.0
60
0
100
AcDbLine
10
4.00000013115542
20
-1.45800000102518
30
0.0
11
6.78113113115541
21
-1.45800000102518
31
0.0
39
0.0
210
0.0
220
0.0
230
1.0
0
LINE
5
9A
330
1F
100
AcDbEntity
67
0
8
1
62
256
6
ByLayer
370
-1
48
1.0
60
0
100
AcDbLine
10
12.7873271311554
20
0.00864499897482
30
0.0
11
7.1108001311554
21
0.00864499897482
31
0.0
39
0.0
210
0.0
220
0.0
230
1.0
0
LINE
5
9B
330
1F
100
AcDbEntity
67
0
8
1
62
256
6
ByLayer
370
-1
48
1.0
60
0
100
AcDbLine
10
6.96617113115542
20
1.24508299897481
30
0.0
11
4.00000013115542
21
1.24508299897481
31
0.0
39
0.0
210
0.0
220
0.0
230
1.0
0
LINE
5
9C
330
1F
100
AcDbEntity
67
0
8
1
62
256
6
ByLayer
370
-1
48
1.0
60
0
100
AcDbLine
10
12.5000001311554
20
0.76596699897482
30
0.0
11
12.5000001311554
21
0.31098399897481
31
0.0
39
0.0
210
0.0
220
0.0
230
1.0
0
LINE
5
9D
330
1F
100
AcDbEntity
67
0
8
1
62
256
6
ByLayer
370
-1
48
1.0
60
0
100
AcDbLine
10
12.7873271311554
20
0.00864499897482
30
0.0
11
12.7873271311554
21
0.31098399897481
31
0.0
39
0.0
210
0.0
220
0.0
230
1.0
0
ELLIPSE
5
9E
330
1F
100
AcDbEntity
67
0
8
1
62
256
6
ByLayer
370
-1
48
1.0
60
0
100
AcDbEllipse
10
26.1098331311554
20
-0.00030800102519
30
0.0
11
-1.44846039864344
21
0.94362086703673
31
0.0
210
0.0
220
0.0
230
1.0
40
0.812631
41
0.57592008406422
42
0.67555630341442
0
ELLIPSE
5
9F
330
1F
100
AcDbEntity
67
0
8
1
62
256
6
ByLayer
370
-1
48
1.0
60
0
100
AcDbEllipse
10
26.1098331311554
20
0.00160999897481
30
0.0
11
-1.63278296378244
21
-1.50071744135083
31
0.0
210
0.0
220
0.0
230
1.0
40
0.094386
41
0.00249396431842
42
0.10213018429745
0
SPLINE
5
A0
330
1F
100
AcDbEntity
67
0
8
1
62
256
6
ByLayer
370
-1
48
1.0
60
0
100
AcDbSpline
70
4
71
3
42
0.000000001
43
0.0000000001
44
0.0000000001
40
0.0
40
0.0
40
0.0
40
0.0
40
0.01221148897217
40
0.25915861672913
40
0.32089539866837
40
0.35176378963799
40
0.38263218060761
40
0.50610574448609
40
1.0
40
1.0
40
1.0
40
1.0
41
1.0
10
7.110799824445
20
1.45797437285911
30
0.0
41
1.0
10
7.18253089914231
20
1.44667725154991
30
0.0
41
1.0
10
8.70554084444072
20
1.21130805197791
30
0.0
41
1.0
10
10.6089394367958
20
1.03522030149711
30
0.0
41
1.0
10
12.6303358207899
20
0.99614230648021
30
0.0
41
1.0
10
13.367014213787
20
0.99758318804301
30
0.0
41
1.0
10
14.4750845386305
20
0.99713548359001
30
0.0
41
1.0
10
18.3526649859049
20
0.99771739838411
30
0.0
41
1.0
10
22.0456405859177
20
0.99735929261512
30
0.0
41
1.0
10
25.0
20
0.99735929261502
30
0.0
0
SPLINE
5
A1
330
1F
100
AcDbEntity
67
0
8
1
62
256
6
ByLayer
370
-1
48
1.0
60
0
100
AcDbSpline
70
4
71
3
42
0.000000001
43
0.0000000001
44
0.0000000001
40
0.0
40
0.0
40
0.0
40
0.0
40
0.10846953937593
40
0.10846953937593
40
0.25705794947994
40
0.25705794947994
40
0.40564635958395
40
0.40564635958395
40
0.55423476968797
40
0.55423476968797
40
0.70282317979198
40
0.70282317979198
40
0.85141158989599
40
0.85141158989599
40
1.0
40
1.0
40
1.0
40
1.0
41
1.0
10
8.3039065124749
20
1.06065892096491
30
0.0
41
1.0
10
8.2170670302412
20
1.07413272674032
30
0.0
41
1.0
10
8.13034309789322
20
1.08849387611851
30
0.0
41
1.0
10
7.92500525971261
20
1.12379589223072
30
0.0
41
1.0
10
7.80642680086692
20
1.14516006932411
30
0.0
41
1.0
10
7.56914203844821
20
1.18777839668562
30
0.0
41
1.0
10
7.45043273335401
20
1.20901047262511
30
0.0
41
1.0
10
7.21270770069822
20
1.25023034853722
30
0.0
41
1.0
10
7.09369508068792
20
1.27023261056472
30
0.0
41
1.0
10
6.85536641977072
20
1.30892196712661
30
0.0
41
1.0
10
6.73600595968122
20
1.32763224705411
30
0.0
41
1.0
10
6.49746931373051
20
1.36408611482422
30
0.0
41
1.0
10
6.37825412011932
20
1.38184144592471
30
0.0
41
1.0
10
6.14005934989072
20
1.41694059467461
30
0.0
41
1.0
10
6.02107422370892
20
1.43427410170561
30
0.0
41
1.0
10
5.90234110150701
20
1.45175829226081
30
0.0
0
SPLINE
5
A2
330
1F
100
AcDbEntity
67
0
8
1
62
256
6
ByLayer
370
-1
48
1.0
60
0
100
AcDbSpline
70
4
71
3
42
0.000000001
43
0.0000000001
44
0.0000000001
40
0.0
40
0.0
40
0.0
40
0.0
40
0.03125
40
0.03125
40
0.0625
40
0.0625
40
0.09375
40
0.09375
40
0.125
40
0.125
40
0.25
40
0.25
40
0.5
40
0.5
40
1.0
40
1.0
40
1.0
40
1.0
41
1.0
10
12.5
20
-1.19685705678678
30
0.0
41
1.0
10
12.6251816779362
20
-1.19801837282078
30
0.0
41
1.0
10
12.7503646891587
20
-1.19874557650809
30
0.0
41
1.0
10
13.0007332049484
20
-1.19938816157308
30
0.0
41
1.0
10
13.1259185930457
20
-1.19934146499989
30
0.0
41
1.0
10
13.3762895702783
20
-1.19918261472779
30
0.0
41
1.0
10
13.5014749851629
20
-1.19912719635349
30
0.0
41
1.0
10
13.7518454490972
20
-1.19913547382389
30
0.0
41
1.0
10
13.8770305823089
20
-1.19917176691258
30
0.0
41
1.0
10
14.502956453806
20
-1.19928634245949
30
0.0
41
1.0
10
15.0036974905617
20
-1.19927693046598
30
0.0
41
1.0
10
16.5059204157407
20
-1.19918360741569
30
0.0
41
1.0
10
17.5074023658331
20
-1.19912110630278
30
0.0
41
1.0
10
20.5118482306411
20
-1.19908748809578
30
0.0
41
1.0
10
22.5148121452836
20
-1.19917802617259
30
0.0
41
1.0
10
24.5177760595781
20
-1.19919160203288
30
0.0
0
SPLINE
5
A3
330
1F
100
AcDbEntity
67
0
8
1
62
256
6
ByLayer
370
-1
48
1.0
60
0
100
AcDbSpline
70
4
71
3
42
0.000000001
43
0.0000000001
44
0.0000000001
40
0.0
40
0.0
40
0.0
40
0.0
40
1.0
40
1.0
40
1.0
40
1.0
41
1.0
10
24.5177760595786
20
-1.19919160203179
30
0.0
41
1.0
10
24.6785175353076
20
-1.05519051752519
30
0.0
41
1.0
10
24.83925885883
20
-0.91118926310749
30
0.0
41
1.0
10
25.0
20
-0.76718780514119
30
0.0
0
SPLINE
5
A4
330
1F
100
AcDbEntity
67
0
8
1
62
256
6
ByLayer
370
-1
48
1.0
60
0
100
AcDbSpline
70
4
71
3
42
0.000000001
43
0.0000000001
44
0.0000000001
40
0.0
40
0.0
40
0.0
40
0.0
40
1.0
40
1.0
40
1.0
40
1.0
41
1.0
10
12.5
20
-1.19685705678678
30
0.0
41
1.0
10
12.5
20
-1.21143408164639
30
0.0
41
1.0
10
12.5
20
-1.22601110650599
30
0.0
41
1.0
10
12.5
20
-1.24058813136558
30
0.0
0
SPLINE
5
A5
330
1F
100
AcDbEntity
67
0
8
1
62
256
6
ByLayer
370
-1
48
1.0
60
0
100
AcDbSpline
70
4
71
3
42
0.000000001
43
0.0000000001
44
0.0000000001
40
0.0
40
0.0
40
0.0
40
0.0
40
1.0
40
1.0
40
1.0
40
1.0
41
1.0
10
24.5177760595774
20
0.76263206109492
30
0.0
41
1.0
10
24.6785175353068
20
0.76263050514271
30
0.0
41
1.0
10
24.8392588588296
20
0.76262965708172
30
0.0
41
1.0
10
25.0
20
0.76262965708172
30
0.0
0
SPLINE
5
A6
330
1F
100
AcDbEntity
67
0
8
1
62
256
6
ByLayer
370
-1
48
1.0
60
0
100
AcDbSpline
70
4
71
3
42
0.000000001
43
0.0000000001
44
0.0000000001
40
0.0
40
0.0
40
0.0
40
0.0
40
0.25
40
0.25
40
0.5
40
0.5
40
0.625
40
0.625
40
0.75
40
0.75
40
0.8125
40
0.8125
40
0.875
40
0.875
40
0.9375
40
0.9375
40
0.96875
40
0.96875
40
1.0
40
1.0
40
1.0
40
1.0
41
1.0
10
7.110799824445
20
0.00864454081101
30
0.0
41
1.0
10
7.00884798888941
20
0.00864454081101
30
0.0
41
1.0
10
6.9069472472078
20
0.00669606005582
30
0.0
41
1.0
10
6.70325906946522
20
-0.00152197049529
30
0.0
41
1.0
10
6.60147082369181
20
-0.00776494490559
30
0.0
41
1.0
10
6.44926540754332
20
-0.02143274716489
30
0.0
41
1.0
10
6.39859808964562
20
-0.02671460680179
30
0.0
41
1.0
10
6.2974405026778
20
-0.03917268925549
30
0.0
41
1.0
10
6.2469229770698
20
-0.04633816824159
30
0.0
41
1.0
10
6.17154487495111
20
-0.05914831596189
30
0.0
41
1.0
10
6.14648041906872
20
-0.06376656408848
30
0.0
41
1.0
10
6.0965151654527
20
-0.07392797885979
30
0.0
41
1.0
10
6.07160934178222
20
-0.07946723467299
30
0.0
41
1.0
10
6.0221613788417
20
-0.09185403112259
30
0.0
41
1.0
10
5.9975730618265
20
-0.09869273012198
30
0.0
41
1.0
10
5.96122829134612
20
-0.11058101415109
30
0.0
41
1.0
10
5.94921022407181
20
-0.11481716206789
30
0.0
41
1.0
10
5.92545888184222
20
-0.12409297968939
30
0.0
41
1.0
10
5.9137320833
20
-0.12912145589449
30
0.0
41
1.0
10
5.90234110150692
20
-0.13476594841359
30
0.0
0
SPLINE
5
A7
330
1F
100
AcDbEntity
67
0
8
NOCUT
62
256
6
ByLayer
370
-1
48
1.0
60
0
100
AcDbSpline
70
2055
71
3
42
0.000000001
43
0.0000000001
44
0.0000000001
40
0.0
40
0.0
40
0.0
40
0.0
40
0.0506342668
40
0.0506342668
40
0.0506342668
40
0.05794598
40
0.05794598
40
0.05794598
40
0.3554651088
40
0.3554651088
40
0.3554651088
40
0.4921337322
40
0.4921337322
40
0.4921337322
40
0.5598492346
40
0.5598492346
40
0.5598492346
40
1.0
40
1.0
40
1.0
40
1.0
41
1.0
10
13.0
20
-0.00000000000018
30
0.0
41
1.0
10
13.0
20
0.49849999999991
30
0.0
41
1.0
10
13.0
20
0.99699999999982
30
0.0
41
1.0
10
13.0
20
1.49549999999991
30
0.0
41
1.0
10
12.9291089772547
20
1.48299999999981
30
0.0
41
1.0
10
12.8582179545095
20
1.47049999999982
30
0.0
41
1.0
10
12.7873269317643
20
1.45799999999981
30
0.0
41
1.0
10
9.85821795450951
20
1.45799999999991
30
0.0
41
1.0
10
6.92910897725471
20
1.45799999999991
30
0.0
41
1.0
10
4.0
20
1.45799999999991
30
0.0
41
1.0
10
2.6666666666666
20
1.63866666666661
30
0.0
41
1.0
10
1.33333333333331
20
1.81933333333322
30
0.0
41
1.0
10
0.0
20
1.99999999999991
30
0.0
41
1.0
10
0.0
20
1.33333333333321
30
0.0
41
1.0
10
0.0
20
0.66666666666662
30
0.0
41
1.0
10
0.0
20
-0.00000000000009
30
0.0
41
1.0
10
4.33333333333331
20
-0.00000000000009
30
0.0
41
1.0
10
8.6666666666666
20
-0.00000000000009
30
0.0
41
1.0
10
13.0
20
-0.00000000000018
30
0.0
0
SPLINE
5
A9
330
1F
100
AcDbEntity
67
0
8
CUT
62
256
6
ByLayer
370
-1
48
1.0
60
0
100
AcDbSpline
70
2055
71
3
42
0.000000001
43
0.0000000001
44
0.0000000001
40
0.0
40
0.0
40
0.0
40
0.0
40
0.055991078
40
0.055991078
40
0.055991078
40
0.4865478948
40
0.4865478948
40
0.4865478948
40
0.5130217638
40
0.5130217638
40
0.5130217638
40
0.5507235462
40
0.5507235462
40
0.5507235462
40
1.0
40
1.0
40
1.0
40
1.0
41
1.0
10
13.0
20
-0.00000000000018
30
0.0
41
1.0
10
12.9999999999999
20
0.49849999999991
30
0.0
41
1.0
10
12.9999999999999
20
0.99699999999982
30
0.0
41
1.0
10
12.9999999999999
20
1.49549999999991
30
0.0
41
1.0
10
16.8333333333332
20
1.49933333333321
30
0.0
41
1.0
10
20.6666666666664
20
1.50316666666652
30
0.0
41
1.0
10
24.4999999999997
20
1.50699999999981
30
0.0
41
1.0
10
24.6666666666665
20
1.34033333333311
30
0.0
41
1.0
10
24.8333333333332
20
1.17366666666651
30
0.0
41
1.0
10
25.0
20
1.00699999999981
30
0.0
41
1.0
10
25.0
20
0.67133333333311
30
0.0
41
1.0
10
25.0
20
0.33566666666651
30
0.0
41
1.0
10
25.0
20
-0.00000000000018
30
0.0
41
1.0
10
21.0
20
-0.00000000000018
30
0.0
41
1.0
10
17.0
20
-0.00000000000018
30
0.0
41
1.0
10
13.0
20
-0.00000000000018
30
0.0
0
SPLINE
5
AB
330
1F
100
AcDbEntity
67
0
8
1
62
256
6
ByLayer
370
-1
48
1.0
60
0
100
AcDbSpline
70
4
71
3
42
0.000000001
43
0.0000000001
44
0.0000000001
40
0.0
40
0.0
40
0.0
40
0.0
40
0.5
40
0.5
40
0.75
40
0.75
40
1.0
40
1.0
40
1.0
40
1.0
41
1.0
10
13.0000000000077
20
0.18261218548992
30
0.0
41
1.0
10
12.9629452690686
20
0.20178902403342
30
0.0
41
1.0
10
12.9264981648835
20
0.22182253479662
30
0.0
41
1.0
10
12.873120622916
20
0.25369591866831
30
0.0
41
1.0
10
12.8555455161397
20
0.26462689496751
30
0.0
41
1.0
10
12.8209299001789
20
0.28724255846221
30
0.0
41
1.0
10
12.8039049065424
20
0.29891850810591
30
0.0
41
1.0
10
12.7873269317633
20
0.31098354017111
30
0.0
0
SPLINE
5
AC
330
1F
100
AcDbEntity
67
0
8
1
62
256
6
ByLayer
370
-1
48
1.0
60
0
100
AcDbSpline
70
4
71
3
42
0.000000001
43
0.0000000001
44
0.0000000001
40
0.0
40
0.0
40
0.0
40
0.0
40
0.21841624869302
40
0.21841624869302
40
1.0
40
1.0
40
1.0
40
1.0
41
1.0
10
24.5
20
-0.00000000000018
30
0.0
41
1.0
10
23.6627377132402
20
0.00014763193091
30
0.0
41
1.0
10
22.8254754265028
20
0.00029526768721
30
0.0
41
1.0
10
18.9921420929021
20
0.00097122289741
30
0.0
41
1.0
10
15.9960710463044
20
0.00149958774001
30
0.0
41
1.0
10
13.0
20
0.00202800273772
30
0.0
0
SPLINE
5
AD
330
1F
100
AcDbEntity
67
0
8
1
62
256
6
ByLayer
370
-1
48
1.0
60
0
100
AcDbSpline
70
4
71
3
42
0.000000001
43
0.0000000001
44
0.0000000001
40
0.0
40
0.0
40
0.0
40
0.0
40
1.0
40
1.0
40
1.0
40
1.0
41
1.0
10
24.4774089628964
20
0.15006198934502
30
0.0
41
1.0
10
20.6516047682928
20
0.16056056138511
30
0.0
41
1.0
10
16.825801672196
20
0.17138329027671
30
0.0
41
1.0
10
13.0000000000115
20
0.18261218549522
30
0.0
0
SPLINE
5
AE
330
1F
100
AcDbEntity
67
0
8
1
62
256
6
ByLayer
370
-1
48
1.0
60
0
100
AcDbSpline
70
4
71
3
42
0.000000001
43
0.0000000001
44
0.0000000001
40
0.0
40
0.0
40
0.0
40
0.0
40
0.12500000000001
40
0.12500000000001
40
0.25000000000001
40
0.25000000000001
40
0.37500000000002
40
0.37500000000002
40
0.43750000000002
40
0.43750000000002
40
0.50000000000003
40
0.50000000000003
40
0.56250000000003
40
0.56250000000003
40
0.59375000000004
40
0.59375000000004
40
0.62500000000004
40
0.62500000000004
40
0.65625000000004
40
0.65625000000004
40
0.67187500000004
40
0.67187500000004
40
0.68750000000004
40
0.68750000000004
40
0.69531250000004
40
0.69531250000004
40
0.69921875000004
40
0.69921875000004
40
0.70312500000004
40
0.70312500000004
40
0.70703125000004
40
0.70703125000004
40
0.70898437500004
40
0.70898437500004
40
0.71093750000004
40
0.71093750000004
40
0.71289062500004
40
0.71289062500004
40
0.71484375000004
40
0.71484375000004
40
0.71875000000004
40
0.71875000000004
40
0.72265625000004
40
0.72265625000004
40
0.72656250000004
40
0.72656250000004
40
0.73437500000004
40
0.73437500000004
40
0.75000000000004
40
0.75000000000004
40
0.76562500000004
40
0.76562500000004
40
0.78125000000004
40
0.78125000000004
40
0.81250000000003
40
0.81250000000003
40
0.84375000000003
40
0.84375000000003
40
0.87500000000002
40
0.87500000000002
40
0.93750000000001
40
0.93750000000001
40
1.0
40
1.0
40
1.0
40
1.0
41
1.0
10
6.96617140605591
20
-0.75863896777489
30
0.0
41
1.0
10
7.14333525905832
20
-0.75953850649769
30
0.0
41
1.0
10
7.32057203112822
20
-0.75695567554979
30
0.0
41
1.0
10
7.67523531053121
20
-0.74623724204488
30
0.0
41
1.0
10
7.85266149220391
20
-0.73809216220178
30
0.0
41
1.0
10
8.20771941090962
20
-0.71676792920259
30
0.0
41
1.0
10
8.3853515756949
20
-0.70360241267279
30
0.0
41
1.0
10
8.65194553668252
20
-0.67981219586689
30
0.0
41
1.0
10
8.7408734937577
20
-0.67119690673079
30
0.0
41
1.0
10
8.91851894953692
20
-0.65242042791469
30
0.0
41
1.0
10
9.00724340634952
20
-0.64226573610348
30
0.0
41
1.0
10
9.1844209343441
20
-0.61998266162559
30
0.0
41
1.0
10
9.27287772186241
20
-0.60787626531339
30
0.0
41
1.0
10
9.40522981011662
20
-0.58747138802359
30
0.0
41
1.0
10
9.44929079264932
20
-0.58029043281449
30
0.0
41
1.0
10
9.5372498341593
20
-0.56487330917429
30
0.0
41
1.0
10
9.58114959271802
20
-0.55664719988968
30
0.0
41
1.0
10
9.6686867501771
20
-0.53855163010569
30
0.0
41
1.0
10
9.7123319510811
20
-0.52872835324489
30
0.0
41
1.0
10
9.77740685442731
20
-0.51160039750418
30
0.0
41
1.0
10
9.79903221759432
20
-0.50548757482879
30
0.0
41
1.0
10
9.84205119255421
20
-0.49186772336878
30
0.0
41
1.0
10
9.86346780122761
20
-0.48441957893429
30
0.0
41
1.0
10
9.8951663022103
20
-0.47094077569979
30
0.0
41
1.0
10
9.90556644796482
20
-0.46609685521838
30
0.0
41
1.0
10
9.9206955950545
20
-0.45783629056429
30
0.0
41
1.0
10
9.92563513924722
20
-0.45492612041299
30
0.0
41
1.0
10
9.935194348452
20
-0.44864181536188
30
0.0
41
1.0
10
9.93981968706362
20
-0.44527358129488
30
0.0
41
1.0
10
9.94853160274582
20
-0.43774776686409
30
0.0
41
1.0
10
9.95260472852522
20
-0.43361693448878
30
0.0
41
1.0
10
9.957631150879
20
-0.42653205334209
30
0.0
41
1.0
10
9.9590893480439
20
-0.42406309644569
30
0.0
41
1.0
10
9.96141353122772
20
-0.41883265474338
30
0.0
41
1.0
10
9.9622837737341
20
-0.41601792252858
30
0.0
41
1.0
10
9.96313442274641
20
-0.41031724381669
30
0.0
41
1.0
10
9.96312084013272
20
-0.40737886997859
30
0.0
41
1.0
10
9.96221251856562
20
-0.40166745600889
30
0.0
41
1.0
10
9.96132955927331
20
-0.39889111079359
30
0.0
41
1.0
10
9.95773679635272
20
-0.39097521828879
30
0.0
41
1.0
10
9.9541953684608
20
-0.38634588476499
30
0.0
41
1.0
10
9.94625812875742
20
-0.37802949042469
30
0.0
41
1.0
10
9.94187400544391
20
-0.37436031026849
30
0.0
41
1.0
10
9.93265849099922
20
-0.36754846161489
30
0.0
41
1.0
10
9.92781293604662
20
-0.36441533250628
30
0.0
41
1.0
10
9.9130849677768
20
-0.35568401045688
30
0.0
41
1.0
10
9.90291405363271
20
-0.35065888884689
30
0.0
41
1.0
10
9.87188537429171
20
-0.33675039999959
30
0.0
41
1.0
10
9.8504803141013
20
-0.32902951901609
30
0.0
41
1.0
10
9.80722526661572
20
-0.31492970041728
30
0.0
41
1.0
10
9.7854337315388
20
-0.30863581077449
30
0.0
41
1.0
10
9.74166690333121
20
-0.29690213833169
30
0.0
41
1.0
10
9.71968867683282
20
-0.29147573649249
30
0.0
41
1.0
10
9.65356646046411
20
-0.27607598974579
30
0.0
41
1.0
10
9.60923877862422
20
-0.26696457220999
30
0.0
41
1.0
10
9.52031393644802
20
-0.25003566240528
30
0.0
41
1.0
10
9.47571191822041
20
-0.24224032550069
30
0.0
41
1.0
10
9.3863243662166
20
-0.22755192957308
30
0.0
41
1.0
10
9.3415793555985
20
-0.22067154169159
30
0.0
41
1.0
10
9.2072384187729
20
-0.20106903717378
30
0.0
41
1.0
10
9.11753749564022
20
-0.18936789658359
30
0.0
41
1.0
10
8.93796780803942
20
-0.16781317277268
30
0.0
41
1.0
10
8.84809690056321
20
-0.15797648323729
30
0.0
41
1.0
10
8.75816403042671
20
-0.14889162358348
30
0.0
0
SPLINE
5
AF
330
1F
100
AcDbEntity
67
0
8
1
62
256
6
ByLayer
370
-1
48
1.0
60
0
100
AcDbSpline
70
4
71
3
42
0.000000001
43
0.0000000001
44
0.0000000001
40
0.0
40
0.0
40
0.0
40
0.0
40
0.125
40
0.125
40
0.25
40
0.25
40
0.375
40
0.375
40
0.5
40
0.5
40
0.625
40
0.625
40
0.75
40
0.75
40
0.875
40
0.875
40
1.0
40
1.0
40
1.0
40
1.0
41
1.0
10
8.75816403042671
20
-0.14889162358348
30
0.0
41
1.0
10
8.63863449013422
20
-0.13681696059999
30
0.0
41
1.0
10
8.51939417660702
20
-0.12469881161279
30
0.0
41
1.0
10
8.2812297170004
20
-0.10242782306969
30
0.0
41
1.0
10
8.1623900437362
20
-0.09232619678198
30
0.0
41
1.0
10
7.92500525971252
20
-0.07590381794259
30
0.0
41
1.0
10
7.80642680086672
20
-0.06959214735659
30
0.0
41
1.0
10
7.56914203844812
20
-0.06120562425428
30
0.0
41
1.0
10
7.45043273335381
20
-0.05910166732718
30
0.0
41
1.0
10
7.2127077006981
20
-0.05858030435559
30
0.0
41
1.0
10
7.09369508068781
20
-0.06013767152849
30
0.0
41
1.0
10
6.8553664197706
20
-0.06635479760769
30
0.0
41
1.0
10
6.73600595968111
20
-0.07100864533778
30
0.0
41
1.0
10
6.49746931373042
20
-0.08329831965048
30
0.0
41
1.0
10
6.37825412011921
20
-0.09092423388189
30
0.0
41
1.0
10
6.14005934989061
20
-0.10973709511889
30
0.0
41
1.0
10
6.02107422370881
20
-0.12087597501829
30
0.0
41
1.0
10
5.90234110150692
20
-0.13476594841359
30
0.0
0
SPLINE
5
B0
330
1F
100
AcDbEntity
67
0
8
1
62
256
6
ByLayer
370
-1
48
1.0
60
0
100
AcDbSpline
70
4
71
3
42
0.000000001
43
0.0000000001
44
0.0000000001
40
0.0
40
0.0
40
0.0
40
0.0
40
0.18193085077353
40
0.25010327987574
40
0.28418949442684
40
0.31827570897794
40
0.45462056718236
40
1.0
40
1.0
40
1.0
40
1.0
41
1.0
10
8.7581640304272
20
-0.14889162358348
30
0.0
41
1.0
10
9.73729045109201
20
-0.12953110556049
30
0.0
41
1.0
10
11.0893542260411
20
-0.11212984098029
30
0.0
41
1.0
10
12.6285983637241
20
-0.10688288926109
30
0.0
41
1.0
10
13.3671694013216
20
-0.10713760829358
30
0.0
41
1.0
10
14.4750591418195
20
-0.10705867878448
30
0.0
41
1.0
10
18.3526702961235
20
-0.10716128687579
30
0.0
41
1.0
10
22.0456308889739
20
-0.10709814342339
30
0.0
41
1.0
10
25.0
20
-0.10709814342339
30
0.0
0
SPLINE
5
B1
330
1F
100
AcDbEntity
67
0
8
1
62
256
6
ByLayer
370
-1
48
1.0
60
0
100
AcDbSpline
70
4
71
2
42
0.000000001
43
0.0000000001
44
0.0000000001
40
0.0
40
0.0
40
0.0
40
1.0
40
1.0
40
1.0
41
1.0
10
25.0
20
-0.10709814342339
30
0.0
41
0.64278760968654
10
25.0
20
0.13125257509552
30
0.0
41
1.0
10
25.0
20
0.08986340717911
30
0.0
0
SPLINE
5
B2
330
1F
100
AcDbEntity
67
0
8
1
62
256
6
ByLayer
370
-1
48
1.0
60
0
100
AcDbSpline
70
4
71
3
42
0.000000001
43
0.0000000001
44
0.0000000001
40
0.0
40
0.0
40
0.0
40
0.0
40
0.125
40
0.125
40
0.1875
40
0.1875
40
0.25
40
0.25
40
0.3125
40
0.3125
40
0.37500000000001
40
0.37500000000001
40
0.40625000000001
40
0.40625000000001
40
0.43750000000001
40
0.43750000000001
40
0.45312500000001
40
0.45312500000001
40
0.46875000000001
40
0.46875000000001
40
0.47656250000001
40
0.47656250000001
40
0.48437500000001
40
0.48437500000001
40
0.48828125000001
40
0.48828125000001
40
0.49218750000001
40
0.49218750000001
40
0.49609375000001
40
0.49609375000001
40
0.50000000000001
40
0.50000000000001
40
0.50390625000001
40
0.50390625000001
40
0.50781250000001
40
0.50781250000001
40
0.51562500000001
40
0.51562500000001
40
0.52343750000001
40
0.52343750000001
40
0.53125000000001
40
0.53125000000001
40
0.54687500000001
40
0.54687500000001
40
0.56250000000001
40
0.56250000000001
40
0.57812500000001
40
0.57812500000001
40
0.59375000000001
40
0.59375000000001
40
0.625
40
0.625
40
0.6875
40
0.6875
40
0.75
40
0.75
40
0.8125
40
0.8125
40
0.875
40
0.875
40
1.0
40
1.0
40
1.0
40
1.0
41
1.0
10
4.0
20
1.24508269467262
30
0.0
41
1.0
10
3.8749204743977
20
1.26531819173552
30
0.0
41
1.0
10
3.75006618501652
20
1.28644518440962
30
0.0
41
1.0
10
3.56322424310332
20
1.31981055494131
30
0.0
41
1.0
10
3.5010174354932
20
1.33121346293601
30
0.0
41
1.0
10
3.3767826339961
20
1.35468513880851
30
0.0
41
1.0
10
3.31471382257641
20
1.36676044850221
30
0.0
41
1.0
10
3.1910370221907
20
1.39170135075901
30
0.0
41
1.0
10
3.12943459364192
20
1.40456030995182
30
0.0
41
1.0
10
3.00691702047632
20
1.43135474226641
30
0.0
41
1.0
10
2.9459884654639
20
1.44527147253751
30
0.0
41
1.0
10
2.85549111786651
20
1.46748375975152
30
0.0
41
1.0
10
2.825416791907
20
1.47512973768691
30
0.0
41
1.0
10
2.76607877709682
20
1.49102402974511
30
0.0
41
1.0
10
2.73681374858401
20
1.49925382553032
30
0.0
41
1.0
10
2.6940810309558
20
1.51238939782641
30
0.0
41
1.0
10
2.680014554097
20
1.51690948469341
30
0.0
41
1.0
10
2.6528018473843
20
1.52627858560081
30
0.0
41
1.0
10
2.63952963522692
20
1.53116383630271
30
0.0
41
1.0
10
2.62122426096741
20
1.53879578017292
30
0.0
41
1.0
10
2.6153910402395
20
1.54139101385512
30
0.0
41
1.0
10
2.6045226972185
20
1.54673262908281
30
0.0
41
1.0
10
2.599428584934
20
1.54951212298542
30
0.0
41
1.0
10
2.5930122209414
20
1.55372096914151
30
0.0
41
1.0
10
2.5910799824575
20
1.55512835650771
30
0.0
41
1.0
10
2.5877330322395
20
1.55795409955101
30
0.0
41
1.0
10
2.58632241510301
20
1.55937557584612
30
0.0
41
1.0
10
2.584227714913
20
1.56212475222492
30
0.0
41
1.0
10
2.58352695041881
20
1.56346478197172
30
0.0
41
1.0
10
2.58289950032852
20
1.56606759134161
30
0.0
41
1.0
10
2.58298630962071
20
1.56733435133341
30
0.0
41
1.0
10
2.58393948442162
20
1.56966563997952
30
0.0
41
1.0
10
2.584796974032
20
1.57074725578022
30
0.0
41
1.0
10
2.58720268958132
20
1.57275818229031
30
0.0
41
1.0
10
2.58874324603161
20
1.57367648041311
30
0.0
41
1.0
10
2.59406898649692
20
1.57615336071561
30
0.0
41
1.0
10
2.59863231067621
20
1.57748151826371
30
0.0
41
1.0
10
2.60881549560222
20
1.57964902813181
30
0.0
41
1.0
10
2.61439320717341
20
1.58048613901342
30
0.0
41
1.0
10
2.6261721720102
20
1.58184491833022
30
0.0
41
1.0
10
2.6323905854926
20
1.58236470917362
30
0.0
41
1.0
10
2.65164839065801
20
1.58357670084391
30
0.0
41
1.0
10
2.66504687956862
20
1.58392199588032
30
0.0
41
1.0
10
2.69245003804622
20
1.58411652025842
30
0.0
41
1.0
10
2.70646661115151
20
1.58395581397141
30
0.0
41
1.0
10
2.73491371799892
20
1.58329920418541
30
0.0
41
1.0
10
2.74934726471102
20
1.58280078477111
30
0.0
41
1.0
10
2.77852001979201
20
1.58155947863131
30
0.0
41
1.0
10
2.79327481885372
20
1.58081463092451
30
0.0
41
1.0
10
2.83761841996122
20
1.57831488897162
30
0.0
41
1.0
10
2.8673804171321
20
1.57629642023062
30
0.0
41
1.0
10
2.95705562519902
20
1.56958059245771
30
0.0
41
1.0
10
3.01735141815411
20
1.56423534012471
30
0.0
41
1.0
10
3.13852296389712
20
1.55264958988592
30
0.0
41
1.0
10
3.19940940889691
20
1.54638893900621
30
0.0
41
1.0
10
3.32159960030921
20
1.53328121355771
30
0.0
41
1.0
10
3.3829059564105
20
1.52642921600122
30
0.0
41
1.0
10
3.5058441538815
20
1.51231374276441
30
0.0
41
1.0
10
3.567492200467
20
1.50504662333491
30
0.0
41
1.0
10
3.7525537461342
20
1.48282596289621
30
0.0
41
1.0
10
3.8761793245605
20
1.46745085556232
30
0.0
41
1.0
10
4.0000000000006
20
1.45175829226801
30
0.0
0
SPLINE
5
B3
330
1F
100
AcDbEntity
67
0
8
1
62
256
6
ByLayer
370
-1
48
1.0
60
0
100
AcDbSpline
70
4
71
3
42
0.000000001
43
0.0000000001
44
0.0000000001
40
0.0
40
0.0
40
0.0
40
0.0
40
0.125
40
0.125
40
0.1875
40
0.1875
40
0.25
40
0.25
40
0.3125
40
0.3125
40
0.375
40
0.375
40
0.40625
40
0.40625
40
0.4375
40
0.4375
40
0.453125
40
0.453125
40
0.46875
40
0.46875
40
0.4765625
40
0.4765625
40
0.484375
40
0.484375
40
0.48828125
40
0.48828125
40
0.4921875
40
0.4921875
40
0.49609375
40
0.49609375
40
0.5
40
0.5
40
0.50390625
40
0.50390625
40
0.5078125
40
0.5078125
40
0.515625
40
0.515625
40
0.5234375
40
0.5234375
40
0.53125
40
0.53125
40
0.546875
40
0.546875
40
0.5625
40
0.5625
40
0.578125
40
0.578125
40
0.59375
40
0.59375
40
0.625
40
0.625
40
0.6875
40
0.6875
40
0.75
40
0.75
40
0.8125
40
0.8125
40
0.875
40
0.875
40
1.0
40
1.0
40
1.0
40
1.0
41
1.0
10
4.0
20
-0.75863896777489
30
0.0
41
1.0
10
3.8749204743977
20
-0.75800061246609
30
0.0
41
1.0
10
3.75006618501641
20
-0.75561665406708
30
0.0
41
1.0
10
3.56322424310332
20
-0.74833353157459
30
0.0
41
1.0
10
3.5010174354932
20
-0.74528166434479
30
0.0
41
1.0
10
3.3767826339961
20
-0.7375970051172
30
0.0
41
1.0
10
3.31471382257641
20
-0.73296568213489
30
0.0
41
1.0
10
3.1910370221907
20
-0.72159555285039
30
0.0
41
1.0
10
3.12943459364192
20
-0.71487368478319
30
0.0
41
1.0
10
3.00691702047632
20
-0.69832566880619
30
0.0
41
1.0
10
2.94598846546381
20
-0.68856356576359
30
0.0
41
1.0
10
2.85549111786651
20
-0.66977527052408
30
0.0
41
1.0
10
2.825416791907
20
-0.66279530576229
30
0.0
41
1.0
10
2.76607877709682
20
-0.64670100660079
30
0.0
41
1.0
10
2.73681374858401
20
-0.63764334413729
30
0.0
41
1.0
10
2.6940810309558
20
-0.6211217220359
30
0.0
41
1.0
10
2.680014554097
20
-0.61510481687819
30
0.0
41
1.0
10
2.6528018473843
20
-0.60160355752369
30
0.0
41
1.0
10
2.63952963522692
20
-0.59407848442278
30
0.0
41
1.0
10
2.6212242609673
20
-0.58101519580079
30
0.0
41
1.0
10
2.6153910402395
20
-0.57636224703178
30
0.0
41
1.0
10
2.6045226972185
20
-0.56616861726369
30
0.0
41
1.0
10
2.599428584934
20
-0.56056023598809
30
0.0
41
1.0
10
2.5930122209414
20
-0.55136091068349
30
0.0
41
1.0
10
2.5910799824575
20
-0.54816853263098
30
0.0
41
1.0
10
2.5877330322395
20
-0.54146816496198
30
0.0
41
1.0
10
2.58632241510301
20
-0.53794851703219
30
0.0
41
1.0
10
2.584227714913
20
-0.53079518101738
30
0.0
41
1.0
10
2.58352695041881
20
-0.52713338931768
30
0.0
41
1.0
10
2.58289950032852
20
-0.51961966277179
30
0.0
41
1.0
10
2.58298630962071
20
-0.51574833024058
30
0.0
41
1.0
10
2.58393948442162
20
-0.50818981775409
30
0.0
41
1.0
10
2.584796974032
20
-0.50445591487579
30
0.0
41
1.0
10
2.58720268958132
20
-0.4970703759488
30
0.0
41
1.0
10
2.58874324603161
20
-0.49345618394719
30
0.0
41
1.0
10
2.59406898649692
20
-0.48306865590959
30
0.0
41
1.0
10
2.59863231067621
20
-0.47656626993759
30
0.0
41
1.0
10
2.60881549560222
20
-0.46446380542818
30
0.0
41
1.0
10
2.61439320717341
20
-0.45889347176419
30
0.0
41
1.0
10
2.6261721720102
20
-0.44836977926408
30
0.0
41
1.0
10
2.6323905854926
20
-0.44341272813929
30
0.0
41
1.0
10
2.65164839065801
20
-0.42927057869939
30
0.0
41
1.0
10
2.66504687956862
20
-0.42094560211208
30
0.0
41
1.0
10
2.69245003804622
20
-0.40548975145148
30
0.0
41
1.0
10
2.70646661115151
20
-0.39838232961378
30
0.0
41
1.0
10
2.73491371799892
20
-0.38498287029688
30
0.0
41
1.0
10
2.74934726471102
20
-0.37869676896189
30
0.0
41
1.0
10
2.77852001979201
20
-0.36672657465959
30
0.0
41
1.0
10
2.79327481885372
20
-0.36104005924069
30
0.0
41
1.0
10
2.83761841996122
20
-0.34478296552619
30
0.0
41
1.0
10
2.8673804171321
20
-0.33495920119999
30
0.0
41
1.0
10
2.95705562519902
20
-0.30745495320439
30
0.0
41
1.0
10
3.01735141815411
20
-0.29170745283129
30
0.0
41
1.0
10
3.13852296389712
20
-0.26310630884829
30
0.0
41
1.0
10
3.19940940889691
20
-0.25030754359329
30
0.0
41
1.0
10
3.32159960030921
20
-0.22676807970159
30
0.0
41
1.0
10
3.3829059564105
20
-0.21604077718119
30
0.0
41
1.0
10
3.5058441538815
20
-0.19617219726349
30
0.0
41
1.0
10
3.567492200467
20
-0.18703393760079
30
0.0
41
1.0
10
3.7525537461342
20
-0.16159638847239
30
0.0
41
1.0
10
3.8761793245605
20
-0.14723259855319
30
0.0
41
1.0
10
4.0000000000006
20
-0.13476594841119
30
0.0
0
SPLINE
5
B4
330
1F
100
AcDbEntity
67
0
8
1
62
256
6
ByLayer
370
-1
48
1.0
60
0
100
AcDbSpline
70
4
71
3
42
0.000000001
43
0.0000000001
44
0.0000000001
40
0.0
40
0.0
40
0.0
40
0.0
40
0.21841624869302
40
0.21841624869302
40
1.0
40
1.0
40
1.0
40
1.0
41
1.0
10
24.5
20
1.50699999999981
30
0.0
41
1.0
10
23.6627377132402
20
1.50616273771301
30
0.0
41
1.0
10
22.8254754265028
20
1.50532545373241
30
0.0
41
1.0
10
18.9921420929021
20
1.50149192123781
30
0.0
41
1.0
10
15.9960710463044
20
1.49849541531181
30
0.0
41
1.0
10
13.0
20
1.49549862494231
30
0.0
0
SPLINE
5
B5
330
1F
100
AcDbEntity
67
0
8
1
62
256
6
ByLayer
370
-1
48
1.0
60
0
100
AcDbSpline
70
4
71
3
42
0.000000001
43
0.0000000001
44
0.0000000001
40
0.0
40
0.0
40
0.0
40
0.0
40
1.0
40
1.0
40
1.0
40
1.0
41
1.0
10
13.0
20
1.49549862494231
30
0.0
41
1.0
10
12.9291080814607
20
1.48299546584141
30
0.0
41
1.0
10
12.8582170345751
20
1.47048751245121
30
0.0
41
1.0
10
12.7873269317643
20
1.45797437285901
30
0.0
0
SPLINE
5
B6
330
1F
100
AcDbEntity
67
0
8
1
62
256
6
ByLayer
370
-1
48
1.0
60
0
100
AcDbSpline
70
4
71
3
42
0.000000001
43
0.0000000001
44
0.0000000001
40
0.0
40
0.0
40
0.0
40
0.0
40
0.21841624869302
40
0.21841624869302
40
1.0
40
1.0
40
1.0
40
1.0
41
1.0
10
24.5
20
-1.50700000000019
30
0.0
41
1.0
10
23.6627377132402
20
-1.50616273771338
30
0.0
41
1.0
10
22.8254754265027
20
-1.50532545373279
30
0.0
41
1.0
10
18.9921420929021
20
-1.50149192123818
30
0.0
41
1.0
10
15.9960710463044
20
-1.49849541531209
30
0.0
41
1.0
10
13.0
20
-1.49549862494268
30
0.0
0
SPLINE
5
B7
330
1F
100
AcDbEntity
67
0
8
1
62
256
6
ByLayer
370
-1
48
1.0
60
0
100
AcDbSpline
70
4
71
1
42
0.000000001
43
0.0000000001
44
0.0000000001
40
0.0
40
0.0
40
1.0
40
1.0
41
1.0
10
25.0
20
0.76262965708172
30
0.0
41
1.0
10
25.0
20
0.99735929261502
30
0.0
0
SPLINE
5
B8
330
1F
100
AcDbEntity
67
0
8
1
62
256
6
ByLayer
370
-1
48
1.0
60
0
100
AcDbSpline
70
4
71
3
42
0.000000001
43
0.0000000001
44
0.0000000001
40
0.0
40
0.0
40
0.0
40
0.0
40
0.25
40
0.25
40
0.5
40
0.5
40
0.625
40
0.625
40
0.75
40
0.75
40
0.8125
40
0.8125
40
0.875
40
0.875
40
0.9375
40
0.9375
40
0.96875
40
0.96875
40
1.0
40
1.0
40
1.0
40
1.0
41
1.0
10
7.110799824445
20
1.45797437285911
30
0.0
41
1.0
10
7.00884798888941
20
1.45797437285911
30
0.0
41
1.0
10
6.9069472472078
20
1.45799041383651
30
0.0
41
1.0
10
6.70325906946522
20
1.45800499576141
30
0.0
41
1.0
10
6.60147082369181
20
1.45800779932681
30
0.0
41
1.0
10
6.44926540754332
20
1.45784957957451
30
0.0
41
1.0
10
6.39859808964562
20
1.45776855177951
30
0.0
41
1.0
10
6.2974405026778
20
1.45748698834342
30
0.0
41
1.0
10
6.2469229770698
20
1.45728851327502
30
0.0
41
1.0
10
6.17154487495122
20
1.45680600489972
30
0.0
41
1.0
10
6.14648041906872
20
1.45661377742292
30
0.0
41
1.0
10
6.0965151654527
20
1.45613341600821
30
0.0
41
1.0
10
6.07160934178222
20
1.45584595671092
30
0.0
41
1.0
10
6.02216137884182
20
1.45511694651141
30
0.0
41
1.0
10
5.9975730618265
20
1.45467759198792
30
0.0
41
1.0
10
5.96122829134612
20
1.45380591112151
30
0.0
41
1.0
10
5.94921022407192
20
1.45347950617091
30
0.0
41
1.0
10
5.9254588818423
20
1.45271696760101
30
0.0
41
1.0
10
5.91373208330012
20
1.45228226749251
30
0.0
41
1.0
10
5.90234110150701
20
1.45175829226081
30
0.0
0
SPLINE
5
B9
330
1F
100
AcDbEntity
67
0
8
1
62
256
6
ByLayer
370
-1
48
1.0
60
0
100
AcDbSpline
70
4
71
3
42
0.000000001
43
0.0000000001
44
0.0000000001
40
0.0
40
0.0
40
0.0
40
0.0
40
1.0
40
1.0
40
1.0
40
1.0
41
1.0
10
13.0
20
-1.49549862494268
30
0.0
41
1.0
10
12.9291080814607
20
-1.48299546584168
30
0.0
41
1.0
10
12.8582170345751
20
-1.47048751245148
30
0.0
41
1.0
10
12.7873269317643
20
-1.45797437285928
30
0.0
0
SPLINE
5
BA
330
1F
100
AcDbEntity
67
0
8
1
62
256
6
ByLayer
370
-1
48
1.0
60
0
100
AcDbSpline
70
4
71
3
42
0.000000001
43
0.0000000001
44
0.0000000001
40
0.0
40
0.0
40
0.0
40
0.0
40
0.5
40
0.5
40
0.75
40
0.75
40
1.0
40
1.0
40
1.0
40
1.0
41
1.0
10
13.0000000000077
20
-1.48430894348729
30
0.0
41
1.0
10
12.9629452690686
20
-1.47536663681528
30
0.0
41
1.0
10
12.9264981648835
20
-1.46602485732669
30
0.0
41
1.0
10
12.873120622916
20
-1.45116205433598
30
0.0
41
1.0
10
12.8555455161397
20
-1.44606485637659
30
0.0
41
1.0
10
12.8209299001789
20
-1.43551899929469
30
0.0
41
1.0
10
12.8039049065424
20
-1.43007441455958
30
0.0
41
1.0
10
12.7873269317632
20
-1.42444839771169
30
0.0
0
SPLINE
5
BB
330
1F
100
AcDbEntity
67
0
8
1
62
256
6
ByLayer
370
-1
48
1.0
60
0
100
AcDbSpline
70
4
71
3
42
0.000000001
43
0.0000000001
44
0.0000000001
40
0.0
40
0.0
40
0.0
40
0.0
40
1.0
40
1.0
40
1.0
40
1.0
41
1.0
10
24.4774089628964
20
-1.49948734922418
30
0.0
41
1.0
10
20.6516047682928
20
-1.49459178468219
30
0.0
41
1.0
10
16.825801672196
20
-1.48954506331789
30
0.0
41
1.0
10
13.0000000000115
20
-1.48430894348479
30
0.0
0
SPLINE
5
BC
330
1F
100
AcDbEntity
67
0
8
1
62
256
6
ByLayer
370
-1
48
1.0
60
0
100
AcDbSpline
70
4
71
3
42
0.000000001
43
0.0000000001
44
0.0000000001
40
0.0
40
0.0
40
0.0
40
0.0
40
0.92699884125148
40
0.92699884125148
40
1.0
40
1.0
40
1.0
40
1.0
41
1.0
10
7.110799824445
20
-1.45797437285928
30
0.0
41
1.0
10
7.00884798888941
20
-1.45797437285928
30
0.0
41
1.0
10
6.9069472472078
20
-1.45799041383668
30
0.0
41
1.0
10
6.79708293633792
20
-1.45799827896249
30
0.0
41
1.0
10
6.7890630606538
20
-1.45799882529688
30
0.0
41
1.0
10
6.781043659299
20
-1.45799929311119
30
0.0
0
SPLINE
5
BD
330
1F
100
AcDbEntity
67
0
8
1
62
256
6
ByLayer
370
-1
48
1.0
60
0
100
AcDbSpline
70
4
71
2
42
0.000000001
43
0.0000000001
44
0.0000000001
40
0.0
40
0.0
40
0.0
40
1.0
40
1.0
40
1.0
41
1.0
10
25.0
20
-0.76718780514119
30
0.0
41
1.0
10
25.0
20
-0.43714297428228
30
0.0
41
1.0
10
25.0
20
-0.10709814342339
30
0.0
0
SPLINE
5
BE
330
1F
100
AcDbEntity
67
0
8
1
62
256
6
ByLayer
370
-1
48
1.0
60
0
100
AcDbSpline
70
4
71
3
42
0.000000001
43
0.0000000001
44
0.0000000001
40
0.0
40
0.0
40
0.0
40
0.0
40
0.03125
40
0.03125
40
0.0625
40
0.0625
40
0.125
40
0.125
40
0.25
40
0.25
40
0.375
40
0.375
40
0.5
40
0.5
40
0.5625
40
0.5625
40
0.625
40
0.625
40
0.75
40
0.75
40
1.0
40
1.0
40
1.0
40
1.0
41
1.0
10
6.96617140605602
20
-0.75863896777479
30
0.0
41
1.0
10
7.02189732169751
20
-0.77330839811189
30
0.0
41
1.0
10
7.0778828934227
20
-0.78726215107089
30
0.0
41
1.0
10
7.1903062608188
20
-0.81394237759359
30
0.0
41
1.0
10
7.2467508671987
20
-0.82666869811538
30
0.0
41
1.0
10
7.416204463345
20
-0.86314434590169
30
0.0
41
1.0
10
7.5295041225196
20
-0.88524544067509
30
0.0
41
1.0
10
7.87021134182541
20
-0.94642346690439
30
0.0
41
1.0
10
8.09841815030831
20
-0.98044960885198
30
0.0
41
1.0
10
8.5564171002593
20
-1.03957425390759
30
0.0
41
1.0
10
8.78621642123312
20
-1.06461336972689
30
0.0
41
1.0
10
9.24711285422811
20
-1.10816581610399
30
0.0
41
1.0
10
9.4782124772459
20
-1.12665832121849
30
0.0
41
1.0
10
9.82569959782782
20
-1.15064198682438
30
0.0
41
1.0
10
9.94169981769952
20
-1.15800687090369
30
0.0
41
1.0
10
10.1737836301543
20
-1.17160489151908
30
0.0
41
1.0
10
10.2898653338954
20
-1.17783818067778
30
0.0
41
1.0
10
10.6382245801937
20
-1.19502101818348
30
0.0
41
1.0
10
10.8706159882258
20
-1.20446259849409
30
0.0
41
1.0
10
11.5682154206109
20
-1.22779784575549
30
0.0
41
1.0
10
12.0338483383867
20
-1.23677430821479
30
0.0
41
1.0
10
12.5000000000005
20
-1.24058813134839
30
0.0
0
SPLINE
5
BF
330
1F
100
AcDbEntity
67
0
8
1
62
256
6
ByLayer
370
-1
48
1.0
60
0
100
AcDbSpline
70
4
71
3
42
0.000000001
43
0.0000000001
44
0.0000000001
40
0.0
40
0.0
40
0.0
40
0.0
40
0.5
40
0.5
40
0.75
40
0.75
40
0.875
40
0.875
40
0.90625
40
0.90625
40
0.9375
40
0.9375
40
0.96875
40
0.96875
40
1.0
40
1.0
40
1.0
40
1.0
41
1.0
10
24.5177760595774
20
0.76263206109492
30
0.0
41
1.0
10
22.514813141081
20
0.76265144942302
30
0.0
41
1.0
10
20.5118502443807
20
0.76278075107992
30
0.0
41
1.0
10
17.5074058001965
20
0.76273273956571
30
0.0
41
1.0
10
16.5059242832774
20
0.76264347928941
30
0.0
41
1.0
10
15.0037020081951
20
0.76251019968672
30
0.0
41
1.0
10
14.5029612648595
20
0.76249675741481
30
0.0
41
1.0
10
13.8770354231873
20
0.76266038708471
30
0.0
41
1.0
10
13.751850264118
20
0.76271221899481
30
0.0
41
1.0
10
13.5014799014432
20
0.76272404296782
30
0.0
41
1.0
10
13.3762946788612
20
0.76264490226751
30
0.0
41
1.0
10
13.1259242004395
20
0.76241803833651
30
0.0
41
1.0
10
13.0007389838902
20
0.76235133800802
30
0.0
41
1.0
10
12.7503690604944
20
0.76326902132591
30
0.0
41
1.0
10
12.6251843799143
20
0.76430757025722
30
0.0
41
1.0
10
12.5
20
0.76596613723481
30
0.0
0
SPLINE
5
C0
330
1F
100
AcDbEntity
67
0
8
1
62
256
6
ByLayer
370
-1
48
1.0
60
0
100
AcDbSpline
70
4
71
3
42
0.000000001
43
0.0000000001
44
0.0000000001
40
0.0
40
0.0
40
0.0
40
0.0
40
0.03125
40
0.03125
40
0.0625
40
0.0625
40
0.125
40
0.125
40
0.25
40
0.25
40
0.375
40
0.375
40
0.5
40
0.5
40
0.5625
40
0.5625
40
0.625
40
0.625
40
0.75
40
0.75
40
1.0
40
1.0
40
1.0
40
1.0
41
1.0
10
6.96617140605582
20
1.24508269467272
30
0.0
41
1.0
10
7.02189732169742
20
1.23614449198442
30
0.0
41
1.0
10
7.0778828934225
20
1.22728850966341
30
0.0
41
1.0
10
7.19030626081872
20
1.20975889598631
30
0.0
41
1.0
10
7.2467508671985
20
1.20108444171991
30
0.0
41
1.0
10
7.41620446334491
20
1.17542746627781
30
0.0
41
1.0
10
7.52950412251951
20
1.15878454384611
30
0.0
41
1.0
10
7.87021134182521
20
1.11029503217121
30
0.0
41
1.0
10
8.09841815030811
20
1.07989019445482
30
0.0
41
1.0
10
8.55641710025901
20
1.02309805893181
30
0.0
41
1.0
10
8.78621642123281
20
0.99670883379922
30
0.0
41
1.0
10
9.24711285422782
20
0.94804991977931
30
0.0
41
1.0
10
9.47821247724562
20
0.92577949840421
30
0.0
41
1.0
10
9.82569959782742
20
0.89551810772652
30
0.0
41
1.0
10
9.94169981769912
20
0.88595252325402
30
0.0
41
1.0
10
10.173783630154
20
0.86789041052941
30
0.0
41
1.0
10
10.289865333895
20
0.85939363354801
30
0.0
41
1.0
10
10.6382245801934
20
0.83550796230591
30
0.0
41
1.0
10
10.8706159882254
20
0.82172370079051
30
0.0
41
1.0
10
11.5682154206105
20
0.78680392500621
30
0.0
41
1.0
10
12.0338483383863
20
0.77214377626751
30
0.0
41
1.0
10
12.5
20
0.76596676713652
30
0.0
0
SPLINE
5
C1
330
1F
100
AcDbEntity
67
0
8
1
62
256
6
ByLayer
370
-1
48
1.0
60
0
100
AcDbSpline
70
4
71
3
42
0.000000001
43
0.0000000001
44
0.0000000001
40
0.0
40
0.0
40
0.0
40
0.0
40
1.0
40
1.0
40
1.0
40
1.0
41
1.0
10
13.0
20
0.00202800273772
30
0.0
41
1.0
10
12.9291080814607
20
0.00423264703132
30
0.0
41
1.0
10
12.8582170345751
20
0.00643813668751
30
0.0
41
1.0
10
12.7873269317643
20
0.00864454081091
30
0.0
0
MTEXT
5
C2
330
1F
100
AcDbEntity
67
0
8
SK6
62
256
6
ByLayer
370
-1
48
1.0
60
0
100
AcDbMText
10
-25.4570458688446
20
-15.0361040010252
30
0.0
210
0.0
220
0.0
230
1.0
1
\fMonospac821 BT|b0|i0;\W1.1097;N5TS-3.01H7-EB45
40
3.5
41
0.0
44
1.072372
50
0.0
71
7
72
5
7
STANDARD 3.5
0
DIMENSION
5
CA
330
1F
100
AcDbEntity
67
0
8
2
62
256
6
ByLayer
370
-1
48
1.0
60
0
100
AcDbDimension
2
_U0
10
45.0099251311554
20
-1.50700000102519
30
0.0
11
45.0099251311554
21
29.9999999989748
31
0.0
70
32
71
1
72
1
41
1.0
210
0.0
220
0.0
230
1.0
3
NewStyle
100
AcDbAlignedDimension
13
23.3409511311554
23
1.50699999897481
33
0.0
14
23.5000001311554
24
-1.50700000102519
34
0.0
50
270.0
100
AcDbRotatedDimension
1001
ACAD
1000
DSTYLE
1002
{
1070
371
1070
13
1070
372
1070
13
1070
144
1040
1.0
1070
277
1070
2
1070
278
1070
44
1070
345
1005
16
1070
347
1005
16
1070
346
1005
16
1070
344
1005
0
1070
343
1005
0
1070
76
1070
0
1070
75
1070
0
1070
340
1005
11
1070
271
1070
3
1070
177
1070
7
1070
176
1070
7
1070
178
1070
7
1070
41
1040
2.5
1070
147
1040
1.75
1070
42
1040
0.0
1070
44
1040
2.0
1070
140
1040
3.5
1070
281
1070
0
1070
282
1070
0
1070
173
1070
1
1070
3
1000
%%c<>
1070
78
1070
8
1002
}
1001
ACAD_DSTYLE_DIM_LINETYPE
1070
380
1005
16
1001
ACAD_DSTYLE_DIM_EXT1_LINETYPE
1070
381
1005
16
1001
ACAD_DSTYLE_DIM_EXT2_LINETYPE
1070
382
1005
16
0
DIMENSION
5
E9
330
1F
100
AcDbEntity
67
0
8
SK2
62
256
6
ByLayer
370
-1
48
1.0
60
0
100
AcDbDimension
2
_U1
10
-44.9900748688446
20
1.99999999897481
30
0.0
11
-44.9900748688446
21
29.9999999989748
31
0.0
70
32
71
1
72
1
41
1.0
210
0.0
220
0.0
230
1.0
3
NewStyle
100
AcDbAlignedDimension
13
-24.3019358688446
23
-2.00000000102519
33
0.0
14
-24.4999998688446
24
1.99999999897481
34
0.0
50
90.0
100
AcDbRotatedDimension
1001
ACAD
1000
DSTYLE
1002
{
1070
371
1070
13
1070
372
1070
13
1070
144
1040
1.0
1070
277
1070
2
1070
278
1070
44
1070
345
1005
16
1070
347
1005
16
1070
346
1005
16
1070
344
1005
0
1070
343
1005
0
1070
76
1070
0
1070
75
1070
0
1070
340
1005
11
1070
271
1070
3
1070
177
1070
7
1070
176
1070
7
1070
178
1070
7
1070
41
1040
2.5
1070
147
1040
1.75
1070
42
1040
0.0
1070
44
1040
2.0
1070
140
1040
3.5
1070
281
1070
0
1070
282
1070
0
1070
173
1070
1
1070
3
1000
%%c<>
1070
78
1070
8
1002
}
1001
ACAD_DSTYLE_DIM_LINETYPE
1070
380
1005
16
1001
ACAD_DSTYLE_DIM_EXT1_LINETYPE
1070
381
1005
16
1001
ACAD_DSTYLE_DIM_EXT2_LINETYPE
1070
382
1005
16
0
DIMENSION
5
107
330
1F
100
AcDbEntity
67
0
8
SK2
62
256
6
ByLayer
370
-1
48
1.0
60
0
100
AcDbDimension
2
_U2
10
25.0000001311554
20
74.9874449989748
30
0.0
11
0.00000013115542
21
74.9874449989748
31
0.0
70
32
71
1
72
1
41
1.0
210
0.0
220
0.0
230
1.0
3
NewStyle
100
AcDbAlignedDimension
13
-24.9999998688446
23
-0.83983000102519
33
0.0
14
25.0000001311554
24
-0.00000000102519
34
0.0
50
180.0
100
AcDbRotatedDimension
1001
ACAD
1000
DSTYLE
1002
{
1070
371
1070
13
1070
372
1070
13
1070
144
1040
1.0
1070
277
1070
2
1070
278
1070
44
1070
345
1005
16
1070
347
1005
16
1070
346
1005
16
1070
344
1005
0
1070
343
1005
0
1070
76
1070
0
1070
75
1070
0
1070
340
1005
11
1070
271
1070
3
1070
177
1070
7
1070
176
1070
7
1070
178
1070
7
1070
41
1040
2.5
1070
147
1040
1.75
1070
42
1040
0.0
1070
44
1040
2.0
1070
140
1040
3.5
1070
281
1070
0
1070
282
1070
0
1070
173
1070
1
1070
78
1070
8
1002
}
1001
ACAD_DSTYLE_DIM_LINETYPE
1070
380
1005
16
1001
ACAD_DSTYLE_DIM_EXT1_LINETYPE
1070
381
1005
16
1001
ACAD_DSTYLE_DIM_EXT2_LINETYPE
1070
382
1005
16
0
DIMENSION
5
120
330
1F
100
AcDbEntity
67
0
8
2
62
256
6
ByLayer
370
-1
48
1.0
60
0
100
AcDbDimension
2
_U3
10
0.00000013115542
20
59.9874449989748
30
0.0
11
12.5000001311554
21
59.9874449989748
31
0.0
70
32
71
1
72
1
41
1.0
210
0.0
220
0.0
230
1.0
3
NewStyle
100
AcDbAlignedDimension
13
25.0000001311554
23
0.09773099897481
33
0.0
14
0.00000013115542
24
-0.00000000102519
34
0.0
50
0.0
100
AcDbRotatedDimension
1001
ACAD
1000
DSTYLE
1002
{
1070
371
1070
13
1070
372
1070
13
1070
144
1040
1.0
1070
277
1070
2
1070
278
1070
44
1070
345
1005
16
1070
347
1005
16
1070
346
1005
16
1070
344
1005
0
1070
343
1005
0
1070
76
1070
0
1070
75
1070
0
1070
340
1005
11
1070
271
1070
3
1070
177
1070
7
1070
176
1070
7
1070
178
1070
7
1070
41
1040
2.5
1070
147
1040
1.75
1070
42
1040
0.0
1070
44
1040
2.0
1070
140
1040
3.5
1070
281
1070
0
1070
282
1070
0
1070
173
1070
1
1070
78
1070
8
1002
}
1001
ACAD_DSTYLE_DIM_LINETYPE
1070
380
1005
16
1001
ACAD_DSTYLE_DIM_EXT1_LINETYPE
1070
381
1005
16
1001
ACAD_DSTYLE_DIM_EXT2_LINETYPE
1070
382
1005
16
0
DIMENSION
5
139
330
1F
100
AcDbEntity
67
0
8
2
62
256
6
ByLayer
370
-1
48
1.0
60
0
100
AcDbDimension
2
_U4
10
13.0000001311554
20
29.9874449989748
30
0.0
11
19.0000001311554
21
29.9874449989748
31
0.0
70
32
71
1
72
1
41
1.0
210
0.0
220
0.0
230
1.0
3
NewStyle
100
AcDbAlignedDimension
13
25.0000001311554
23
-0.00000000102519
33
0.0
14
13.0000001311554
24
-0.24400000102519
34
0.0
50
0.0
100
AcDbRotatedDimension
1001
ACAD
1000
DSTYLE
1002
{
1070
371
1070
13
1070
372
1070
13
1070
144
1040
1.0
1070
277
1070
2
1070
278
1070
44
1070
345
1005
16
1070
347
1005
16
1070
346
1005
16
1070
344
1005
0
1070
343
1005
0
1070
76
1070
0
1070
75
1070
0
1070
340
1005
11
1070
271
1070
3
1070
177
1070
7
1070
176
1070
7
1070
178
1070
7
1070
41
1040
2.5
1070
147
1040
1.75
1070
42
1040
0.0
1070
44
1040
2.0
1070
140
1040
3.5
1070
281
1070
0
1070
282
1070
0
1070
173
1070
1
1070
78
1070
8
1002
}
1001
ACAD_DSTYLE_DIM_LINETYPE
1070
380
1005
16
1001
ACAD_DSTYLE_DIM_EXT1_LINETYPE
1070
381
1005
16
1001
ACAD_DSTYLE_DIM_EXT2_LINETYPE
1070
382
1005
16
0
DIMENSION
5
153
330
1F
100
AcDbEntity
67
0
8
2
62
256
6
ByLayer
370
-1
48
1.0
60
0
100
AcDbDimension
2
_U5
10
4.00000013115542
20
44.9874449989748
30
0.0
11
14.5000001311554
21
44.9874449989748
31
0.0
70
32
71
1
72
1
41
1.0
210
0.0
220
0.0
230
1.0
3
NewStyle
100
AcDbAlignedDimension
13
25.0000001311554
23
-0.50000000102519
33
0.0
14
4.00000013115542
24
-0.50000000102519
34
0.0
50
0.0
100
AcDbRotatedDimension
1001
ACAD
1000
DSTYLE
1002
{
1070
371
1070
13
1070
372
1070
13
1070
144
1040
1.0
1070
277
1070
2
1070
278
1070
44
1070
345
1005
16
1070
347
1005
16
1070
346
1005
16
1070
344
1005
0
1070
343
1005
0
1070
76
1070
0
1070
75
1070
0
1070
340
1005
11
1070
271
1070
3
1070
177
1070
7
1070
176
1070
7
1070
178
1070
7
1070
41
1040
2.5
1070
147
1040
1.75
1070
42
1040
0.0
1070
44
1040
2.0
1070
140
1040
3.5
1070
281
1070
0
1070
282
1070
0
1070
173
1070
1
1070
78
1070
8
1002
}
1001
ACAD_DSTYLE_DIM_LINETYPE
1070
380
1005
16
1001
ACAD_DSTYLE_DIM_EXT1_LINETYPE
1070
381
1005
16
1001
ACAD_DSTYLE_DIM_EXT2_LINETYPE
1070
382
1005
16
0
ENDSEC
0
SECTION
2
OBJECTS
0
DICTIONARY
5
1D2
330
0
100
AcDbDictionary
280
0
281
1
3
ACAD_GROUP
350
1D3
3
ACAD_LAYOUT
350
1D4
3
ACAD_MLINESTYLE
350
1D8
0
DICTIONARY
5
1D3
330
1D2
100
AcDbDictionary
280
0
281
1
0
DICTIONARY
5
1D4
330
1D2
100
AcDbDictionary
280
0
281
1
3
Layout1
350
1E
3
Layout2
350
26
3
Model
350
22
0
DICTIONARY
5
1D8
330
1D2
100
AcDbDictionary
280
0
281
1
3
Standard
350
18
0
LAYOUT
5
1E
330
1D4
100
AcDbPlotSettings
1

2
none_device
4

6

40
0.0
41
0.0
42
0.0
43
0.0
44
0.0
45
0.0
46
0.0
47
0.0
48
0.0
49
0.0
140
0.0
141
0.0
142
1.0
143
1.0
70
688
72
0
73
0
74
5
7

75
16
147
1.0
148
0.0
149
0.0
100
AcDbLayout
1
Layout1
70
1
71
1
10
-0.5
20
-7.5
11
5.0
21
5.0
12
0.0
22
0.0
32
0.0
14
-0.5
24
-0.5
34
-0.5
15
5.0
25
5.0
35
5.0
146
0.0
13
0.0
23
0.0
33
0.0
16
1.0
26
0.0
36
0.0
17
0.0
27
1.0
37
0.0
76
0
330
1B
0
LAYOUT
5
26
330
1D4
100
AcDbPlotSettings
1

2
none_device
4

6

40
0.0
41
0.0
42
0.0
43
0.0
44
0.0
45
0.0
46
0.0
47
0.0
48
0.0
49
0.0
140
0.0
141
0.0
142
1.0
143
1.0
70
688
72
0
73
0
74
5
7

75
16
147
1.0
148
0.0
149
0.0
100
AcDbLayout
1
Layout2
70
1
71
2
10
0.0
20
-7.5
11
0.0
21
0.0
12
0.0
22
0.0
32
0.0
14
0.0
24
0.0
34
0.0
15
0.0
25
0.0
35
0.0
146
0.0
13
0.0
23
0.0
33
0.0
16
1.0
26
0.0
36
0.0
17
0.0
27
1.0
37
0.0
76
0
330
23
0
LAYOUT
5
22
330
1D4
100
AcDbPlotSettings
1

2
none_device
4
Letter_(8.50_x_11.00_Inches)
6

40
6.35
41
6.35
42
6.350005
43
6.350005
44
215.9
45
279.4
46
0.0
47
0.0
48
0.0
49
0.0
140
0.0
141
0.0
142
1.0
143
1.0
70
1712
72
0
73
0
74
5
7

75
16
147
1.0
148
0.0
149
0.0
100
AcDbLayout
1
Model
70
1
71
3
10
-0.5
20
-7.5
11
5.0
21
5.0
12
0.0
22
0.0
32
0.0
14
-0.5
24
-0.5
34
-0.5
15
5.0
25
5.0
35
5.0
146
0.0
13
0.0
23
0.0
33
0.0
16
1.0
26
0.0
36
0.0
17
0.0
27
1.0
37
0.0
76
0
330
1F
0
MLINESTYLE
5
18
330
1D8
100
AcDbMlineStyle
2
Standard
70
0
3

62
256
51
90.0
52
90.0
71
2
49
-0.5
62
256
6
ByLayer
49
0.5
62
256
6
ByLayer
0
ENDSEC
0
EOF
