0
SECTION
2
HEADER
9
$ACADVER
1
AC1018
9
$DWGCODEPAGE
3
ANSI_1252
9
$LASTSAVEDBY
1
sefagserrule
9
$HANDSEED
5
1D9
9
$ANGBASE
50
0.0
9
$ANGDIR
70
0
9
$ATTMODE
70
1
9
$AUNITS
70
0
9
$AUPREC
70
0
9
$CECOLOR
62
256
9
$CELTSCALE
40
1.0
9
$CELTYPE
6
ByLayer
9
$CELWEIGHT
370
13
9
$CLAYER
8
0
9
$CMLJUST
70
0
9
$CMLSCALE
40
1.0
9
$CMLSTYLE
2
Standard
9
$DIMSTYLE
2
Standard
9
$TEXTSIZE
40
0.2
9
$TEXTSTYLE
7
Standard
9
$LUNITS
70
2
9
$LUPREC
70
4
9
$EXTNAMES
290
1
9
$INSBASE
10
0.0
20
0.0
30
0.0
9
$INSUNITS
70
4
9
$LTSCALE
40
1.0
9
$LWDISPLAY
290
0
9
$PDMODE
70
0
9
$PDSIZE
40
0.0
9
$PLINEGEN
70
0
9
$PSLTSCALE
70
1
9
$TDCREATE
40
2460972.96342524
9
$TDUCREATE
40
2460972.88009191
9
$TDUPDATE
40
2460972.963428
9
$TDUUPDATE
40
2460972.88009465
9
$TDINDWG
40
0.00000001157407
9
$DIMADEC
70
0
9
$DIMAUNIT
70
0
9
$DIMASZ
40
0.18
9
$DIMAZIN
70
3
9
$DIMSAH
70
0
9
$DIMBLK
1

9
$DIMLDRBLK
1

9
$DIMCEN
40
0.09
9
$DIMCLRD
70
0
9
$DIMCLRE
70
0
9
$DIMCLRT
70
0
9
$DIMDEC
70
2
9
$DIMDLE
40
0.0
9
$DIMDLI
40
0.38
9
$DIMDSEP
70
46
9
$DIMEXE
40
0.18
9
$DIMEXO
40
0.0625
9
$DIMGAP
40
0.09
9
$DIMJUST
70
0
9
$DIMLFAC
40
1.0
9
$DIMLUNIT
70
2
9
$DIMLWD
70
-2
9
$DIMLWE
70
-2
9
$DIMPOST
1
<>
9
$DIMRND
40
0.0
9
$DIMSCALE
40
1.0
9
$DIMSD1
70
0
9
$DIMSD2
70
0
9
$DIMSE1
70
0
9
$DIMSE2
70
0
9
$DIMTAD
70
1
9
$DIMTIH
70
0
9
$DIMTOH
70
0
9
$DIMTXT
40
0.18
9
$DIMZIN
70
0
9
$DIMFRAC
70
0
9
$DIMLTYPE
6
ByBlock
9
$DIMLTEX1
6
ByBlock
9
$DIMLTEX2
6
ByBlock
0
ENDSEC
0
SECTION
2
CLASSES
0
CLASS
1
RASTERVARIABLES
2
AcDbRasterVariables
3
ISM
90
0
91
1
280
0
281
0
0
ENDSEC
0
SECTION
2
TABLES
0
TABLE
2
APPID
5
9
330
0
100
AcDbSymbolTable
70
9
0
APPID
5
12
330
9
100
AcDbSymbolTableRecord
100
AcDbRegAppTableRecord
2
ACAD
70
0
0
APPID
5
C6
330
9
100
AcDbSymbolTableRecord
100
AcDbRegAppTableRecord
2
ACAD_DSTYLE_DIMBREAK
70
0
0
APPID
5
179
330
9
100
AcDbSymbolTableRecord
100
AcDbRegAppTableRecord
2
ACAD_DSTYLE_DIM_LINETYPE
70
0
0
APPID
5
17A
330
9
100
AcDbSymbolTableRecord
100
AcDbRegAppTableRecord
2
ACAD_DSTYLE_DIM_EXT1_LINETYPE
70
0
0
APPID
5
17B
330
9
100
AcDbSymbolTableRecord
100
AcDbRegAppTableRecord
2
ACAD_DSTYLE_DIM_EXT2_LINETYPE
70
0
0
APPID
5
1BB
330
9
100
AcDbSymbolTableRecord
100
AcDbRegAppTableRecord
2
ACAD_MLEADERVER
70
0
0
APPID
5
1CE
330
9
100
AcDbSymbolTableRecord
100
AcDbRegAppTableRecord
2
AcCmTransparency
70
0
0
APPID
5
1CF
330
9
100
AcDbSymbolTableRecord
100
AcDbRegAppTableRecord
2
GradientColor1ACI
70
0
0
APPID
5
1D0
330
9
100
AcDbSymbolTableRecord
100
AcDbRegAppTableRecord
2
GradientColor2ACI
70
0
0
ENDTAB
0
TABLE
2
VPORT
5
8
330
0
100
AcDbSymbolTable
70
1
0
VPORT
5
29
330
8
100
AcDbSymbolTableRecord
100
AcDbViewportTableRecord
2
*Active
70
0
74
    3
10
0.0
20
0.0
11
1.0
21
1.0
12
-2.37499786884459
22
32.1276899989748
13
0.0
23
0.0
14
0.5
24
0.5
15
0.5
25
0.5
16
0.0
26
0.0
36
1.0
17
0.0
27
0.0
37
0.0
40
254.0
41
0.069908
75
0
76
0
0
ENDTAB
0
TABLE
2
LTYPE
5
5
330
0
100
AcDbSymbolTable
70
12
0
LTYPE
5
14
330
5
100
AcDbSymbolTableRecord
100
AcDbLinetypeTableRecord
70
0
2
ByBlock
3

72
65
73
0
40
0.0
0
LTYPE
5
15
330
5
100
AcDbSymbolTableRecord
100
AcDbLinetypeTableRecord
70
0
2
ByLayer
3

72
65
73
0
40
0.0
0
LTYPE
5
16
330
5
100
AcDbSymbolTableRecord
100
AcDbLinetypeTableRecord
70
0
2
Continuous
3
Solid line
72
65
73
0
40
0.0
0
LTYPE
5
5F
330
5
100
AcDbSymbolTableRecord
100
AcDbLinetypeTableRecord
70
0
2
ACAD_ISO04W100
3
ISO long-dash dot ____ . ____ . ____ . ____ . _
72
65
73
4
40
30.0
49
24.0
74
0
49
-3.0
74
0
49
0.0
74
0
49
-3.0
74
0
0
LTYPE
5
60
330
5
100
AcDbSymbolTableRecord
100
AcDbLinetypeTableRecord
70
0
2
ACAD_ISO05W100
3
ISO long-dash double-dot ____ .. ____ .. ____ . 
72
65
73
6
40
33.0
49
24.0
74
0
49
-3.0
74
0
49
0.0
74
0
49
-3.0
74
0
49
0.0
74
0
49
-3.0
74
0
0
LTYPE
5
61
330
5
100
AcDbSymbolTableRecord
100
AcDbLinetypeTableRecord
70
0
2
ACAD_ISO06W100
3
ISO long-dash triple-dot ____ ... ____ ... ____
72
65
73
8
40
36.0
49
24.0
74
0
49
-3.0
74
0
49
0.0
74
0
49
-3.0
74
0
49
0.0
74
0
49
-3.0
74
0
49
0.0
74
0
49
-3.0
74
0
0
LTYPE
5
62
330
5
100
AcDbSymbolTableRecord
100
AcDbLinetypeTableRecord
70
0
2
ACAD_ISO09W100
3
ISO long-dash double-short-dash ____ __ __ ____
72
65
73
6
40
45.0
49
24.0
74
0
49
-3.0
74
0
49
6.0
74
0
49
-3.0
74
0
49
6.0
74
0
49
-3.0
74
0
0
LTYPE
5
63
330
5
100
AcDbSymbolTableRecord
100
AcDbLinetypeTableRecord
70
0
2
CENTER
3
____ _ ____ _ ____ _ ____
72
65
73
4
40
47.5
49
22.0
74
0
49
-8.5
74
0
49
8.5
74
0
49
-8.5
74
0
0
LTYPE
5
64
330
5
100
AcDbSymbolTableRecord
100
AcDbLinetypeTableRecord
70
0
2
DASHDOT
3
_._._._._._._._._._._._._._._._.
72
65
73
4
40
70.0
49
31.0
74
0
49
-13.0
74
0
49
13.0
74
0
49
-13.0
74
0
0
LTYPE
5
65
330
5
100
AcDbSymbolTableRecord
100
AcDbLinetypeTableRecord
70
0
2
DASHED
3
__ __ __ __ __ __ __ __ __
72
65
73
2
40
25.72
49
12.86
74
0
49
-12.86
74
0
0
LTYPE
5
66
330
5
100
AcDbSymbolTableRecord
100
AcDbLinetypeTableRecord
70
0
2
DOT
3
.........................
72
65
73
2
40
10.0
49
0.0
74
0
49
-10.0
74
0
0
LTYPE
5
67
330
5
100
AcDbSymbolTableRecord
100
AcDbLinetypeTableRecord
70
0
2
PHANTOM
3
____ _ _ ____ _ _ _____ _ _ ____
72
65
73
6
40
50.5
49
18.0
74
0
49
-6.5
74
0
49
6.5
74
0
49
-6.5
74
0
49
6.5
74
0
49
-6.5
74
0
0
ENDTAB
0
TABLE
2
LAYER
5
2
330
0
100
AcDbSymbolTable
70
12
0
LAYER
5
10
330
2
100
AcDbSymbolTableRecord
100
AcDbLayerTableRecord
2
0
70
0
62
7
6
Continuous
290
1
370
-3
390
0
0
LAYER
5
69
330
2
100
AcDbSymbolTableRecord
100
AcDbLayerTableRecord
2
SK1
70
0
62
4
6
Continuous
290
1
370
50
390
0
0
LAYER
5
6C
330
2
100
AcDbSymbolTableRecord
100
AcDbLayerTableRecord
2
1
70
0
62
4
6
Continuous
290
1
370
50
390
0
0
LAYER
5
82
330
2
100
AcDbSymbolTableRecord
100
AcDbLayerTableRecord
2
4
70
0
62
2
6
CENTER
290
1
370
25
390
0
0
LAYER
5
84
330
2
100
AcDbSymbolTableRecord
100
AcDbLayerTableRecord
2
SK4
70
0
62
2
6
CENTER
290
1
370
25
390
0
0
LAYER
5
B2
330
2
100
AcDbSymbolTableRecord
100
AcDbLayerTableRecord
2
NOCUT
70
0
62
7
6
Continuous
290
1
370
25
390
0
0
LAYER
5
B4
330
2
100
AcDbSymbolTableRecord
100
AcDbLayerTableRecord
2
CUT
70
0
62
1
6
Continuous
290
1
370
25
390
0
0
LAYER
5
C5
330
2
100
AcDbSymbolTableRecord
100
AcDbLayerTableRecord
2
SK6
70
0
62
5
6
Continuous
290
1
370
35
390
0
0
LAYER
5
C8
330
2
100
AcDbSymbolTableRecord
100
AcDbLayerTableRecord
2
40
70
0
62
7
420
16777215
6
Continuous
290
1
370
-3
390
0
0
LAYER
5
CD
330
2
100
AcDbSymbolTableRecord
100
AcDbLayerTableRecord
2
Defpoints
70
0
62
7
6
Continuous
290
0
370
-3
390
0
0
LAYER
5
DA
330
2
100
AcDbSymbolTableRecord
100
AcDbLayerTableRecord
2
2
70
0
62
7
6
Continuous
290
1
370
25
390
0
0
LAYER
5
12D
330
2
100
AcDbSymbolTableRecord
100
AcDbLayerTableRecord
2
SK2
70
0
62
7
6
Continuous
290
1
370
25
390
0
0
ENDTAB
0
TABLE
2
STYLE
5
3
330
0
100
AcDbSymbolTable
70
4
0
STYLE
5
11
330
3
100
AcDbSymbolTableRecord
100
AcDbTextStyleTableRecord
2
Standard
3
monos.ttf
70
0
71
0
40
0.0
41
1.0
42
0.0
50
0.0
1001
ACAD
1000
Monospac821 BT
1071
0
0
STYLE
5
C4
330
3
100
AcDbSymbolTableRecord
100
AcDbTextStyleTableRecord
2
DWGDirectTextStyle
3
monos.ttf
70
0
71
0
40
0.0
41
1.0
42
0.0
50
0.0
1001
ACAD
1000
Monospac821 BT
1071
0
0
STYLE
5
1C4
330
3
100
AcDbSymbolTableRecord
100
AcDbTextStyleTableRecord
2
Monospac821 BT
3
monos.ttf
70
0
71
0
40
0.0
41
1.0
42
0.0
50
0.0
1001
ACAD
1000
Monospac821 BT
1071
0
0
STYLE
5
1CB
330
3
100
AcDbSymbolTableRecord
100
AcDbTextStyleTableRecord
2
STANDARD 3.5
3
monos.ttf
70
0
71
0
40
3.5
41
1.0
42
3.5
50
0.0
1001
ACAD
1000
Monospac821 BT
1071
0
0
ENDTAB
0
TABLE
2
DIMSTYLE
5
A
330
0
100
AcDbSymbolTable
70
3
100
AcDbDimStyleTable
0
DIMSTYLE
105
27
330
A
100
AcDbSymbolTableRecord
100
AcDbDimStyleTableRecord
2
Standard
70
0
3
<>
40
1.0
41
0.18
42
0.0625
43
0.38
44
0.18
45
0.0
46
0.0
73
0
74
0
75
0
76
0
77
1
78
0
79
3
140
0.18
141
0.09
144
1.0
147
0.09
176
0
177
0
178
0
179
0
271
2
275
0
276
0
277
2
278
46
280
0
281
0
282
0
340
11
173
0
345
14
346
14
347
14
371
-2
372
-2
0
DIMSTYLE
105
1CC
330
A
100
AcDbSymbolTableRecord
100
AcDbDimStyleTableRecord
2
DimStandard35
70
0
3
<>
40
1.0
41
0.18
42
0.0625
43
0.38
44
0.18
45
0.0
46
0.0
73
0
74
0
75
0
76
0
77
1
78
0
79
0
140
3.5
141
0.09
144
1.0
147
0.09
176
0
177
0
178
0
179
0
271
2
275
0
276
0
277
2
278
46
280
0
281
0
282
0
340
1CB
173
0
345
14
346
14
347
14
371
-2
372
-2
0
DIMSTYLE
105
1CD
330
A
100
AcDbSymbolTableRecord
100
AcDbDimStyleTableRecord
2
NewStyle
70
0
3
<>
40
1.0
41
0.18
42
0.0625
43
0.38
44
0.18
45
0.0
46
0.0
73
0
74
0
75
0
76
0
77
1
78
0
79
0
140
0.18
141
0.09
144
1.0
147
0.09
176
0
177
0
178
0
179
0
271
2
275
0
276
0
277
2
278
46
280
0
281
0
282
0
340
11
173
0
345
14
346
14
347
14
371
-2
372
-2
0
ENDTAB
0
TABLE
2
VIEW
5
6
330
0
100
AcDbSymbolTable
70
0
0
ENDTAB
0
TABLE
2
UCS
5
7
330
0
100
AcDbSymbolTable
70
0
0
ENDTAB
0
TABLE
2
BLOCK_RECORD
5
1
330
0
100
AcDbSymbolTable
70
15
0
BLOCK_RECORD
5
1F
330
1
100
AcDbSymbolTableRecord
100
AcDbBlockTableRecord
2
*Model_Space
340
22
0
BLOCK_RECORD
5
1B
330
1
100
AcDbSymbolTableRecord
100
AcDbBlockTableRecord
2
*Paper_Space
340
1E
0
BLOCK_RECORD
5
23
330
1
100
AcDbSymbolTableRecord
100
AcDbBlockTableRecord
2
*Paper_Space0
340
26
0
BLOCK_RECORD
5
CE
330
1
100
AcDbSymbolTableRecord
100
AcDbBlockTableRecord
2
*D1
340
0
0
BLOCK_RECORD
5
DB
330
1
100
AcDbSymbolTableRecord
100
AcDbBlockTableRecord
2
_U0
340
0
70
0
280
1
281
0
1001
ACAD
1000
DesignCenter Data
1002
{
1070
1
1070
0
1002
}
0
BLOCK_RECORD
5
E8
330
1
100
AcDbSymbolTableRecord
100
AcDbBlockTableRecord
2
*D3
340
0
0
BLOCK_RECORD
5
F4
330
1
100
AcDbSymbolTableRecord
100
AcDbBlockTableRecord
2
_U1
340
0
70
0
280
1
281
0
1001
ACAD
1000
DesignCenter Data
1002
{
1070
1
1070
0
1002
}
0
BLOCK_RECORD
5
102
330
1
100
AcDbSymbolTableRecord
100
AcDbBlockTableRecord
2
*D5
340
0
0
BLOCK_RECORD
5
110
330
1
100
AcDbSymbolTableRecord
100
AcDbBlockTableRecord
2
_U2
340
0
70
0
280
1
281
0
1001
ACAD
1000
DesignCenter Data
1002
{
1070
1
1070
0
1002
}
0
BLOCK_RECORD
5
11F
330
1
100
AcDbSymbolTableRecord
100
AcDbBlockTableRecord
2
*D7
340
0
0
BLOCK_RECORD
5
12E
330
1
100
AcDbSymbolTableRecord
100
AcDbBlockTableRecord
2
_U3
340
0
70
0
280
1
281
0
1001
ACAD
1000
DesignCenter Data
1002
{
1070
1
1070
0
1002
}
0
BLOCK_RECORD
5
13C
330
1
100
AcDbSymbolTableRecord
100
AcDbBlockTableRecord
2
*D9
340
0
0
BLOCK_RECORD
5
148
330
1
100
AcDbSymbolTableRecord
100
AcDbBlockTableRecord
2
_U4
340
0
70
0
280
1
281
0
1001
ACAD
1000
DesignCenter Data
1002
{
1070
1
1070
0
1002
}
0
BLOCK_RECORD
5
155
330
1
100
AcDbSymbolTableRecord
100
AcDbBlockTableRecord
2
*D11
340
0
0
BLOCK_RECORD
5
161
330
1
100
AcDbSymbolTableRecord
100
AcDbBlockTableRecord
2
_U5
340
0
70
0
280
1
281
0
1001
ACAD
1000
DesignCenter Data
1002
{
1070
1
1070
0
1002
}
0
ENDTAB
0
ENDSEC
0
SECTION
2
BLOCKS
0
BLOCK
5
20
330
1F
100
AcDbEntity
8
0
100
AcDbBlockBegin
2
*Model_Space
70
0
10
0.0
20
0.0
30
0.0
3
*Model_Space
0
ENDBLK
5
21
330
1F
100
AcDbEntity
8
0
100
AcDbBlockEnd
0
BLOCK
5
1C
330
1B
100
AcDbEntity
8
0
100
AcDbBlockBegin
2
*Paper_Space
70
0
10
0.0
20
0.0
30
0.0
3
*Paper_Space
0
ENDBLK
5
1D
330
1B
100
AcDbEntity
8
0
100
AcDbBlockEnd
0
BLOCK
5
24
330
23
100
AcDbEntity
67
1
8
0
100
AcDbBlockBegin
2
*Paper_Space0
70
0
10
0.0
20
0.0
30
0.0
3
*Paper_Space0
0
VIEWPORT
5
1CA
330
23
100
AcDbEntity
67
1
8
0
62
256
6
ByLayer
370
-1
48
1.0
60
0
100
AcDbViewport
10
0.0
20
0.0
30
0.0
40
297.0
41
210.0
68
1
69
1
12
50.0
22
100.0
13
0.0
23
0.0
14
10.0
24
10.0
15
10.0
25
10.0
16
0.0
26
0.0
36
1.0
17
0.0
27
0.0
37
0.0
42
50.0
43
0.0
44
0.0
45
250.0
50
0.0
51
0.0
72
1000
90
819232
110
0.0
120
0.0
130
0.0
111
1.0
121
0.0
131
0.0
112
0.0
122
1.0
132
0.0
0
ENDBLK
5
25
330
23
100
AcDbEntity
8
0
100
AcDbBlockEnd
0
BLOCK
5
CF
330
CE
100
AcDbEntity
8
0
100
AcDbBlockBegin
2
*D1
70
1
10
0.0
20
0.0
30
0.0
3
*D1
0
LINE
5
D1
330
CE
100
AcDbEntity
8
0
62
7
6
ByLayer
370
-2
48
1.0
60
0
100
AcDbLine
10
33.0000001311554
20
-0.50000000102524
30
0.0
11
33.0000001311554
21
46.9874449989748
31
0.0
39
0.0
210
0.0
220
0.0
230
1.0
0
LINE
5
D2
330
CE
100
AcDbEntity
8
0
62
7
6
ByLayer
370
-2
48
1.0
60
0
100
AcDbLine
10
3.00000013115542
20
-0.50000000102524
30
0.0
11
3.00000013115542
21
46.9874449989748
31
0.0
39
0.0
210
0.0
220
0.0
230
1.0
0
LINE
5
D3
330
CE
100
AcDbEntity
8
0
62
7
6
ByLayer
370
-2
48
1.0
60
0
100
AcDbLine
10
30.5000001311554
20
44.9874449989748
30
0.0
11
5.50000013115542
21
44.9874449989748
31
0.0
39
0.0
210
0.0
220
0.0
230
1.0
0
SOLID
5
D4
330
CE
100
AcDbEntity
8
0
62
7
6
ByLayer
370
-1
48
1.0
60
0
100
AcDbTrace
10
30.5000001311554
20
44.5707789989747
30
0.0
11
30.5000001311554
21
45.4041119989748
31
0.0
12
33.0000001311554
22
44.9874449989748
32
0.0
13
33.0000001311554
23
44.9874449989748
33
0.0
39
0.0
210
0.0
220
0.0
230
1.0
0
SOLID
5
D5
330
CE
100
AcDbEntity
8
0
62
7
6
ByLayer
370
-1
48
1.0
60
0
100
AcDbTrace
10
5.50000013115542
20
45.4041119989748
30
0.0
11
5.50000013115542
21
44.5707789989747
31
0.0
12
3.00000013115542
22
44.9874449989748
32
0.0
13
3.00000013115542
23
44.9874449989748
33
0.0
39
0.0
210
0.0
220
0.0
230
1.0
0
MTEXT
5
D6
330
CE
100
AcDbEntity
8
0
62
7
6
ByLayer
370
13
48
1.0
60
0
100
AcDbMText
10
18.0000001311554
20
50.2989349989748
30
0.0
210
0.0
220
0.0
230
1.0
1
\A1;30
40
3.5
41
0.0
44
1.0
50
0.0
71
5
72
5
7
Monospac821 BT
0
POINT
5
D7
330
CE
100
AcDbEntity
8
Defpoints
62
0
6
ByLayer
370
-1
48
1.0
60
0
100
AcDbPoint
10
33.0000001311554
20
-0.50000000102524
30
0.0
39
0.0
210
0.0
220
0.0
230
1.0
50
360.0
0
POINT
5
D8
330
CE
100
AcDbEntity
8
Defpoints
62
0
6
ByLayer
370
-1
48
1.0
60
0
100
AcDbPoint
10
3.00000013115542
20
-0.50000000102524
30
0.0
39
0.0
210
0.0
220
0.0
230
1.0
50
360.0
0
POINT
5
D9
330
CE
100
AcDbEntity
8
Defpoints
62
0
6
ByLayer
370
-1
48
1.0
60
0
100
AcDbPoint
10
3.00000013115542
20
44.9874449989748
30
0.0
39
0.0
210
0.0
220
0.0
230
1.0
50
360.0
0
ENDBLK
5
D0
330
CE
100
AcDbEntity
8
0
100
AcDbBlockEnd
0
BLOCK
5
E2
330
DB
100
AcDbEntity
8
0
100
AcDbBlockBegin
2
_U0
70
0
10
0.0
20
0.0
30
0.0
3
_U0
0
MTEXT
5
DC
330
DB
100
AcDbEntity
8
2
62
7
6
Continuous
370
13
48
1.0
60
0
100
AcDbMText
10
14.9752631311554
20
45.7060609989748
30
0.0
210
0.0
220
0.0
230
1.0
1
\fMonospac821 BT|b0|i0;\W1.0585;30
40
3.5
41
0.0
44
1.072372
50
0.0
71
7
72
5
7
Monospac821 BT
0
LINE
5
DD
330
DB
100
AcDbEntity
8
2
62
7
6
ByLayer
370
13
48
1.0
60
0
100
AcDbLine
10
33.0000001311554
20
0.49999999897476
30
0.0
11
33.0000001311554
21
46.9874449989748
31
0.0
39
0.0
210
0.0
220
0.0
230
1.0
0
LINE
5
DE
330
DB
100
AcDbEntity
8
2
62
7
6
ByLayer
370
13
48
1.0
60
0
100
AcDbLine
10
3.00000013115542
20
0.49999999897476
30
0.0
11
3.00000013115542
21
46.9874449989748
31
0.0
39
0.0
210
0.0
220
0.0
230
1.0
0
LINE
5
DF
330
DB
100
AcDbEntity
8
2
62
7
6
ByLayer
370
13
48
1.0
60
0
100
AcDbLine
10
33.0000001311554
20
44.9874449989748
30
0.0
11
3.00000013115542
21
44.9874449989748
31
0.0
39
0.0
210
0.0
220
0.0
230
1.0
0
SOLID
5
E0
330
DB
100
AcDbEntity
8
2
62
7
6
ByLayer
370
13
48
1.0
60
0
100
AcDbTrace
10
33.0000001311554
20
44.9874449989748
30
0.0
11
30.5000021311554
21
44.4332089989748
31
0.0
12
30.4999981311554
22
45.5416819989748
32
0.0
13
30.4999981311554
23
45.5416819989748
33
0.0
39
0.0
210
0.0
220
0.0
230
1.0
0
SOLID
5
E1
330
DB
100
AcDbEntity
8
2
62
7
6
ByLayer
370
13
48
1.0
60
0
100
AcDbTrace
10
3.00000013115542
20
44.9874449989748
30
0.0
11
5.49999813115542
21
45.5416819989748
31
0.0
12
5.50000213115541
22
44.4332089989748
32
0.0
13
5.50000213115541
23
44.4332089989748
33
0.0
39
0.0
210
0.0
220
0.0
230
1.0
0
ENDBLK
5
E3
330
DB
100
AcDbEntity
8
0
100
AcDbBlockEnd
0
BLOCK
5
E9
330
E8
100
AcDbEntity
8
0
100
AcDbBlockBegin
2
*D3
70
1
10
0.0
20
0.0
30
0.0
3
*D3
0
LINE
5
EB
330
E8
100
AcDbEntity
8
0
62
7
6
ByLayer
370
-2
48
1.0
60
0
100
AcDbLine
10
33.0000001311554
20
-0.00000000102524
30
0.0
11
33.0000001311554
21
31.9874449989748
31
0.0
39
0.0
210
0.0
220
0.0
230
1.0
0
LINE
5
EC
330
E8
100
AcDbEntity
8
0
62
7
6
ByLayer
370
-2
48
1.0
60
0
100
AcDbLine
10
17.0000001311554
20
1.25649999897476
30
0.0
11
17.0000001311554
21
31.9874449989748
31
0.0
39
0.0
210
0.0
220
0.0
230
1.0
0
LINE
5
ED
330
E8
100
AcDbEntity
8
0
62
7
6
ByLayer
370
-2
48
1.0
60
0
100
AcDbLine
10
30.5000001311554
20
29.9874449989748
30
0.0
11
19.5000001311554
21
29.9874449989748
31
0.0
39
0.0
210
0.0
220
0.0
230
1.0
0
SOLID
5
EE
330
E8
100
AcDbEntity
8
0
62
7
6
ByLayer
370
-1
48
1.0
60
0
100
AcDbTrace
10
30.5000001311554
20
29.5707789989747
30
0.0
11
30.5000001311554
21
30.4041119989748
31
0.0
12
33.0000001311554
22
29.9874449989748
32
0.0
13
33.0000001311554
23
29.9874449989748
33
0.0
39
0.0
210
0.0
220
0.0
230
1.0
0
SOLID
5
EF
330
E8
100
AcDbEntity
8
0
62
7
6
ByLayer
370
-1
48
1.0
60
0
100
AcDbTrace
10
19.5000001311554
20
30.4041119989748
30
0.0
11
19.5000001311554
21
29.5707789989747
31
0.0
12
17.0000001311554
22
29.9874449989748
32
0.0
13
17.0000001311554
23
29.9874449989748
33
0.0
39
0.0
210
0.0
220
0.0
230
1.0
0
MTEXT
5
F0
330
E8
100
AcDbEntity
8
0
62
7
6
ByLayer
370
13
48
1.0
60
0
100
AcDbMText
10
25.0000001311554
20
35.2989349989748
30
0.0
210
0.0
220
0.0
230
1.0
1
\A1;16
40
3.5
41
0.0
44
1.0
50
0.0
71
5
72
5
7
Monospac821 BT
0
POINT
5
F1
330
E8
100
AcDbEntity
8
Defpoints
62
0
6
ByLayer
370
-1
48
1.0
60
0
100
AcDbPoint
10
33.0000001311554
20
-0.00000000102524
30
0.0
39
0.0
210
0.0
220
0.0
230
1.0
50
360.0
0
POINT
5
F2
330
E8
100
AcDbEntity
8
Defpoints
62
0
6
ByLayer
370
-1
48
1.0
60
0
100
AcDbPoint
10
17.0000001311554
20
1.25649999897476
30
0.0
39
0.0
210
0.0
220
0.0
230
1.0
50
360.0
0
POINT
5
F3
330
E8
100
AcDbEntity
8
Defpoints
62
0
6
ByLayer
370
-1
48
1.0
60
0
100
AcDbPoint
10
17.0000001311554
20
29.9874449989748
30
0.0
39
0.0
210
0.0
220
0.0
230
1.0
50
360.0
0
ENDBLK
5
EA
330
E8
100
AcDbEntity
8
0
100
AcDbBlockEnd
0
BLOCK
5
FB
330
F4
100
AcDbEntity
8
0
100
AcDbBlockBegin
2
_U1
70
0
10
0.0
20
0.0
30
0.0
3
_U1
0
MTEXT
5
F5
330
F4
100
AcDbEntity
8
2
62
7
6
Continuous
370
13
48
1.0
60
0
100
AcDbMText
10
21.9752631311554
20
30.7060609989748
30
0.0
210
0.0
220
0.0
230
1.0
1
\fMonospac821 BT|b0|i0;\W1.0585;16
40
3.5
41
0.0
44
1.072372
50
0.0
71
7
72
5
7
Monospac821 BT
0
LINE
5
F6
330
F4
100
AcDbEntity
8
2
62
7
6
ByLayer
370
13
48
1.0
60
0
100
AcDbLine
10
33.0000001311554
20
0.49999999897476
30
0.0
11
33.0000001311554
21
31.9874449989748
31
0.0
39
0.0
210
0.0
220
0.0
230
1.0
0
LINE
5
F7
330
F4
100
AcDbEntity
8
2
62
7
6
ByLayer
370
13
48
1.0
60
0
100
AcDbLine
10
17.0000001311554
20
4.25899999897476
30
0.0
11
17.0000001311554
21
31.9874449989748
31
0.0
39
0.0
210
0.0
220
0.0
230
1.0
0
LINE
5
F8
330
F4
100
AcDbEntity
8
2
62
7
6
ByLayer
370
13
48
1.0
60
0
100
AcDbLine
10
33.0000001311554
20
29.9874449989748
30
0.0
11
17.0000001311554
21
29.9874449989748
31
0.0
39
0.0
210
0.0
220
0.0
230
1.0
0
SOLID
5
F9
330
F4
100
AcDbEntity
8
2
62
7
6
ByLayer
370
13
48
1.0
60
0
100
AcDbTrace
10
33.0000001311554
20
29.9874449989748
30
0.0
11
30.5000021311554
21
29.4332089989748
31
0.0
12
30.4999981311554
22
30.5416819989748
32
0.0
13
30.4999981311554
23
30.5416819989748
33
0.0
39
0.0
210
0.0
220
0.0
230
1.0
0
SOLID
5
FA
330
F4
100
AcDbEntity
8
2
62
7
6
ByLayer
370
13
48
1.0
60
0
100
AcDbTrace
10
17.0000001311554
20
29.9874449989748
30
0.0
11
19.4999981311554
21
30.5416819989748
31
0.0
12
19.5000021311554
22
29.4332089989748
32
0.0
13
19.5000021311554
23
29.4332089989748
33
0.0
39
0.0
210
0.0
220
0.0
230
1.0
0
ENDBLK
5
FC
330
F4
100
AcDbEntity
8
0
100
AcDbBlockEnd
0
BLOCK
5
103
330
102
100
AcDbEntity
8
0
100
AcDbBlockBegin
2
*D5
70
1
10
0.0
20
0.0
30
0.0
3
*D5
0
LINE
5
105
330
102
100
AcDbEntity
8
0
62
7
6
ByLayer
370
-2
48
1.0
60
0
100
AcDbLine
10
31.3409511311554
20
3.00749999897475
30
0.0
11
62.0099251311554
21
3.00749999897475
31
0.0
39
0.0
210
0.0
220
0.0
230
1.0
0
LINE
5
106
330
102
100
AcDbEntity
8
0
62
7
6
ByLayer
370
-2
48
1.0
60
0
100
AcDbLine
10
31.5000001311554
20
-3.00750000102525
30
0.0
11
62.0099251311554
21
-3.00750000102525
31
0.0
39
0.0
210
0.0
220
0.0
230
1.0
0
LINE
5
107
330
102
100
AcDbEntity
8
0
62
7
6
ByLayer
370
-2
48
1.0
60
0
100
AcDbLine
10
60.0099251311554
20
3.00749999897475
30
0.0
11
60.0099251311554
21
40.7693249989748
31
0.0
39
0.0
210
0.0
220
0.0
230
1.0
0
LINE
5
108
330
102
100
AcDbEntity
8
0
62
7
6
ByLayer
370
-2
48
1.0
60
0
100
AcDbLine
10
60.0099251311554
20
5.50749999897475
30
0.0
11
60.0099251311554
21
8.00749999897475
31
0.0
39
0.0
210
0.0
220
0.0
230
1.0
0
LINE
5
109
330
102
100
AcDbEntity
8
0
62
7
6
ByLayer
370
-2
48
1.0
60
0
100
AcDbLine
10
60.0099251311554
20
-5.50750000102525
30
0.0
11
60.0099251311554
21
-8.00750000102525
31
0.0
39
0.0
210
0.0
220
0.0
230
1.0
0
SOLID
5
10A
330
102
100
AcDbEntity
8
0
62
7
6
ByLayer
370
-1
48
1.0
60
0
100
AcDbTrace
10
59.5932591311554
20
5.50749999897475
30
0.0
11
60.4265921311554
21
5.50749999897475
31
0.0
12
60.0099251311554
22
3.00749999897475
32
0.0
13
60.0099251311554
23
3.00749999897475
33
0.0
39
0.0
210
0.0
220
0.0
230
1.0
0
SOLID
5
10B
330
102
100
AcDbEntity
8
0
62
7
6
ByLayer
370
-1
48
1.0
60
0
100
AcDbTrace
10
60.4265921311554
20
-5.50750000102525
30
0.0
11
59.5932591311554
21
-5.50750000102525
31
0.0
12
60.0099251311554
22
-3.00750000102525
32
0.0
13
60.0099251311554
23
-3.00750000102525
33
0.0
39
0.0
210
0.0
220
0.0
230
1.0
0
MTEXT
5
10C
330
102
100
AcDbEntity
8
0
62
7
6
ByLayer
370
13
48
1.0
60
0
100
AcDbMText
10
54.6984361311554
20
29.9999999989748
30
0.0
210
0.0
220
0.0
230
1.0
1
\A1;6.015
40
3.5
41
0.0
44
1.0
50
90.0
71
5
72
5
7
Monospac821 BT
0
POINT
5
10D
330
102
100
AcDbEntity
8
Defpoints
62
0
6
ByLayer
370
-1
48
1.0
60
0
100
AcDbPoint
10
31.3409511311554
20
3.00749999897475
30
0.0
39
0.0
210
0.0
220
0.0
230
1.0
50
360.0
0
POINT
5
10E
330
102
100
AcDbEntity
8
Defpoints
62
0
6
ByLayer
370
-1
48
1.0
60
0
100
AcDbPoint
10
31.5000001311554
20
-3.00750000102525
30
0.0
39
0.0
210
0.0
220
0.0
230
1.0
50
360.0
0
POINT
5
10F
330
102
100
AcDbEntity
8
Defpoints
62
0
6
ByLayer
370
-1
48
1.0
60
0
100
AcDbPoint
10
60.0099251311554
20
-3.00750000102525
30
0.0
39
0.0
210
0.0
220
0.0
230
1.0
50
360.0
0
ENDBLK
5
104
330
102
100
AcDbEntity
8
0
100
AcDbBlockEnd
0
BLOCK
5
118
330
110
100
AcDbEntity
8
0
100
AcDbBlockBegin
2
_U2
70
0
10
0.0
20
0.0
30
0.0
3
_U2
0
MTEXT
5
111
330
110
100
AcDbEntity
8
2
62
7
6
Continuous
370
13
48
1.0
60
0
100
AcDbMText
10
58.9395211311554
20
24.8200899989748
30
0.0
210
0.0
220
0.0
230
1.0
1
\fMonospac821 BT|b0|i0;\W1.0932;6,015
40
3.5
41
0.0
44
1.072372
50
90.0
71
7
72
5
7
Monospac821 BT
0
MTEXT
5
112
330
110
100
AcDbEntity
8
2
62
7
6
Continuous
370
13
48
1.0
60
0
100
AcDbMText
10
58.9395211311554
20
18.9187249989748
30
0.0
210
0.0
220
0.0
230
1.0
1
\fMonospac821 BT|b0|i0;%%c
40
3.5
41
0.0
44
1.072372
50
90.0
71
7
72
5
7
Monospac821 BT
0
LINE
5
113
330
110
100
AcDbEntity
8
2
62
7
6
ByLayer
370
13
48
1.0
60
0
100
AcDbLine
10
31.5000001311554
20
3.00749999897475
30
0.0
11
62.0099251311554
21
3.00749999897475
31
0.0
39
0.0
210
0.0
220
0.0
230
1.0
0
LINE
5
114
330
110
100
AcDbEntity
8
2
62
7
6
ByLayer
370
13
48
1.0
60
0
100
AcDbLine
10
31.5000001311554
20
-3.00750000102525
30
0.0
11
62.0099251311554
21
-3.00750000102525
31
0.0
39
0.0
210
0.0
220
0.0
230
1.0
0
LINE
5
115
330
110
100
AcDbEntity
8
2
62
7
6
ByLayer
370
13
48
1.0
60
0
100
AcDbLine
10
60.0099251311554
20
-3.00750000102525
30
0.0
11
60.0099251311554
21
41.2387749989748
31
0.0
39
0.0
210
0.0
220
0.0
230
1.0
0
SOLID
5
116
330
110
100
AcDbEntity
8
2
62
7
6
ByLayer
370
13
48
1.0
60
0
100
AcDbTrace
10
60.0099251311554
20
3.00749999897475
30
0.0
11
60.5641621311554
21
0.50750199897476
31
0.0
12
59.4556891311554
22
0.50749799897476
32
0.0
13
59.4556891311554
23
0.50749799897476
33
0.0
39
0.0
210
0.0
220
0.0
230
1.0
0
SOLID
5
117
330
110
100
AcDbEntity
8
2
62
7
6
ByLayer
370
13
48
1.0
60
0
100
AcDbTrace
10
60.0099251311554
20
-3.00750000102525
30
0.0
11
59.4556891311554
21
-0.50750200102524
31
0.0
12
60.5641621311554
22
-0.50749800102524
32
0.0
13
60.5641621311554
23
-0.50749800102524
33
0.0
39
0.0
210
0.0
220
0.0
230
1.0
0
ENDBLK
5
119
330
110
100
AcDbEntity
8
0
100
AcDbBlockEnd
0
BLOCK
5
120
330
11F
100
AcDbEntity
8
0
100
AcDbBlockBegin
2
*D7
70
1
10
0.0
20
0.0
30
0.0
3
*D7
0
LINE
5
122
330
11F
100
AcDbEntity
8
0
62
7
6
ByLayer
370
-2
48
1.0
60
0
100
AcDbLine
10
-31.3019358688446
20
-4.00000000102524
30
0.0
11
-61.9900748688446
21
-4.00000000102524
31
0.0
39
0.0
210
0.0
220
0.0
230
1.0
0
LINE
5
123
330
11F
100
AcDbEntity
8
0
62
7
6
ByLayer
370
-2
48
1.0
60
0
100
AcDbLine
10
-31.4999998688446
20
3.99999999897476
30
0.0
11
-61.9900748688446
21
3.99999999897476
31
0.0
39
0.0
210
0.0
220
0.0
230
1.0
0
LINE
5
124
330
11F
100
AcDbEntity
8
0
62
7
6
ByLayer
370
-2
48
1.0
60
0
100
AcDbLine
10
-59.9900748688446
20
3.99999999897476
30
0.0
11
-59.9900748688446
21
34.7039699989748
31
0.0
39
0.0
210
0.0
220
0.0
230
1.0
0
LINE
5
125
330
11F
100
AcDbEntity
8
0
62
7
6
ByLayer
370
-2
48
1.0
60
0
100
AcDbLine
10
-59.9900748688446
20
-6.50000000102524
30
0.0
11
-59.9900748688446
21
-9.00000000102524
31
0.0
39
0.0
210
0.0
220
0.0
230
1.0
0
LINE
5
126
330
11F
100
AcDbEntity
8
0
62
7
6
ByLayer
370
-2
48
1.0
60
0
100
AcDbLine
10
-59.9900748688446
20
6.49999999897476
30
0.0
11
-59.9900748688446
21
8.99999999897476
31
0.0
39
0.0
210
0.0
220
0.0
230
1.0
0
SOLID
5
127
330
11F
100
AcDbEntity
8
0
62
7
6
ByLayer
370
-1
48
1.0
60
0
100
AcDbTrace
10
-59.5734078688446
20
-6.50000000102524
30
0.0
11
-60.4067408688446
21
-6.50000000102524
31
0.0
12
-59.9900748688446
22
-4.00000000102524
32
0.0
13
-59.9900748688446
23
-4.00000000102524
33
0.0
39
0.0
210
0.0
220
0.0
230
1.0
0
SOLID
5
128
330
11F
100
AcDbEntity
8
0
62
7
6
ByLayer
370
-1
48
1.0
60
0
100
AcDbTrace
10
-60.4067408688446
20
6.49999999897476
30
0.0
11
-59.5734078688446
21
6.49999999897476
31
0.0
12
-59.9900748688446
22
3.99999999897476
32
0.0
13
-59.9900748688446
23
3.99999999897476
33
0.0
39
0.0
210
0.0
220
0.0
230
1.0
0
MTEXT
5
129
330
11F
100
AcDbEntity
8
0
62
7
6
ByLayer
370
13
48
1.0
60
0
100
AcDbMText
10
-65.3015638688446
20
29.9999999989748
30
0.0
210
0.0
220
0.0
230
1.0
1
\A1;8
40
3.5
41
0.0
44
1.0
50
90.0
71
5
72
5
7
Monospac821 BT
0
POINT
5
12A
330
11F
100
AcDbEntity
8
Defpoints
62
0
6
ByLayer
370
-1
48
1.0
60
0
100
AcDbPoint
10
-31.3019358688446
20
-4.00000000102524
30
0.0
39
0.0
210
0.0
220
0.0
230
1.0
50
360.0
0
POINT
5
12B
330
11F
100
AcDbEntity
8
Defpoints
62
0
6
ByLayer
370
-1
48
1.0
60
0
100
AcDbPoint
10
-31.4999998688446
20
3.99999999897476
30
0.0
39
0.0
210
0.0
220
0.0
230
1.0
50
360.0
0
POINT
5
12C
330
11F
100
AcDbEntity
8
Defpoints
62
0
6
ByLayer
370
-1
48
1.0
60
0
100
AcDbPoint
10
-59.9900748688446
20
3.99999999897476
30
0.0
39
0.0
210
0.0
220
0.0
230
1.0
50
360.0
0
ENDBLK
5
121
330
11F
100
AcDbEntity
8
0
100
AcDbBlockEnd
0
BLOCK
5
136
330
12E
100
AcDbEntity
8
0
100
AcDbBlockBegin
2
_U3
70
0
10
0.0
20
0.0
30
0.0
3
_U3
0
MTEXT
5
12F
330
12E
100
AcDbEntity
8
SK2
62
7
6
Continuous
370
13
48
1.0
60
0
100
AcDbMText
10
-61.0604788688446
20
31.5905639989748
30
0.0
210
0.0
220
0.0
230
1.0
1
\fMonospac821 BT|b0|i0;\W1.0000;8
40
3.5
41
0.0
44
1.072372
50
90.0
71
7
72
5
7
Monospac821 BT
0
MTEXT
5
130
330
12E
100
AcDbEntity
8
SK2
62
7
6
Continuous
370
13
48
1.0
60
0
100
AcDbMText
10
-61.0604788688446
20
25.6891989989748
30
0.0
210
0.0
220
0.0
230
1.0
1
\fMonospac821 BT|b0|i0;%%c
40
3.5
41
0.0
44
1.072372
50
90.0
71
7
72
5
7
Monospac821 BT
0
LINE
5
131
330
12E
100
AcDbEntity
8
SK2
62
7
6
ByLayer
370
13
48
1.0
60
0
100
AcDbLine
10
-31.4999998688446
20
-4.00000000102524
30
0.0
11
-61.9900748688446
21
-4.00000000102524
31
0.0
39
0.0
210
0.0
220
0.0
230
1.0
0
LINE
5
132
330
12E
100
AcDbEntity
8
SK2
62
7
6
ByLayer
370
13
48
1.0
60
0
100
AcDbLine
10
-31.4999998688446
20
3.99999999897476
30
0.0
11
-61.9900748688446
21
3.99999999897476
31
0.0
39
0.0
210
0.0
220
0.0
230
1.0
0
LINE
5
133
330
12E
100
AcDbEntity
8
SK2
62
7
6
ByLayer
370
13
48
1.0
60
0
100
AcDbLine
10
-59.9900748688446
20
-4.00000000102524
30
0.0
11
-59.9900748688446
21
34.4683009989748
31
0.0
39
0.0
210
0.0
220
0.0
230
1.0
0
SOLID
5
134
330
12E
100
AcDbEntity
8
SK2
62
7
6
ByLayer
370
13
48
1.0
60
0
100
AcDbTrace
10
-59.9900748688446
20
-4.00000000102524
30
0.0
11
-60.5443108688446
21
-1.50000200102525
31
0.0
12
-59.4358378688446
22
-1.49999800102525
32
0.0
13
-59.4358378688446
23
-1.49999800102525
33
0.0
39
0.0
210
0.0
220
0.0
230
1.0
0
SOLID
5
135
330
12E
100
AcDbEntity
8
SK2
62
7
6
ByLayer
370
13
48
1.0
60
0
100
AcDbTrace
10
-59.9900748688446
20
3.99999999897476
30
0.0
11
-59.4358378688446
21
1.50000199897475
31
0.0
12
-60.5443108688446
22
1.49999799897475
32
0.0
13
-60.5443108688446
23
1.49999799897475
33
0.0
39
0.0
210
0.0
220
0.0
230
1.0
0
ENDBLK
5
137
330
12E
100
AcDbEntity
8
0
100
AcDbBlockEnd
0
BLOCK
5
13D
330
13C
100
AcDbEntity
8
0
100
AcDbBlockBegin
2
*D9
70
1
10
0.0
20
0.0
30
0.0
3
*D9
0
LINE
5
13F
330
13C
100
AcDbEntity
8
0
62
7
6
ByLayer
370
-2
48
1.0
60
0
100
AcDbLine
10
-31.9999998688446
20
-1.88961700102524
30
0.0
11
-31.9999998688446
21
76.9874449989748
31
0.0
39
0.0
210
0.0
220
0.0
230
1.0
0
LINE
5
140
330
13C
100
AcDbEntity
8
0
62
7
6
ByLayer
370
-2
48
1.0
60
0
100
AcDbLine
10
33.0000001311554
20
-0.00000000102524
30
0.0
11
33.0000001311554
21
76.9874449989748
31
0.0
39
0.0
210
0.0
220
0.0
230
1.0
0
LINE
5
141
330
13C
100
AcDbEntity
8
0
62
7
6
ByLayer
370
-2
48
1.0
60
0
100
AcDbLine
10
-29.4999998688446
20
74.9874449989748
30
0.0
11
30.5000001311554
21
74.9874449989748
31
0.0
39
0.0
210
0.0
220
0.0
230
1.0
0
SOLID
5
142
330
13C
100
AcDbEntity
8
0
62
7
6
ByLayer
370
-1
48
1.0
60
0
100
AcDbTrace
10
-29.4999998688446
20
75.4041119989748
30
0.0
11
-29.4999998688446
21
74.5707789989747
31
0.0
12
-31.9999998688446
22
74.9874449989748
32
0.0
13
-31.9999998688446
23
74.9874449989748
33
0.0
39
0.0
210
0.0
220
0.0
230
1.0
0
SOLID
5
143
330
13C
100
AcDbEntity
8
0
62
7
6
ByLayer
370
-1
48
1.0
60
0
100
AcDbTrace
10
30.5000001311554
20
74.5707789989747
30
0.0
11
30.5000001311554
21
75.4041119989748
31
0.0
12
33.0000001311554
22
74.9874449989748
32
0.0
13
33.0000001311554
23
74.9874449989748
33
0.0
39
0.0
210
0.0
220
0.0
230
1.0
0
MTEXT
5
144
330
13C
100
AcDbEntity
8
0
62
7
6
ByLayer
370
13
48
1.0
60
0
100
AcDbMText
10
0.50000013115542
20
80.2989349989748
30
0.0
210
0.0
220
0.0
230
1.0
1
\A1;65
40
3.5
41
0.0
44
1.0
50
0.0
71
5
72
5
7
Monospac821 BT
0
POINT
5
145
330
13C
100
AcDbEntity
8
Defpoints
62
0
6
ByLayer
370
-1
48
1.0
60
0
100
AcDbPoint
10
-31.9999998688446
20
-1.88961700102524
30
0.0
39
0.0
210
0.0
220
0.0
230
1.0
50
360.0
0
POINT
5
146
330
13C
100
AcDbEntity
8
Defpoints
62
0
6
ByLayer
370
-1
48
1.0
60
0
100
AcDbPoint
10
33.0000001311554
20
-0.00000000102524
30
0.0
39
0.0
210
0.0
220
0.0
230
1.0
50
360.0
0
POINT
5
147
330
13C
100
AcDbEntity
8
Defpoints
62
0
6
ByLayer
370
-1
48
1.0
60
0
100
AcDbPoint
10
33.0000001311554
20
74.9874449989748
30
0.0
39
0.0
210
0.0
220
0.0
230
1.0
50
360.0
0
ENDBLK
5
13E
330
13C
100
AcDbEntity
8
0
100
AcDbBlockEnd
0
BLOCK
5
14F
330
148
100
AcDbEntity
8
0
100
AcDbBlockBegin
2
_U4
70
0
10
0.0
20
0.0
30
0.0
3
_U4
0
MTEXT
5
149
330
148
100
AcDbEntity
8
SK2
62
7
6
Continuous
370
13
48
1.0
60
0
100
AcDbMText
10
-2.5247368688446
20
75.7060609989748
30
0.0
210
0.0
220
0.0
230
1.0
1
\fMonospac821 BT|b0|i0;\W1.0585;65
40
3.5
41
0.0
44
1.072372
50
0.0
71
7
72
5
7
Monospac821 BT
0
LINE
5
14A
330
148
100
AcDbEntity
8
SK2
62
7
6
ByLayer
370
13
48
1.0
60
0
100
AcDbLine
10
33.0000001311554
20
0.49999999897476
30
0.0
11
33.0000001311554
21
76.9874449989748
31
0.0
39
0.0
210
0.0
220
0.0
230
1.0
0
LINE
5
14B
330
148
100
AcDbEntity
8
SK2
62
7
6
ByLayer
370
13
48
1.0
60
0
100
AcDbLine
10
-31.9999998688446
20
3.59999999897475
30
0.0
11
-31.9999998688446
21
76.9874449989748
31
0.0
39
0.0
210
0.0
220
0.0
230
1.0
0
LINE
5
14C
330
148
100
AcDbEntity
8
SK2
62
7
6
ByLayer
370
13
48
1.0
60
0
100
AcDbLine
10
33.0000001311554
20
74.9874449989748
30
0.0
11
-31.9999998688446
21
74.9874449989748
31
0.0
39
0.0
210
0.0
220
0.0
230
1.0
0
SOLID
5
14D
330
148
100
AcDbEntity
8
SK2
62
7
6
ByLayer
370
13
48
1.0
60
0
100
AcDbTrace
10
33.0000001311554
20
74.9874449989748
30
0.0
11
30.5000021311554
21
74.4332089989748
31
0.0
12
30.4999981311554
22
75.5416819989748
32
0.0
13
30.4999981311554
23
75.5416819989748
33
0.0
39
0.0
210
0.0
220
0.0
230
1.0
0
SOLID
5
14E
330
148
100
AcDbEntity
8
SK2
62
7
6
ByLayer
370
13
48
1.0
60
0
100
AcDbTrace
10
-31.9999998688446
20
74.9874449989748
30
0.0
11
-29.5000018688446
21
75.5416819989748
31
0.0
12
-29.4999978688446
22
74.4332089989748
32
0.0
13
-29.4999978688446
23
74.4332089989748
33
0.0
39
0.0
210
0.0
220
0.0
230
1.0
0
ENDBLK
5
150
330
148
100
AcDbEntity
8
0
100
AcDbBlockEnd
0
BLOCK
5
156
330
155
100
AcDbEntity
8
0
100
AcDbBlockBegin
2
*D11
70
1
10
0.0
20
0.0
30
0.0
3
*D11
0
LINE
5
158
330
155
100
AcDbEntity
8
0
62
7
6
ByLayer
370
-2
48
1.0
60
0
100
AcDbLine
10
33.0000001311554
20
0.09773099897475
30
0.0
11
33.0000001311554
21
61.9874449989748
31
0.0
39
0.0
210
0.0
220
0.0
230
1.0
0
LINE
5
159
330
155
100
AcDbEntity
8
0
62
7
6
ByLayer
370
-2
48
1.0
60
0
100
AcDbLine
10
0.00000013115542
20
-0.00000000102524
30
0.0
11
0.00000013115542
21
61.9874449989748
31
0.0
39
0.0
210
0.0
220
0.0
230
1.0
0
LINE
5
15A
330
155
100
AcDbEntity
8
0
62
7
6
ByLayer
370
-2
48
1.0
60
0
100
AcDbLine
10
30.5000001311554
20
59.9874449989748
30
0.0
11
2.50000013115542
21
59.9874449989748
31
0.0
39
0.0
210
0.0
220
0.0
230
1.0
0
SOLID
5
15B
330
155
100
AcDbEntity
8
0
62
7
6
ByLayer
370
-1
48
1.0
60
0
100
AcDbTrace
10
30.5000001311554
20
59.5707789989747
30
0.0
11
30.5000001311554
21
60.4041119989748
31
0.0
12
33.0000001311554
22
59.9874449989748
32
0.0
13
33.0000001311554
23
59.9874449989748
33
0.0
39
0.0
210
0.0
220
0.0
230
1.0
0
SOLID
5
15C
330
155
100
AcDbEntity
8
0
62
7
6
ByLayer
370
-1
48
1.0
60
0
100
AcDbTrace
10
2.50000013115542
20
60.4041119989748
30
0.0
11
2.50000013115542
21
59.5707789989747
31
0.0
12
0.00000013115542
22
59.9874449989748
32
0.0
13
0.00000013115542
23
59.9874449989748
33
0.0
39
0.0
210
0.0
220
0.0
230
1.0
0
MTEXT
5
15D
330
155
100
AcDbEntity
8
0
62
7
6
ByLayer
370
13
48
1.0
60
0
100
AcDbMText
10
16.5000001311554
20
65.2989349989748
30
0.0
210
0.0
220
0.0
230
1.0
1
\A1;33
40
3.5
41
0.0
44
1.0
50
0.0
71
5
72
5
7
Monospac821 BT
0
POINT
5
15E
330
155
100
AcDbEntity
8
Defpoints
62
0
6
ByLayer
370
-1
48
1.0
60
0
100
AcDbPoint
10
33.0000001311554
20
0.09773099897475
30
0.0
39
0.0
210
0.0
220
0.0
230
1.0
50
360.0
0
POINT
5
15F
330
155
100
AcDbEntity
8
Defpoints
62
0
6
ByLayer
370
-1
48
1.0
60
0
100
AcDbPoint
10
0.00000013115542
20
-0.00000000102524
30
0.0
39
0.0
210
0.0
220
0.0
230
1.0
50
360.0
0
POINT
5
160
330
155
100
AcDbEntity
8
Defpoints
62
0
6
ByLayer
370
-1
48
1.0
60
0
100
AcDbPoint
10
0.00000013115542
20
59.9874449989748
30
0.0
39
0.0
210
0.0
220
0.0
230
1.0
50
360.0
0
ENDBLK
5
157
330
155
100
AcDbEntity
8
0
100
AcDbBlockEnd
0
BLOCK
5
168
330
161
100
AcDbEntity
8
0
100
AcDbBlockBegin
2
_U5
70
0
10
0.0
20
0.0
30
0.0
3
_U5
0
MTEXT
5
162
330
161
100
AcDbEntity
8
2
62
7
6
Continuous
370
13
48
1.0
60
0
100
AcDbMText
10
13.4752631311554
20
60.7060609989748
30
0.0
210
0.0
220
0.0
230
1.0
1
\fMonospac821 BT|b0|i0;\W1.0585;33
40
3.5
41
0.0
44
1.072372
50
0.0
71
7
72
5
7
Monospac821 BT
0
LINE
5
163
330
161
100
AcDbEntity
8
2
62
7
6
ByLayer
370
13
48
1.0
60
0
100
AcDbLine
10
0.00000013115542
20
3.59999999897475
30
0.0
11
0.00000013115542
21
61.9874449989748
31
0.0
39
0.0
210
0.0
220
0.0
230
1.0
0
LINE
5
164
330
161
100
AcDbEntity
8
2
62
7
6
ByLayer
370
13
48
1.0
60
0
100
AcDbLine
10
33.0000001311554
20
0.49999999897476
30
0.0
11
33.0000001311554
21
61.9874449989748
31
0.0
39
0.0
210
0.0
220
0.0
230
1.0
0
LINE
5
165
330
161
100
AcDbEntity
8
2
62
7
6
ByLayer
370
13
48
1.0
60
0
100
AcDbLine
10
0.00000013115542
20
59.9874449989748
30
0.0
11
33.0000001311554
21
59.9874449989748
31
0.0
39
0.0
210
0.0
220
0.0
230
1.0
0
SOLID
5
166
330
161
100
AcDbEntity
8
2
62
7
6
ByLayer
370
13
48
1.0
60
0
100
AcDbTrace
10
0.00000013115542
20
59.9874449989748
30
0.0
11
2.49999813115542
21
60.5416819989748
31
0.0
12
2.50000213115541
22
59.4332089989748
32
0.0
13
2.50000213115541
23
59.4332089989748
33
0.0
39
0.0
210
0.0
220
0.0
230
1.0
0
SOLID
5
167
330
161
100
AcDbEntity
8
2
62
7
6
ByLayer
370
13
48
1.0
60
0
100
AcDbTrace
10
33.0000001311554
20
59.9874449989748
30
0.0
11
30.5000021311554
21
59.4332089989748
31
0.0
12
30.4999981311554
22
60.5416819989748
32
0.0
13
30.4999981311554
23
60.5416819989748
33
0.0
39
0.0
210
0.0
220
0.0
230
1.0
0
ENDBLK
5
169
330
161
100
AcDbEntity
8
0
100
AcDbBlockEnd
0
ENDSEC
0
SECTION
2
ENTITIES
0
VIEWPORT
5
1C9
330
1B
100
AcDbEntity
67
1
8
0
62
256
6
ByLayer
370
-1
48
1.0
60
0
100
AcDbViewport
10
0.0
20
0.0
30
0.0
40
297.0
41
210.0
68
1
69
1
12
50.0
22
100.0
13
0.0
23
0.0
14
10.0
24
10.0
15
10.0
25
10.0
16
0.0
26
0.0
36
1.0
17
0.0
27
0.0
37
0.0
42
50.0
43
0.0
44
0.0
45
250.0
50
0.0
51
0.0
72
1000
90
819232
110
0.0
120
0.0
130
0.0
111
1.0
121
0.0
131
0.0
112
0.0
122
1.0
132
0.0
0
LINE
5
68
330
1F
100
AcDbEntity
67
0
8
SK1
62
256
6
ByLayer
370
-1
48
1.0
60
0
100
AcDbLine
10
-31.5999998688446
20
3.99999999897476
30
0.0
11
-31.5999998688446
21
-4.00000000102524
31
0.0
39
0.0
210
0.0
220
0.0
230
1.0
0
LINE
5
6A
330
1F
100
AcDbEntity
67
0
8
SK1
62
256
6
ByLayer
370
-1
48
1.0
60
0
100
AcDbLine
10
0.00000013115542
20
-4.00000000102524
30
0.0
11
0.00000013115542
21
3.99999999897476
31
0.0
39
0.0
210
0.0
220
0.0
230
1.0
0
LINE
5
6B
330
1F
100
AcDbEntity
67
0
8
1
62
256
6
ByLayer
370
-1
48
1.0
60
0
100
AcDbLine
10
33.0000001311554
20
-2.51296300102524
30
0.0
11
33.0000001311554
21
-2.50596000102524
31
0.0
39
0.0
210
0.0
220
0.0
230
1.0
0
LINE
5
6D
330
1F
100
AcDbEntity
67
0
8
1
62
256
6
ByLayer
370
-1
48
1.0
60
0
100
AcDbLine
10
33.0000001311554
20
1.33882499897476
30
0.0
11
33.0000001311554
21
1.36598199897476
31
0.0
39
0.0
210
0.0
220
0.0
230
1.0
0
LINE
5
6E
330
1F
100
AcDbEntity
67
0
8
1
62
256
6
ByLayer
370
-1
48
1.0
60
0
100
AcDbLine
10
16.5000001311554
20
-2.51791100102524
30
0.0
11
16.5000001311554
21
-2.84281000102524
31
0.0
39
0.0
210
0.0
220
0.0
230
1.0
0
LINE
5
6F
330
1F
100
AcDbEntity
67
0
8
1
62
256
6
ByLayer
370
-1
48
1.0
60
0
100
AcDbLine
10
17.0000001311554
20
-2.99200000102525
30
0.0
11
17.0000001311554
21
-2.98525100102525
31
0.0
39
0.0
210
0.0
220
0.0
230
1.0
0
LINE
5
70
330
1F
100
AcDbEntity
67
0
8
1
62
256
6
ByLayer
370
-1
48
1.0
60
0
100
AcDbLine
10
16.2910901311554
20
-2.86696200102524
30
0.0
11
9.6629531311554
21
-2.86696200102524
31
0.0
39
0.0
210
0.0
220
0.0
230
1.0
0
LINE
5
71
330
1F
100
AcDbEntity
67
0
8
1
62
256
6
ByLayer
370
-1
48
1.0
60
0
100
AcDbLine
10
16.2910901311554
20
-2.86696200102524
30
0.0
11
16.2910901311554
21
-2.47667300102525
31
0.0
39
0.0
210
0.0
220
0.0
230
1.0
0
LINE
5
72
330
1F
100
AcDbEntity
67
0
8
1
62
256
6
ByLayer
370
-1
48
1.0
60
0
100
AcDbLine
10
16.5000001311554
20
2.28440699897476
30
0.0
11
16.5000001311554
21
1.97176899897475
31
0.0
39
0.0
210
0.0
220
0.0
230
1.0
0
LINE
5
73
330
1F
100
AcDbEntity
67
0
8
1
62
256
6
ByLayer
370
-1
48
1.0
60
0
100
AcDbLine
10
16.2910901311554
20
1.48925599897476
30
0.0
11
16.2910901311554
21
2.26683899897476
31
0.0
39
0.0
210
0.0
220
0.0
230
1.0
0
LINE
5
74
330
1F
100
AcDbEntity
67
0
8
1
62
256
6
ByLayer
370
-1
48
1.0
60
0
100
AcDbLine
10
17.0000001311554
20
1.54238999897476
30
0.0
11
17.0000001311554
21
1.70967499897476
31
0.0
39
0.0
210
0.0
220
0.0
230
1.0
0
LINE
5
75
330
1F
100
AcDbEntity
67
0
8
1
62
256
6
ByLayer
370
-1
48
1.0
60
0
100
AcDbLine
10
33.0000001311554
20
1.33882499897476
30
0.0
11
32.4999831311554
21
1.54898399897476
31
0.0
39
0.0
210
0.0
220
0.0
230
1.0
0
LINE
5
76
330
1F
100
AcDbEntity
67
0
8
1
62
256
6
ByLayer
370
-1
48
1.0
60
0
100
AcDbLine
10
16.5000001311554
20
-0.36008200102525
30
0.0
11
16.5000001311554
21
-0.51585700102524
31
0.0
39
0.0
210
0.0
220
0.0
230
1.0
0
LINE
5
77
330
1F
100
AcDbEntity
67
0
8
1
62
256
6
ByLayer
370
-1
48
1.0
60
0
100
AcDbLine
10
0.00000013115542
20
-4.00000000102524
30
0.0
11
0.00000013115542
21
3.99999999897476
31
0.0
39
0.0
210
0.0
220
0.0
230
1.0
0
LINE
5
78
330
1F
100
AcDbEntity
67
0
8
1
62
256
6
ByLayer
370
-1
48
1.0
60
0
100
AcDbLine
10
33.0000001311554
20
2.50749699897476
30
0.0
11
33.0000001311554
21
2.51296299897476
31
0.0
39
0.0
210
0.0
220
0.0
230
1.0
0
LINE
5
79
330
1F
100
AcDbEntity
67
0
8
1
62
256
6
ByLayer
370
-1
48
1.0
60
0
100
AcDbLine
10
33.0000001311554
20
2.51296299897476
30
0.0
11
32.4999831311554
21
3.00751699897475
31
0.0
39
0.0
210
0.0
220
0.0
230
1.0
0
LINE
5
7A
330
1F
100
AcDbEntity
67
0
8
1
62
256
6
ByLayer
370
-1
48
1.0
60
0
100
AcDbLine
10
9.33413713115542
20
2.86699999897476
30
0.0
11
3.00000013115542
21
2.86699999897476
31
0.0
39
0.0
210
0.0
220
0.0
230
1.0
0
LINE
5
7B
330
1F
100
AcDbEntity
67
0
8
1
62
256
6
ByLayer
370
-1
48
1.0
60
0
100
AcDbLine
10
32.4738711311554
20
-3.00329500102525
30
0.0
11
32.4736651311554
21
-3.00372600102524
31
0.0
39
0.0
210
0.0
220
0.0
230
1.0
0
LINE
5
7C
330
1F
100
AcDbEntity
67
0
8
1
62
256
6
ByLayer
370
-1
48
1.0
60
0
100
AcDbLine
10
3.00000013115542
20
2.86552799897476
30
0.0
11
8.20072713115542
21
2.86552799897476
31
0.0
39
0.0
210
0.0
220
0.0
230
1.0
0
LINE
5
7D
330
1F
100
AcDbEntity
67
0
8
1
62
256
6
ByLayer
370
-1
48
1.0
60
0
100
AcDbLine
10
3.00000013115542
20
2.86699999897476
30
0.0
11
3.00000013115542
21
2.86552799897476
31
0.0
39
0.0
210
0.0
220
0.0
230
1.0
0
LINE
5
7E
330
1F
100
AcDbEntity
67
0
8
SK1
62
256
6
ByLayer
370
-1
48
1.0
60
0
100
AcDbLine
10
-31.9999998688446
20
3.59999999897475
30
0.0
11
-31.9999998688446
21
-3.60000000102525
31
0.0
39
0.0
210
0.0
220
0.0
230
1.0
0
LINE
5
7F
330
1F
100
AcDbEntity
67
0
8
SK1
62
256
6
ByLayer
370
-1
48
1.0
60
0
100
AcDbLine
10
-31.9999998688446
20
-3.60000000102525
30
0.0
11
-31.5999998688446
21
-4.00000000102524
31
0.0
39
0.0
210
0.0
220
0.0
230
1.0
0
LINE
5
80
330
1F
100
AcDbEntity
67
0
8
SK1
62
256
6
ByLayer
370
-1
48
1.0
60
0
100
AcDbLine
10
-31.5999998688446
20
3.99999999897476
30
0.0
11
-31.9999998688446
21
3.59999999897475
31
0.0
39
0.0
210
0.0
220
0.0
230
1.0
0
LINE
5
81
330
1F
100
AcDbEntity
67
0
8
4
62
256
6
ByLayer
370
-1
48
1.0
60
0
100
AcDbLine
10
34.5000001311554
20
-0.00000000102524
30
0.0
11
-1.49999986884458
21
-0.00000000102524
31
0.0
39
0.0
210
0.0
220
0.0
230
1.0
0
LINE
5
83
330
1F
100
AcDbEntity
67
0
8
SK4
62
256
6
ByLayer
370
-1
48
1.0
60
0
100
AcDbLine
10
34.5000001311554
20
-0.00000000102524
30
0.0
11
-33.4999998688446
21
-0.00000000102524
31
0.0
39
0.0
210
0.0
220
0.0
230
1.0
0
LINE
5
85
330
1F
100
AcDbEntity
67
0
8
1
62
256
6
ByLayer
370
-1
48
1.0
60
0
100
AcDbLine
10
33.0000001311554
20
-2.51296300102524
30
0.0
11
32.4999831311554
21
-3.00751700102525
31
0.0
39
0.0
210
0.0
220
0.0
230
1.0
0
LINE
5
86
330
1F
100
AcDbEntity
67
0
8
1
62
256
6
ByLayer
370
-1
48
1.0
60
0
100
AcDbLine
10
3.00000013115542
20
-2.86700000102525
30
0.0
11
9.33413713115542
21
-2.86700000102525
31
0.0
39
0.0
210
0.0
220
0.0
230
1.0
0
LINE
5
87
330
1F
100
AcDbEntity
67
0
8
1
62
256
6
ByLayer
370
-1
48
1.0
60
0
100
AcDbLine
10
10.1799331311554
20
2.57692899897475
30
0.0
11
3.00000013115542
21
2.57692899897475
31
0.0
39
0.0
210
0.0
220
0.0
230
1.0
0
LINE
5
88
330
1F
100
AcDbEntity
67
0
8
1
62
256
6
ByLayer
370
-1
48
1.0
60
0
100
AcDbLine
10
10.1799331311554
20
0.25007099897475
30
0.0
11
3.00000013115542
21
0.25007099897475
31
0.0
39
0.0
210
0.0
220
0.0
230
1.0
0
LINE
5
89
330
1F
100
AcDbEntity
67
0
8
1
62
256
6
ByLayer
370
-1
48
1.0
60
0
100
AcDbLine
10
3.00000013115542
20
1.39710299897476
30
0.0
11
8.20072713115542
21
1.39710299897476
31
0.0
39
0.0
210
0.0
220
0.0
230
1.0
0
LINE
5
8A
330
1F
100
AcDbEntity
67
0
8
1
62
256
6
ByLayer
370
-1
48
1.0
60
0
100
AcDbLine
10
3.00000013115542
20
-2.86700000102525
30
0.0
11
3.00000013115542
21
-2.13046500102524
31
0.0
39
0.0
210
0.0
220
0.0
230
1.0
0
LINE
5
8B
330
1F
100
AcDbEntity
67
0
8
1
62
256
6
ByLayer
370
-1
48
1.0
60
0
100
AcDbLine
10
3.00000013115542
20
-1.15863100102524
30
0.0
11
3.00000013115542
21
0.25007099897475
31
0.0
39
0.0
210
0.0
220
0.0
230
1.0
0
LINE
5
8C
330
1F
100
AcDbEntity
67
0
8
1
62
256
6
ByLayer
370
-1
48
1.0
60
0
100
AcDbLine
10
3.00000013115542
20
1.39710299897476
30
0.0
11
3.00000013115542
21
2.57692899897475
31
0.0
39
0.0
210
0.0
220
0.0
230
1.0
0
LINE
5
8D
330
1F
100
AcDbEntity
67
0
8
1
62
256
6
ByLayer
370
-1
48
1.0
60
0
100
AcDbLine
10
3.00000013115542
20
2.86699999897476
30
0.0
11
0.00000013115542
21
3.99999999897476
31
0.0
39
0.0
210
0.0
220
0.0
230
1.0
0
LINE
5
8E
330
1F
100
AcDbEntity
67
0
8
1
62
256
6
ByLayer
370
-1
48
1.0
60
0
100
AcDbLine
10
0.00000013115542
20
-4.00000000102524
30
0.0
11
3.00000013115542
21
-2.86700000102525
31
0.0
39
0.0
210
0.0
220
0.0
230
1.0
0
LINE
5
8F
330
1F
100
AcDbEntity
67
0
8
SK1
62
256
6
ByLayer
370
-1
48
1.0
60
0
100
AcDbLine
10
0.00000013115542
20
3.99999999897476
30
0.0
11
-31.5999998688446
21
3.99999999897476
31
0.0
39
0.0
210
0.0
220
0.0
230
1.0
0
LINE
5
90
330
1F
100
AcDbEntity
67
0
8
SK1
62
256
6
ByLayer
370
-1
48
1.0
60
0
100
AcDbLine
10
-31.5999998688446
20
-4.00000000102524
30
0.0
11
0.00000013115542
21
-4.00000000102524
31
0.0
39
0.0
210
0.0
220
0.0
230
1.0
0
LINE
5
91
330
1F
100
AcDbEntity
67
0
8
1
62
256
6
ByLayer
370
-1
48
1.0
60
0
100
AcDbLine
10
33.0000001311554
20
1.33626799897476
30
0.0
11
33.0000001311554
21
1.33882499897476
31
0.0
39
0.0
210
0.0
220
0.0
230
1.0
0
LINE
5
92
330
1F
100
AcDbEntity
67
0
8
1
62
256
6
ByLayer
370
-1
48
1.0
60
0
100
AcDbLine
10
16.2910901311554
20
1.48925599897476
30
0.0
11
9.6629531311554
21
1.48925599897476
31
0.0
39
0.0
210
0.0
220
0.0
230
1.0
0
LINE
5
93
330
1F
100
AcDbEntity
67
0
8
1
62
256
6
ByLayer
370
-1
48
1.0
60
0
100
AcDbLine
10
33.0000001311554
20
-0.89317900102525
30
0.0
11
33.0000001311554
21
-0.85727900102525
31
0.0
39
0.0
210
0.0
220
0.0
230
1.0
0
LINE
5
94
330
1F
100
AcDbEntity
67
0
8
1
62
256
6
ByLayer
370
-1
48
1.0
60
0
100
AcDbLine
10
33.0000001311554
20
-0.89317900102525
30
0.0
11
32.4999831311554
21
-1.12663700102524
31
0.0
39
0.0
210
0.0
220
0.0
230
1.0
0
LINE
5
95
330
1F
100
AcDbEntity
67
0
8
1
62
256
6
ByLayer
370
-1
48
1.0
60
0
100
AcDbLine
10
16.2910901311554
20
-1.06028700102524
30
0.0
11
9.6629531311554
21
-1.06028700102524
31
0.0
39
0.0
210
0.0
220
0.0
230
1.0
0
LINE
5
96
330
1F
100
AcDbEntity
67
0
8
1
62
256
6
ByLayer
370
-1
48
1.0
60
0
100
AcDbLine
10
10.1799331311554
20
-2.13046500102524
30
0.0
11
3.00000013115542
21
-2.13046500102524
31
0.0
39
0.0
210
0.0
220
0.0
230
1.0
0
LINE
5
97
330
1F
100
AcDbEntity
67
0
8
1
62
256
6
ByLayer
370
-1
48
1.0
60
0
100
AcDbLine
10
3.00000013115542
20
-1.15863100102524
30
0.0
11
8.20072713115542
21
-1.15863100102524
31
0.0
39
0.0
210
0.0
220
0.0
230
1.0
0
LINE
5
98
330
1F
100
AcDbEntity
67
0
8
1
62
256
6
ByLayer
370
-1
48
1.0
60
0
100
AcDbLine
10
17.0000001311554
20
-1.11931200102525
30
0.0
11
17.0000001311554
21
-0.93207600102525
31
0.0
39
0.0
210
0.0
220
0.0
230
1.0
0
LINE
5
99
330
1F
100
AcDbEntity
67
0
8
1
62
256
6
ByLayer
370
-1
48
1.0
60
0
100
AcDbLine
10
16.2910901311554
20
-1.06028700102524
30
0.0
11
16.2910901311554
21
-0.33709100102524
31
0.0
39
0.0
210
0.0
220
0.0
230
1.0
0
ELLIPSE
5
9A
330
1F
100
AcDbEntity
67
0
8
1
62
256
6
ByLayer
370
-1
48
1.0
60
0
100
AcDbEllipse
10
35.6077231311554
20
0.00310699897476
30
0.0
11
-3.15298431754893
21
-2.99518315846251
31
0.0
210
0.0
220
0.0
230
1.0
40
0.096531
41
0.05119518890456
42
0.1010656440992
0
ELLIPSE
5
9B
330
1F
100
AcDbEntity
67
0
8
1
62
256
6
ByLayer
370
-1
48
1.0
60
0
100
AcDbEllipse
10
35.6077221311554
20
-0.00212000102525
30
0.0
11
-2.92770654493441
21
2.71558029211258
31
0.0
210
0.0
220
0.0
230
1.0
40
0.443951
41
0.5332636759975
42
0.58313413385066
0
ELLIPSE
5
9C
330
1F
100
AcDbEntity
67
0
8
1
62
256
6
ByLayer
370
-1
48
1.0
60
0
100
AcDbEllipse
10
35.6077221311554
20
0.00060199897476
30
0.0
11
-2.67827282831443
21
-2.06054764793502
31
0.0
210
0.0
220
0.0
230
1.0
40
0.819547
41
-0.41992246365526
42
-0.37005200643023
0
SPLINE
5
9D
330
1F
100
AcDbEntity
67
0
8
1
62
256
6
ByLayer
370
-1
48
1.0
60
0
100
AcDbSpline
70
4
71
3
42
0.000000001
43
0.0000000001
44
0.0000000001
40
0.0
40
0.0
40
0.0
40
0.0
40
0.35546872014541
40
0.35546872014541
40
1.0
40
1.0
40
1.0
40
1.0
41
1.0
10
32.4999655377612
20
-3.00749996553805
30
0.0
41
1.0
10
30.6633812337061
20
-3.00566338123375
30
0.0
41
1.0
10
28.8267969296698
20
-3.00382677834514
30
0.0
41
1.0
10
23.6601417503726
20
-2.99866001831134
30
0.0
41
1.0
10
20.3300708751549
20
-2.99532981841514
30
0.0
41
1.0
10
17.0
20
-2.99199955645574
30
0.0
0
SPLINE
5
9E
330
1F
100
AcDbEntity
67
0
8
1
62
256
6
ByLayer
370
-1
48
1.0
60
0
100
AcDbSpline
70
4
71
3
42
0.000000001
43
0.0000000001
44
0.0000000001
40
0.0
40
0.0
40
0.0
40
0.0
40
0.125
40
0.125
40
0.25
40
0.25
40
0.375
40
0.375
40
0.5
40
0.5
40
0.75
40
0.75
40
0.875
40
0.875
40
1.0
40
1.0
40
1.0
40
1.0
41
1.0
10
10.1799332806487
20
0.25007141840156
30
0.0
41
1.0
10
10.4317683255556
20
0.20363133656956
30
0.0
41
1.0
10
10.6841453776257
20
0.16031303185885
30
0.0
41
1.0
10
11.1899057415425
20
0.07951716386626
30
0.0
41
1.0
10
11.4432892146869
20
0.04204041996655
30
0.0
41
1.0
10
11.9510039247005
20
-0.02737391804564
30
0.0
41
1.0
10
12.2054094580507
20
-0.05931801174374
30
0.0
41
1.0
10
12.7144674854122
20
-0.11781991651795
30
0.0
41
1.0
10
12.9691815827966
20
-0.14438712418395
30
0.0
41
1.0
10
13.7338603882646
20
-0.21634983273584
30
0.0
41
1.0
10
14.2443612800991
20
-0.25401398186735
30
0.0
41
1.0
10
15.0111276487198
20
-0.29598482632295
30
0.0
41
1.0
10
15.2668853693241
20
-0.30755688575245
30
0.0
41
1.0
10
15.778733396856
20
-0.32595158967864
30
0.0
41
1.0
10
16.0348246552641
20
-0.33276064355715
30
0.0
41
1.0
10
16.2910897725476
20
-0.33709058531144
30
0.0
0
SPLINE
5
9F
330
1F
100
AcDbEntity
67
0
8
1
62
256
6
ByLayer
370
-1
48
1.0
60
0
100
AcDbSpline
70
4
71
3
42
0.000000001
43
0.0000000001
44
0.0000000001
40
0.0
40
0.0
40
0.0
40
0.0
40
1.0
40
1.0
40
1.0
40
1.0
41
1.0
10
16.2910897725476
20
-0.33709058531144
30
0.0
41
1.0
10
16.3607075610237
20
-0.34494591700565
30
0.0
41
1.0
10
16.4303445514012
20
-0.35260965613195
30
0.0
41
1.0
10
16.5
20
-0.36008208564074
30
0.0
0
SPLINE
5
A0
330
1F
100
AcDbEntity
67
0
8
1
62
256
6
ByLayer
370
-1
48
1.0
60
0
100
AcDbSpline
70
4
71
3
42
0.000000001
43
0.0000000001
44
0.0000000001
40
0.0
40
0.0
40
0.0
40
0.0
40
1.0
40
1.0
40
1.0
40
1.0
41
1.0
10
17.0
20
-2.99199955645574
30
0.0
41
1.0
10
16.7636948370449
20
-2.95033018963524
30
0.0
41
1.0
10
16.5273913501042
20
-2.90865142064885
30
0.0
41
1.0
10
16.2910897725476
20
-2.86696194835105
30
0.0
0
SPLINE
5
A1
330
1F
100
AcDbEntity
67
0
8
1
62
256
6
ByLayer
370
-1
48
1.0
60
0
100
AcDbSpline
70
4
71
3
42
0.000000001
43
0.0000000001
44
0.0000000001
40
0.0
40
0.0
40
0.0
40
0.0
40
0.25
40
0.25
40
0.49999999999999
40
0.49999999999999
40
0.62499999999999
40
0.62499999999999
40
0.74999999999999
40
0.74999999999999
40
1.0
40
1.0
40
1.0
40
1.0
41
1.0
10
16.9999999999996
20
-2.98525137018534
30
0.0
41
1.0
10
16.9538250396098
20
-2.97524061791884
30
0.0
41
1.0
10
16.9083486384437
20
-2.96489821403254
30
0.0
41
1.0
10
16.8191777525164
20
-2.94336741433514
30
0.0
41
1.0
10
16.7754792161033
20
-2.93218094210745
30
0.0
41
1.0
10
16.7117041360331
20
-2.91455960581435
30
0.0
41
1.0
10
16.6907234857847
20
-2.90853798606034
30
0.0
41
1.0
10
16.6497192332411
20
-2.89624166006594
30
0.0
41
1.0
10
16.6296673888822
20
-2.88995975225065
30
0.0
41
1.0
10
16.571079561127
20
-2.87064838171345
30
0.0
41
1.0
10
16.5340799144891
20
-2.85716258913594
30
0.0
41
1.0
10
16.5
20
-2.84280956420045
30
0.0
0
SPLINE
5
A2
330
1F
100
AcDbEntity
67
0
8
1
62
256
6
ByLayer
370
-1
48
1.0
60
0
100
AcDbSpline
70
4
71
3
42
0.000000001
43
0.0000000001
44
0.0000000001
40
0.0
40
0.0
40
0.0
40
0.0
40
1.0
40
1.0
40
1.0
40
1.0
41
1.0
10
9.6629536118927
20
-2.86696194835105
30
0.0
41
1.0
10
9.5531838443311
20
-2.86696194835105
30
0.0
41
1.0
10
9.44347793924101
20
-2.86697081939555
30
0.0
41
1.0
10
9.33384317720771
20
-2.86698139252304
30
0.0
0
SPLINE
5
A3
330
1F
100
AcDbEntity
67
0
8
1
62
256
6
ByLayer
370
-1
48
1.0
60
0
100
AcDbSpline
70
4
71
3
42
0.000000001
43
0.0000000001
44
0.0000000001
40
0.0
40
0.0
40
0.0
40
0.0
40
0.125
40
0.125
40
0.25
40
0.25
40
0.375
40
0.375
40
0.5
40
0.5
40
0.75
40
0.75
40
0.875
40
0.875
40
1.0
40
1.0
40
1.0
40
1.0
41
1.0
10
10.1799332806487
20
-2.13046462318735
30
0.0
41
1.0
10
10.4317683255555
20
-2.16166036623925
30
0.0
41
1.0
10
10.6841453776256
20
-2.18985491160394
30
0.0
41
1.0
10
11.1899057415424
20
-2.24118032487505
30
0.0
41
1.0
10
11.4432892146868
20
-2.26430906227084
30
0.0
41
1.0
10
11.9510039247005
20
-2.30622545104684
30
0.0
41
1.0
10
12.2054094580507
20
-2.32501565607895
30
0.0
41
1.0
10
12.7144674854122
20
-2.35877893924165
30
0.0
41
1.0
10
12.9691815827965
20
-2.37375735099845
30
0.0
41
1.0
10
13.7338603882645
20
-2.41368450979515
30
0.0
41
1.0
10
14.2443612800991
20
-2.43366345101674
30
0.0
41
1.0
10
15.0111276487198
20
-2.45560914406825
30
0.0
41
1.0
10
15.2668853693241
20
-2.46157950189554
30
0.0
41
1.0
10
15.7787333968559
20
-2.47101664758415
30
0.0
41
1.0
10
16.0348246552641
20
-2.47447623249505
30
0.0
41
1.0
10
16.2910897725476
20
-2.47667263332315
30
0.0
0
SPLINE
5
A4
330
1F
100
AcDbEntity
67
0
8
1
62
256
6
ByLayer
370
-1
48
1.0
60
0
100
AcDbSpline
70
4
71
3
42
0.000000001
43
0.0000000001
44
0.0000000001
40
0.0
40
0.0
40
0.0
40
0.0
40
1.0
40
1.0
40
1.0
40
1.0
41
1.0
10
16.2910897725476
20
-2.47667263332315
30
0.0
41
1.0
10
16.3607075610237
20
-2.49052943901765
30
0.0
41
1.0
10
16.4303445514012
20
-2.50427426937135
30
0.0
41
1.0
10
16.5
20
-2.51791076402054
30
0.0
0
SPLINE
5
A5
330
1F
100
AcDbEntity
67
0
8
1
62
256
6
ByLayer
370
-1
48
1.0
60
0
100
AcDbSpline
70
4
71
3
42
0.000000001
43
0.0000000001
44
0.0000000001
40
0.0
40
0.0
40
0.0
40
0.0
40
0.125
40
0.125
40
0.25
40
0.25
40
0.375
40
0.375
40
0.5
40
0.5
40
0.75
40
0.75
40
0.875
40
0.875
40
1.0
40
1.0
40
1.0
40
1.0
41
1.0
10
10.1799332806487
20
2.57692873161545
30
0.0
41
1.0
10
10.4317683255555
20
2.55649572681045
30
0.0
41
1.0
10
10.6841453776256
20
2.53646582557406
30
0.0
41
1.0
10
11.1899057415424
20
2.49775209699766
30
0.0
41
1.0
10
11.4432892146868
20
2.47906693427245
30
0.0
41
1.0
10
11.9510039247005
20
2.44346809688005
30
0.0
41
1.0
10
12.2054094580507
20
2.42654961726245
30
0.0
41
1.0
10
12.7144674854122
20
2.39486903336845
30
0.0
41
1.0
10
12.9691815827966
20
2.38010174455395
30
0.0
41
1.0
10
13.7338603882645
20
2.33940933085475
30
0.0
41
1.0
10
14.2443612800991
20
2.31712595423406
30
0.0
41
1.0
10
15.0111276487198
20
2.29195357132136
30
0.0
41
1.0
10
15.2668853693241
20
2.28492679741325
30
0.0
41
1.0
10
15.7787333968559
20
2.27370007423245
30
0.0
41
1.0
10
16.0348246552641
20
2.26950817227035
30
0.0
41
1.0
10
16.2910897725477
20
2.26683865771726
30
0.0
0
SPLINE
5
A6
330
1F
100
AcDbEntity
67
0
8
1
62
256
6
ByLayer
370
-1
48
1.0
60
0
100
AcDbSpline
70
4
71
3
42
0.000000001
43
0.0000000001
44
0.0000000001
40
0.0
40
0.0
40
0.0
40
0.0
40
0.25
40
0.25
40
0.5
40
0.5
40
0.62499999999999
40
0.62499999999999
40
0.74999999999999
40
0.74999999999999
40
1.0
40
1.0
40
1.0
40
1.0
41
1.0
10
16.9999999999995
20
1.70967490967635
30
0.0
41
1.0
10
16.9538866930429
20
1.72807019676026
30
0.0
41
1.0
10
16.9084726991501
20
1.74707310188326
30
0.0
41
1.0
10
16.8194272018384
20
1.78662767965895
30
0.0
41
1.0
10
16.7757916879035
20
1.80717586766076
30
0.0
41
1.0
10
16.7121099040057
20
1.83953735651596
30
0.0
41
1.0
10
16.691151206475
20
1.85059907147786
30
0.0
41
1.0
10
16.6501260584154
20
1.87322250403946
30
0.0
41
1.0
10
16.6300515829991
20
1.88478667963166
30
0.0
41
1.0
10
16.5713592643884
20
1.92036152460875
30
0.0
41
1.0
10
16.5342397705921
20
1.94523563488515
30
0.0
41
1.0
10
16.4999999999991
20
1.97176921842815
30
0.0
0
SPLINE
5
A7
330
1F
100
AcDbEntity
67
0
8
1
62
256
6
ByLayer
370
-1
48
1.0
60
0
100
AcDbSpline
70
4
71
3
42
0.000000001
43
0.0000000001
44
0.0000000001
40
0.0
40
0.0
40
0.0
40
0.0
40
1.0
40
1.0
40
1.0
40
1.0
41
1.0
10
16.2910897725477
20
2.26683865771726
30
0.0
41
1.0
10
16.3607075610237
20
2.27259129951275
30
0.0
41
1.0
10
16.4303445514012
20
2.27844619062455
30
0.0
41
1.0
10
16.5
20
2.28440690894315
30
0.0
0
SPLINE
5
A8
330
1F
100
AcDbEntity
67
0
8
1
62
256
6
ByLayer
370
-1
48
1.0
60
0
100
AcDbSpline
70
4
71
3
42
0.000000001
43
0.0000000001
44
0.0000000001
40
0.0
40
0.0
40
0.0
40
0.0
40
1.0
40
1.0
40
1.0
40
1.0
41
1.0
10
32.4736649682572
20
1.67568056432106
30
0.0
41
1.0
10
27.3157748982079
20
1.68669504214675
30
0.0
41
1.0
10
22.1578864370613
20
1.69800591862956
30
0.0
41
1.0
10
17.0
20
1.70967490967675
30
0.0
0
SPLINE
5
A9
330
1F
100
AcDbEntity
67
0
8
1
62
256
6
ByLayer
370
-1
48
1.0
60
0
100
AcDbSpline
70
4
71
3
42
0.000000001
43
0.0000000001
44
0.0000000001
40
0.0
40
0.0
40
0.0
40
0.0
40
0.35546872014541
40
0.35546872014541
40
1.0
40
1.0
40
1.0
40
1.0
41
1.0
10
32.4999655377612
20
1.54897699564715
30
0.0
41
1.0
10
30.6633812337062
20
1.54819654619716
30
0.0
41
1.0
10
28.8267969296698
20
1.54741608884986
30
0.0
41
1.0
10
23.6601417503726
20
1.54522049400735
30
0.0
41
1.0
10
20.3300708751549
20
1.54380533834515
30
0.0
41
1.0
10
17.0
20
1.54239015630955
30
0.0
0
SPLINE
5
AA
330
1F
100
AcDbEntity
67
0
8
1
62
256
6
ByLayer
370
-1
48
1.0
60
0
100
AcDbSpline
70
4
71
3
42
0.000000001
43
0.0000000001
44
0.0000000001
40
0.0
40
0.0
40
0.0
40
0.0
40
1.0
40
1.0
40
1.0
40
1.0
41
1.0
10
17.0
20
1.54239015630955
30
0.0
41
1.0
10
16.7636948370449
20
1.52468291883636
30
0.0
41
1.0
10
16.5273913501042
20
1.50697168594895
30
0.0
41
1.0
10
16.2910897725477
20
1.48925590473036
30
0.0
0
SPLINE
5
AB
330
1F
100
AcDbEntity
67
0
8
1
62
256
6
ByLayer
370
-1
48
1.0
60
0
100
AcDbSpline
70
4
71
3
42
0.000000001
43
0.0000000001
44
0.0000000001
40
0.0
40
0.0
40
0.0
40
0.0
40
0.12500000000001
40
0.12500000000001
40
0.25000000000001
40
0.25000000000001
40
0.37500000000002
40
0.37500000000002
40
0.43750000000002
40
0.43750000000002
40
0.50000000000003
40
0.50000000000003
40
0.56250000000003
40
0.56250000000003
40
0.59375000000003
40
0.59375000000003
40
0.62500000000003
40
0.62500000000003
40
0.64062500000003
40
0.64062500000003
40
0.65625000000003
40
0.65625000000003
40
0.67187500000003
40
0.67187500000003
40
0.68750000000003
40
0.68750000000003
40
0.69531250000003
40
0.69531250000003
40
0.70312500000003
40
0.70312500000003
40
0.71093750000003
40
0.71093750000003
40
0.71875000000003
40
0.71875000000003
40
0.72656250000003
40
0.72656250000003
40
0.73437500000003
40
0.73437500000003
40
0.75000000000003
40
0.75000000000003
40
0.76562500000002
40
0.76562500000002
40
0.78125000000002
40
0.78125000000002
40
0.81250000000002
40
0.81250000000002
40
0.84375000000002
40
0.84375000000002
40
0.87500000000001
40
0.87500000000001
40
0.93750000000001
40
0.93750000000001
40
1.0
40
1.0
40
1.0
40
1.0
41
1.0
10
10.1799332806485
20
-2.13046462319325
30
0.0
41
1.0
10
10.266988099569
20
-2.11989781929654
30
0.0
41
1.0
10
10.3539633459643
20
-2.10844176343704
30
0.0
41
1.0
10
10.5277006986199
20
-2.08336758946875
30
0.0
41
1.0
10
10.6144640288669
20
-2.06975819282684
30
0.0
41
1.0
10
10.7876787253339
20
-2.03967435241755
30
0.0
41
1.0
10
10.8741340658522
20
-2.02322823282564
30
0.0
41
1.0
10
11.0034247279121
20
-1.99528261580075
30
0.0
41
1.0
10
11.0464552159165
20
-1.98541415542034
30
0.0
41
1.0
10
11.1323267942465
20
-1.96416752760885
30
0.0
41
1.0
10
11.1750898142524
20
-1.95281720343114
30
0.0
41
1.0
10
11.2599648996974
20
-1.92798795766535
30
0.0
41
1.0
10
11.3021440507033
20
-1.91452128319905
30
0.0
41
1.0
10
11.3643810524993
20
-1.89166561845235
30
0.0
41
1.0
10
11.3849549172216
20
-1.88359753859945
30
0.0
41
1.0
10
11.4255971407662
20
-1.86614586735274
30
0.0
41
1.0
10
11.4456014844304
20
-1.85680397836275
30
0.0
41
1.0
10
11.4748150361036
20
-1.84129293761625
30
0.0
41
1.0
10
11.4844195332369
20
-1.83586920166884
30
0.0
41
1.0
10
11.5032615119072
20
-1.82432548707054
30
0.0
41
1.0
10
11.5124978835744
20
-1.81820649780344
30
0.0
41
1.0
10
11.5302244778654
20
-1.80510828995294
30
0.0
41
1.0
10
11.5387429067661
20
-1.79812427791755
30
0.0
41
1.0
10
11.5546762189119
20
-1.78276602199975
30
0.0
41
1.0
10
11.562022746569
20
-1.77446281078105
30
0.0
41
1.0
10
11.5712289818026
20
-1.76069862906914
30
0.0
41
1.0
10
11.574015666776
20
-1.75583652249935
30
0.0
41
1.0
10
11.5786351562531
20
-1.74578400989874
30
0.0
41
1.0
10
11.5804835557587
20
-1.74058295948905
30
0.0
41
1.0
10
11.5830350087418
20
-1.72974701115415
30
0.0
41
1.0
10
11.5837046037444
20
-1.72416155355174
30
0.0
41
1.0
10
11.5837169027879
20
-1.71311856188605
30
0.0
41
1.0
10
11.5830684653635
20
-1.70755742970934
30
0.0
41
1.0
10
11.580531551791
20
-1.69659701672474
30
0.0
41
1.0
10
11.5786845873194
20
-1.69132028430694
30
0.0
41
1.0
10
11.5740602074699
20
-1.68109405569405
30
0.0
41
1.0
10
11.5712761059121
20
-1.67615083154465
30
0.0
41
1.0
10
11.5620893644041
20
-1.66213171886534
30
0.0
41
1.0
10
11.5547809037984
20
-1.65364857847355
30
0.0
41
1.0
10
11.5388285973013
20
-1.63779812311844
30
0.0
41
1.0
10
11.5303498866416
20
-1.63060350685484
30
0.0
41
1.0
10
11.5127836680951
20
-1.61709947048455
30
0.0
41
1.0
10
11.5036894817535
20
-1.61079975766725
30
0.0
41
1.0
10
11.4757645667919
20
-1.59283477792205
30
0.0
41
1.0
10
11.4562311334576
20
-1.58205011634864
30
0.0
41
1.0
10
11.4165870358095
20
-1.56208087597174
30
0.0
41
1.0
10
11.3964833350878
20
-1.55291448439354
30
0.0
41
1.0
10
11.3559172384974
20
-1.53562630832614
30
0.0
41
1.0
10
11.3354518734042
20
-1.52751311492715
30
0.0
41
1.0
10
11.2736683295171
20
-1.50430491821625
30
0.0
41
1.0
10
11.2319700809166
20
-1.49031995701874
30
0.0
41
1.0
10
11.1479680161819
20
-1.46413057869874
30
0.0
41
1.0
10
11.1056567584613
20
-1.45194768880245
30
0.0
41
1.0
10
11.0631329934411
20
-1.44039415207895
30
0.0
0
SPLINE
5
AC
330
1F
100
AcDbEntity
67
0
8
1
62
256
6
ByLayer
370
-1
48
1.0
60
0
100
AcDbSpline
70
4
71
3
42
0.000000001
43
0.0000000001
44
0.0000000001
40
0.0
40
0.0
40
0.0
40
0.0
40
0.13970382788489
40
0.13970382788489
40
0.27940765576978
40
0.27940765576978
40
0.41911148365467
40
0.41911148365467
40
0.55881531153956
40
0.55881531153956
40
0.628667225482
40
0.628667225482
40
0.69851913942444
40
0.69851913942444
40
0.83822296730933
40
0.83822296730933
40
0.97792679519421
40
0.97792679519421
40
1.0
40
1.0
40
1.0
40
1.0
41
1.0
10
11.0631329934411
20
-1.44039415207895
30
0.0
41
1.0
10
11.000697836013
20
-1.42343076974804
30
0.0
41
1.0
10
10.9390405079568
20
-1.40520526656535
30
0.0
41
1.0
10
10.8173905164621
20
-1.36661212444194
30
0.0
41
1.0
10
10.7574008344032
20
-1.34624102768744
30
0.0
41
1.0
10
10.6390310871467
20
-1.30420691615444
30
0.0
41
1.0
10
10.5806535773496
20
-1.28254443452464
30
0.0
41
1.0
10
10.4651968760971
20
-1.23931017046205
30
0.0
41
1.0
10
10.4081183550281
20
-1.21774563168634
30
0.0
41
1.0
10
10.3230077020617
20
-1.18682325909545
30
0.0
41
1.0
10
10.2947194903179
20
-1.17675584148314
30
0.0
41
1.0
10
10.2382018996013
20
-1.15733895319134
30
0.0
41
1.0
10
10.2099188003106
20
-1.14797366936385
30
0.0
41
1.0
10
10.1254047647516
20
-1.12142765748355
30
0.0
41
1.0
10
10.0696173779166
20
-1.10585524063045
30
0.0
41
1.0
10
9.9580639847895
20
-1.07992687525164
30
0.0
41
1.0
10
9.90228746650641
20
-1.06957176710415
30
0.0
41
1.0
10
9.8371086608899
20
-1.06058769719814
30
0.0
41
1.0
10
9.82820263839341
20
-1.05942640777324
30
0.0
41
1.0
10
9.8192824010749
20
-1.05832798980275
30
0.0
0
SPLINE
5
AD
330
1F
100
AcDbEntity
67
0
8
1
62
256
6
ByLayer
370
-1
48
1.0
60
0
100
AcDbSpline
70
4
71
3
42
0.000000001
43
0.0000000001
44
0.0000000001
40
0.0
40
0.0
40
0.0
40
0.0
40
0.35546872014541
40
0.35546872014541
40
1.0
40
1.0
40
1.0
40
1.0
41
1.0
10
32.4999655377612
20
3.00749996553745
30
0.0
41
1.0
10
30.6633812337062
20
3.00566338123315
30
0.0
41
1.0
10
28.8267969296698
20
3.00382677834466
30
0.0
41
1.0
10
23.6601417503726
20
2.99866001831086
30
0.0
41
1.0
10
20.3300708751549
20
2.99532981841476
30
0.0
41
1.0
10
17.0
20
2.99199955645535
30
0.0
0
SPLINE
5
AE
330
1F
100
AcDbEntity
67
0
8
1
62
256
6
ByLayer
370
-1
48
1.0
60
0
100
AcDbSpline
70
4
71
3
42
0.000000001
43
0.0000000001
44
0.0000000001
40
0.0
40
0.0
40
0.0
40
0.0
40
0.25
40
0.25
40
0.5
40
0.5
40
0.625
40
0.625
40
0.75
40
0.75
40
1.0
40
1.0
40
1.0
40
1.0
41
1.0
10
9.6629536118927
20
2.86696194835065
30
0.0
41
1.0
10
9.54049396323941
20
2.86696194835065
30
0.0
41
1.0
10
9.41811379612201
20
2.86697298901706
30
0.0
41
1.0
10
9.17353264244201
20
2.86699724416826
30
0.0
41
1.0
10
9.0513313522404
20
2.86701153177886
30
0.0
41
1.0
10
8.86819012740742
20
2.86697571689275
30
0.0
41
1.0
10
8.80716997845181
20
2.86695369319436
30
0.0
41
1.0
10
8.68519053970232
20
2.86686982097706
30
0.0
41
1.0
10
8.6242080428797
20
2.86680805231116
30
0.0
41
1.0
10
8.44181652406411
20
2.86651905709836
30
0.0
41
1.0
10
8.32082280133451
20
2.86620254272606
30
0.0
41
1.0
10
8.2007274868935
20
2.86552751382845
30
0.0
0
SPLINE
5
AF
330
1F
100
AcDbEntity
67
0
8
1
62
256
6
ByLayer
370
-1
48
1.0
60
0
100
AcDbSpline
70
4
71
3
42
0.000000001
43
0.0000000001
44
0.0000000001
40
0.0
40
0.0
40
0.0
40
0.0
40
0.12500000000001
40
0.12500000000001
40
0.25000000000001
40
0.25000000000001
40
0.37500000000001
40
0.37500000000001
40
0.43750000000002
40
0.43750000000002
40
0.50000000000002
40
0.50000000000002
40
0.56250000000003
40
0.56250000000003
40
0.59375000000003
40
0.59375000000003
40
0.62500000000003
40
0.62500000000003
40
0.64062500000003
40
0.64062500000003
40
0.65625000000003
40
0.65625000000003
40
0.67187500000003
40
0.67187500000003
40
0.68750000000003
40
0.68750000000003
40
0.69531250000003
40
0.69531250000003
40
0.70312500000003
40
0.70312500000003
40
0.71093750000003
40
0.71093750000003
40
0.71875000000003
40
0.71875000000003
40
0.72656250000003
40
0.72656250000003
40
0.73437500000003
40
0.73437500000003
40
0.75000000000002
40
0.75000000000002
40
0.76562500000002
40
0.76562500000002
40
0.78125000000002
40
0.78125000000002
40
0.81250000000002
40
0.81250000000002
40
0.84375000000002
40
0.84375000000002
40
0.87500000000001
40
0.87500000000001
40
0.93750000000001
40
0.93750000000001
40
1.0
40
1.0
40
1.0
40
1.0
41
1.0
10
10.1799332806495
20
0.25007141839825
30
0.0
41
1.0
10
10.2669880995699
20
0.24463469118116
30
0.0
41
1.0
10
10.3539633459651
20
0.23986320160735
30
0.0
41
1.0
10
10.5277006986207
20
0.23184659437115
30
0.0
41
1.0
10
10.6144640288677
20
0.22859700490446
30
0.0
41
1.0
10
10.7876787253346
20
0.22398387624016
30
0.0
41
1.0
10
10.8741340658521
20
0.22260581068426
30
0.0
41
1.0
10
11.0034247279119
20
0.22253088694275
30
0.0
41
1.0
10
11.0464552159171
20
0.22284162383176
30
0.0
41
1.0
10
11.1323267942471
20
0.22434119182306
30
0.0
41
1.0
10
11.1750898142529
20
0.22552449403875
30
0.0
41
1.0
10
11.2599648996978
20
0.22912413704125
30
0.0
41
1.0
10
11.3021440507037
20
0.23152760323836
30
0.0
41
1.0
10
11.3643810524996
20
0.23663834447966
30
0.0
41
1.0
10
11.384954917222
20
0.23859623936735
30
0.0
41
1.0
10
11.4255971407665
20
0.24324376570445
30
0.0
41
1.0
10
11.4456014844308
20
0.24591901855085
30
0.0
41
1.0
10
11.4748150361039
20
0.25077572281586
30
0.0
41
1.0
10
11.4844195332372
20
0.25253721339296
30
0.0
41
1.0
10
11.5032615119075
20
0.25644948419885
30
0.0
41
1.0
10
11.5124978835747
20
0.25859990276865
30
0.0
41
1.0
10
11.5302244778657
20
0.26340844698805
30
0.0
41
1.0
10
11.5387429067664
20
0.26606620265335
30
0.0
41
1.0
10
11.5546762189121
20
0.27218793786015
30
0.0
41
1.0
10
11.5620227465692
20
0.27562312396256
30
0.0
41
1.0
10
11.5712289818028
20
0.28160812155565
30
0.0
41
1.0
10
11.5740156667761
20
0.28376775167575
30
0.0
41
1.0
10
11.5786351562532
20
0.28834384724165
30
0.0
41
1.0
10
11.5804835557588
20
0.29076411261326
30
0.0
41
1.0
10
11.5830350087419
20
0.29593236443705
30
0.0
41
1.0
10
11.5837046037445
20
0.29865887407405
30
0.0
41
1.0
10
11.5837169027879
20
0.30417619560626
30
0.0
41
1.0
10
11.5830684653635
20
0.30701792096696
30
0.0
41
1.0
10
11.580531551791
20
0.31274035767416
30
0.0
41
1.0
10
11.5786845873194
20
0.31555582110426
30
0.0
41
1.0
10
11.5740602074697
20
0.32111340267596
30
0.0
41
1.0
10
11.5712761059119
20
0.32385304046996
30
0.0
41
1.0
10
11.562089364404
20
0.33174831212335
30
0.0
41
1.0
10
11.5547809037983
20
0.33669607577505
30
0.0
41
1.0
10
11.5388285973011
20
0.34616680028336
30
0.0
41
1.0
10
11.5303498866415
20
0.35058739963046
30
0.0
41
1.0
10
11.512783668095
20
0.35904942935855
30
0.0
41
1.0
10
11.5036894817534
20
0.36308664896926
30
0.0
41
1.0
10
11.4757645667918
20
0.37480089868356
30
0.0
41
1.0
10
11.4562311334574
20
0.38211333715685
30
0.0
41
1.0
10
11.4165870358094
20
0.39601592703995
30
0.0
41
1.0
10
11.3964833350877
20
0.40259613557436
30
0.0
41
1.0
10
11.3559172384972
20
0.41529140136746
30
0.0
41
1.0
10
11.335451873404
20
0.42140244532276
30
0.0
41
1.0
10
11.273668329517
20
0.43924197585545
30
0.0
41
1.0
10
11.2319700809165
20
0.45048685864646
30
0.0
41
1.0
10
11.1479680161819
20
0.47224071610876
30
0.0
41
1.0
10
11.1056567584613
20
0.48273962055916
30
0.0
41
1.0
10
11.0631329934411
20
0.49299342067846
30
0.0
0
SPLINE
5
B0
330
1F
100
AcDbEntity
67
0
8
1
62
256
6
ByLayer
370
-1
48
1.0
60
0
100
AcDbSpline
70
4
71
3
42
0.000000001
43
0.0000000001
44
0.0000000001
40
0.0
40
0.0
40
0.0
40
0.0
40
1.0
40
1.0
40
1.0
40
1.0
41
1.0
10
32.4736649682572
20
-3.00372646019684
30
0.0
41
1.0
10
27.3157748982079
20
-2.99774036259355
30
0.0
41
1.0
10
22.1578864370613
20
-2.99159317961515
30
0.0
41
1.0
10
17.0
20
-2.98525137018524
30
0.0
0
SPLINE
5
B1
330
1F
100
AcDbEntity
67
0
8
NOCUT
62
256
6
ByLayer
370
-1
48
1.0
60
0
100
AcDbSpline
70
2055
71
3
42
0.000000001
43
0.0000000001
44
0.0000000001
40
0.0
40
0.0
40
0.0
40
0.0
40
0.0726041682
40
0.0726041682
40
0.0726041682
40
0.09007203
40
0.09007203
40
0.09007203
40
0.4125949302
40
0.4125949302
40
0.4125949302
40
0.490411921
40
0.490411921
40
0.490411921
40
0.587476317
40
0.587476317
40
0.587476317
40
1.0
40
1.0
40
1.0
40
1.0
41
1.0
10
17.0
20
-0.00000000000024
30
0.0
41
1.0
10
17.0
20
0.99733333333316
30
0.0
41
1.0
10
17.0
20
1.99466666666646
30
0.0
41
1.0
10
17.0
20
2.99199999999975
30
0.0
41
1.0
10
16.7636965908492
20
2.95033333333315
30
0.0
41
1.0
10
16.5273931816984
20
2.90866666666645
30
0.0
41
1.0
10
16.2910897725476
20
2.86699999999975
30
0.0
41
1.0
10
11.8607265150317
20
2.86699999999986
30
0.0
41
1.0
10
7.43036325751592
20
2.86699999999986
30
0.0
41
1.0
10
3.0
20
2.86699999999986
30
0.0
41
1.0
10
2.0
20
3.24466666666646
30
0.0
41
1.0
10
1.0
20
3.62233333333316
30
0.0
41
1.0
10
0.0
20
3.99999999999986
30
0.0
41
1.0
10
0.0
20
2.66666666666656
30
0.0
41
1.0
10
0.0
20
1.33333333333316
30
0.0
41
1.0
10
0.0
20
-0.00000000000014
30
0.0
41
1.0
10
5.6666666666666
20
-0.00000000000014
30
0.0
41
1.0
10
11.3333333333333
20
-0.00000000000014
30
0.0
41
1.0
10
17.0
20
-0.00000000000024
30
0.0
0
SPLINE
5
B3
330
1F
100
AcDbEntity
67
0
8
CUT
62
256
6
ByLayer
370
-1
48
1.0
60
0
100
AcDbSpline
70
2055
71
3
42
0.000000001
43
0.0000000001
44
0.0000000001
40
0.0
40
0.0
40
0.0
40
0.0
40
0.0793494732
40
0.0793494732
40
0.0793494732
40
0.4904181396
40
0.4904181396
40
0.4904181396
40
0.5091709974
40
0.5091709974
40
0.5091709974
40
0.5756712661
40
0.5756712661
40
0.5756712661
40
1.0
40
1.0
40
1.0
40
1.0
41
1.0
10
17.0
20
-0.00000000000024
30
0.0
41
1.0
10
16.9999999999999
20
0.99733333333316
30
0.0
41
1.0
10
16.9999999999998
20
1.99466666666646
30
0.0
41
1.0
10
16.9999999999998
20
2.99199999999975
30
0.0
41
1.0
10
22.1666666666663
20
2.99716666666646
30
0.0
41
1.0
10
27.3333333333329
20
3.00233333333315
30
0.0
41
1.0
10
32.4999999999994
20
3.00749999999985
30
0.0
41
1.0
10
32.6666666666663
20
2.84083333333315
30
0.0
41
1.0
10
32.8333333333331
20
2.67416666666645
30
0.0
41
1.0
10
33.0
20
2.50749999999975
30
0.0
41
1.0
10
33.0
20
1.67166666666635
30
0.0
41
1.0
10
33.0
20
0.83583333333306
30
0.0
41
1.0
10
33.0
20
-0.00000000000024
30
0.0
41
1.0
10
27.6666666666666
20
-0.00000000000024
30
0.0
41
1.0
10
22.3333333333333
20
-0.00000000000024
30
0.0
41
1.0
10
17.0
20
-0.00000000000024
30
0.0
0
SPLINE
5
B5
330
1F
100
AcDbEntity
67
0
8
1
62
256
6
ByLayer
370
-1
48
1.0
60
0
100
AcDbSpline
70
4
71
3
42
0.000000001
43
0.0000000001
44
0.0000000001
40
0.0
40
0.0
40
0.0
40
0.0
40
0.15215953635871
40
0.54384353894568
40
0.73968554023916
40
0.93552754153265
40
0.98448804185602
40
1.0
40
1.0
40
1.0
40
1.0
41
1.0
10
11.0631329934411
20
-1.44039415207895
30
0.0
41
1.0
10
11.3617080320136
20
-1.41786577006694
30
0.0
41
1.0
10
12.4309240950458
20
-1.34341821336234
30
0.0
41
1.0
10
13.8934752491775
20
-1.27179434721815
30
0.0
41
1.0
10
15.4481304538526
20
-1.23008365666864
30
0.0
41
1.0
10
16.3234051150826
20
-1.21932657270095
30
0.0
41
1.0
10
16.8409076500162
20
-1.21798533794404
30
0.0
41
1.0
10
16.9691980369711
20
-1.21787439399715
30
0.0
41
1.0
10
17.0000698612362
20
-1.21785640844745
30
0.0
0
SPLINE
5
B6
330
1F
100
AcDbEntity
67
0
8
1
62
256
6
ByLayer
370
-1
48
1.0
60
0
100
AcDbSpline
70
4
71
3
42
0.000000001
43
0.0000000001
44
0.0000000001
40
0.0
40
0.0
40
0.0
40
0.0
40
0.25
40
0.25
40
0.5
40
0.5
40
0.625
40
0.625
40
0.75
40
0.75
40
1.0
40
1.0
40
1.0
40
1.0
41
1.0
10
9.6629536118927
20
-1.06028728228274
30
0.0
41
1.0
10
9.54049396323941
20
-1.06028728228274
30
0.0
41
1.0
10
9.41811379612201
20
-1.06193194891894
30
0.0
41
1.0
10
9.17353264244201
20
-1.06892039865285
30
0.0
41
1.0
10
9.0513313522404
20
-1.07425831928354
30
0.0
41
1.0
10
8.86819012740742
20
-1.08556068670954
30
0.0
41
1.0
10
8.80716997845181
20
-1.08988009340014
30
0.0
41
1.0
10
8.68519053970232
20
-1.09976002600764
30
0.0
41
1.0
10
8.6242080428797
20
-1.10532291216055
30
0.0
41
1.0
10
8.44181652406402
20
-1.12410829890254
30
0.0
41
1.0
10
8.32082280133451
20
-1.13936300578504
30
0.0
41
1.0
10
8.2007274868935
20
-1.15863077864505
30
0.0
0
SPLINE
5
B7
330
1F
100
AcDbEntity
67
0
8
1
62
256
6
ByLayer
370
-1
48
1.0
60
0
100
AcDbSpline
70
4
71
3
42
0.000000001
43
0.0000000001
44
0.0000000001
40
0.0
40
0.0
40
0.0
40
0.0
40
0.0625
40
0.0625
40
0.125
40
0.125
40
0.18749999999999
40
0.18749999999999
40
0.24999999999999
40
0.24999999999999
40
0.28124999999999
40
0.28124999999999
40
0.31249999999999
40
0.31249999999999
40
0.37499999999999
40
0.37499999999999
40
0.43749999999999
40
0.43749999999999
40
0.49999999999999
40
0.49999999999999
40
0.56249999999999
40
0.56249999999999
40
0.59374999999999
40
0.59374999999999
40
0.62499999999999
40
0.62499999999999
40
0.68749999999999
40
0.68749999999999
40
0.74999999999999
40
0.74999999999999
40
0.875
40
0.875
40
1.0
40
1.0
40
1.0
40
1.0
41
1.0
10
11.0631329934411
20
0.49299342067846
30
0.0
41
1.0
10
11.0006978360131
20
0.50804847576076
30
0.0
41
1.0
10
10.9390405079568
20
0.52490449370716
30
0.0
41
1.0
10
10.8173905164621
20
0.56271110400975
30
0.0
41
1.0
10
10.7574008344032
20
0.58366919243726
30
0.0
41
1.0
10
10.6390310871467
20
0.62987953425336
30
0.0
41
1.0
10
10.5806535773496
20
0.65513971570205
30
0.0
41
1.0
10
10.4651968760971
20
0.70961063632896
30
0.0
41
1.0
10
10.4081183550281
20
0.73882650869766
30
0.0
41
1.0
10
10.3230077020617
20
0.78479044171226
30
0.0
41
1.0
10
10.2947194903179
20
0.80046199347956
30
0.0
41
1.0
10
10.2382018996013
20
0.83229093450495
30
0.0
41
1.0
10
10.2099188003106
20
0.84847894319506
30
0.0
41
1.0
10
10.1254047647516
20
0.89713535428366
30
0.0
41
1.0
10
10.0696173779137
20
0.92962013781136
30
0.0
41
1.0
10
9.95806398478632
20
0.99250160015986
30
0.0
41
1.0
10
9.90228746650641
20
1.02288067130856
30
0.0
41
1.0
10
9.78971612692712
20
1.07985233298845
30
0.0
41
1.0
10
9.73291424700281
20
1.10643840549956
30
0.0
41
1.0
10
9.6176046150361
20
1.15504438381186
30
0.0
41
1.0
10
9.5590972375999
20
1.17707198711686
30
0.0
41
1.0
10
9.46988824542271
20
1.20678038757086
30
0.0
41
1.0
10
9.4399140788596
20
1.21613376728095
30
0.0
41
1.0
10
9.3794969453854
20
1.23381023518145
30
0.0
41
1.0
10
9.34901491011232
20
1.24214233514296
30
0.0
41
1.0
10
9.25752130604161
20
1.26557657510365
30
0.0
41
1.0
10
9.1962803171036
20
1.27918224689475
30
0.0
41
1.0
10
9.07334531822792
20
1.30335219995395
30
0.0
41
1.0
10
9.01165310159962
20
1.31391856171865
30
0.0
41
1.0
10
8.82601860940682
20
1.34222838470515
30
0.0
41
1.0
10
8.70152657279701
20
1.35666773831785
30
0.0
41
1.0
10
8.4516754344782
20
1.38040135432165
30
0.0
41
1.0
10
8.32631684584911
20
1.38964955145666
30
0.0
41
1.0
10
8.20072748689341
20
1.39710328662466
30
0.0
0
SPLINE
5
B8
330
1F
100
AcDbEntity
67
0
8
1
62
256
6
ByLayer
370
-1
48
1.0
60
0
100
AcDbSpline
70
4
71
3
42
0.000000001
43
0.0000000001
44
0.0000000001
40
0.0
40
0.0
40
0.0
40
0.0
40
0.0625
40
0.0625
40
0.125
40
0.125
40
0.18750000000001
40
0.18750000000001
40
0.25000000000001
40
0.25000000000001
40
0.28125000000001
40
0.28125000000001
40
0.31250000000001
40
0.31250000000001
40
0.34375000000001
40
0.34375000000001
40
0.37500000000001
40
0.37500000000001
40
0.39062500000001
40
0.39062500000001
40
0.40625000000001
40
0.40625000000001
40
0.43750000000002
40
0.43750000000002
40
0.44531250000002
40
0.44531250000002
40
0.45312500000002
40
0.45312500000002
40
0.46875000000002
40
0.46875000000002
40
0.47656250000002
40
0.47656250000002
40
0.48437500000002
40
0.48437500000002
40
0.50000000000002
40
0.50000000000002
40
0.50781250000002
40
0.50781250000002
40
0.51562500000002
40
0.52343750000002
40
0.52343750000002
40
0.53125000000002
40
0.53125000000002
40
0.54687500000002
40
0.54687500000002
40
0.55468750000002
40
0.55468750000002
40
0.56250000000002
40
0.56250000000002
40
0.59375000000001
40
0.59375000000001
40
0.62500000000001
40
0.62500000000001
40
0.65625000000001
40
0.65625000000001
40
0.68750000000001
40
0.68750000000001
40
0.71875000000001
40
0.71875000000001
40
0.75000000000001
40
0.75000000000001
40
0.81250000000001
40
0.81250000000001
40
0.875
40
0.875
40
0.9375
40
0.9375
40
1.0
40
1.0
40
1.0
40
1.0
41
1.0
10
3.0
20
-2.13046462318934
30
0.0
41
1.0
10
2.93160656388292
20
-2.14585354927725
30
0.0
41
1.0
10
2.863533550733
20
-2.15996845714635
30
0.0
41
1.0
10
2.72805306212211
20
-2.18540103255914
30
0.0
41
1.0
10
2.66064526759632
20
-2.19672123274475
30
0.0
41
1.0
10
2.52654490343141
20
-2.21612346049365
30
0.0
41
1.0
10
2.45985155006912
20
-2.22421161682014
30
0.0
41
1.0
10
2.32727021987961
20
-2.23639538232544
30
0.0
41
1.0
10
2.26138014790271
20
-2.24050728711704
30
0.0
41
1.0
10
2.16327600971752
20
-2.24265405740124
30
0.0
41
1.0
10
2.13071853479801
20
-2.24268796903135
30
0.0
41
1.0
10
2.06652872612301
20
-2.24114561977355
30
0.0
41
1.0
10
2.03482273864131
20
-2.23957351964324
30
0.0
41
1.0
10
1.97232537095411
20
-2.23449119816665
30
0.0
41
1.0
10
1.94153237820902
20
-2.23098482377985
30
0.0
41
1.0
10
1.88107291088872
20
-2.22151804918845
30
0.0
41
1.0
10
1.8514024524452
20
-2.21556713836435
30
0.0
41
1.0
10
1.8080150244387
20
-2.20414014064345
30
0.0
41
1.0
10
1.79370512847481
20
-2.19989868924844
30
0.0
41
1.0
10
1.76570003309632
20
-2.19044795176855
30
0.0
41
1.0
10
1.75207055577081
20
-2.18526349358955
30
0.0
41
1.0
10
1.71248909951311
20
-2.16808701616864
30
0.0
41
1.0
10
1.68779451769871
20
-2.15453559744414
30
0.0
41
1.0
10
1.66016783816602
20
-2.13350925248284
30
0.0
41
1.0
10
1.65479170594162
20
-2.12907827601684
30
0.0
41
1.0
10
1.6445279134152
20
-2.11983323117664
30
0.0
41
1.0
10
1.63963714385361
20
-2.11501965847735
30
0.0
41
1.0
10
1.62575763408131
20
-2.09994897400804
30
0.0
41
1.0
10
1.61755370408832
20
-2.08906828750165
30
0.0
41
1.0
10
1.6072115512674
20
-2.07117963679335
30
0.0
41
1.0
10
1.604093624999
20
-2.06494019901764
30
0.0
41
1.0
10
1.5987128254643
20
-2.05216271335695
30
0.0
41
1.0
10
1.59643002472862
20
-2.04559429280495
30
0.0
41
1.0
10
1.5908570567031
20
-2.02532589254655
30
0.0
41
1.0
10
1.58883666683681
20
-2.01106516211195
30
0.0
41
1.0
10
1.58864514300521
20
-1.98841866383854
30
0.0
41
1.0
10
1.58906246162752
20
-1.98072045565314
30
0.0
41
1.0
10
1.59080980254811
20
-1.96531780747804
30
0.0
41
1.0
10
1.59346790251931
20
-1.94982375833034
30
0.0
41
1.0
10
1.59785835928952
20
-1.93415642137724
30
0.0
41
1.0
10
1.60307950111641
20
-1.91840644300075
30
0.0
41
1.0
10
1.6061159395523
20
-1.91047596022915
30
0.0
41
1.0
10
1.616189533507
20
-1.88706225429955
30
0.0
41
1.0
10
1.6242323874466
20
-1.87178319833774
30
0.0
41
1.0
10
1.63789801432782
20
-1.84926576786694
30
0.0
41
1.0
10
1.6427220903083
20
-1.84182730688374
30
0.0
41
1.0
10
1.65286167226512
20
-1.82707402983985
30
0.0
41
1.0
10
1.658191112933
20
-1.81974288283465
30
0.0
41
1.0
10
1.6856222841665
20
-1.78381475765535
30
0.0
41
1.0
10
1.71021652564991
20
-1.75701764718795
30
0.0
41
1.0
10
1.7628533862223
20
-1.70597075598394
30
0.0
41
1.0
10
1.7910795092244
20
-1.68164221147664
30
0.0
41
1.0
10
1.8488783454676
20
-1.63590208050324
30
0.0
41
1.0
10
1.87858152818902
20
-1.61435999275764
30
0.0
41
1.0
10
1.93919970859181
20
-1.57327189141554
30
0.0
41
1.0
10
1.97011886847631
20
-1.55373280608895
30
0.0
41
1.0
10
2.0329476909499
20
-1.51628120677495
30
0.0
41
1.0
10
2.06489310583382
20
-1.49835347204315
30
0.0
41
1.0
10
2.12948664952592
20
-1.46396237521054
30
0.0
41
1.0
10
2.1619536886663
20
-1.44759365708875
30
0.0
41
1.0
10
2.25979671085011
20
-1.40057702040855
30
0.0
41
1.0
10
2.32561093304091
20
-1.37199809996625
30
0.0
41
1.0
10
2.4581967094982
20
-1.31914606486045
30
0.0
41
1.0
10
2.52497078790481
20
-1.29488708643974
30
0.0
41
1.0
10
2.65936769085502
20
-1.25003818318355
30
0.0
41
1.0
10
2.72699146646622
20
-1.22945360450605
30
0.0
41
1.0
10
2.86302739811981
20
-1.19158599454765
30
0.0
41
1.0
10
2.93147747487171
20
-1.17430025848354
30
0.0
41
1.0
10
3.00000000000051
20
-1.15863077864475
30
0.0
0
SPLINE
5
B9
330
1F
100
AcDbEntity
67
0
8
1
62
256
6
ByLayer
370
-1
48
1.0
60
0
100
AcDbSpline
70
4
71
3
42
0.000000001
43
0.0000000001
44
0.0000000001
40
0.0
40
0.0
40
0.0
40
0.0
40
0.0625
40
0.0625
40
0.125
40
0.125
40
0.1875
40
0.1875
40
0.25
40
0.25
40
0.28125
40
0.28125
40
0.3125
40
0.3125
40
0.34375
40
0.34375
40
0.375
40
0.375
40
0.390625
40
0.390625
40
0.40625
40
0.40625
40
0.43749999999999
40
0.43749999999999
40
0.44531249999999
40
0.44531249999999
40
0.45312499999999
40
0.45312499999999
40
0.46874999999999
40
0.46874999999999
40
0.47656249999999
40
0.47656249999999
40
0.48437499999999
40
0.48437499999999
40
0.49999999999999
40
0.49999999999999
40
0.50781249999999
40
0.50781249999999
40
0.51562499999999
40
0.52343749999999
40
0.52343749999999
40
0.53124999999999
40
0.53124999999999
40
0.54687499999999
40
0.54687499999999
40
0.55468749999999
40
0.55468749999999
40
0.56249999999999
40
0.56249999999999
40
0.59374999999999
40
0.59374999999999
40
0.625
40
0.625
40
0.65625
40
0.65625
40
0.6875
40
0.6875
40
0.71875
40
0.71875
40
0.75
40
0.75
40
0.8125
40
0.8125
40
0.875
40
0.875
40
0.9375
40
0.9375
40
1.0
40
1.0
40
1.0
40
1.0
41
1.0
10
3.0
20
0.25007141839866
30
0.0
41
1.0
10
2.93160656388292
20
0.25798917613516
30
0.0
41
1.0
10
2.863533550733
20
0.26764093177306
30
0.0
41
1.0
10
2.72805306212211
20
0.29067692444336
30
0.0
41
1.0
10
2.66064526759632
20
0.30405833956766
30
0.0
41
1.0
10
2.52654490343141
20
0.33503341782925
30
0.0
41
1.0
10
2.45985155006912
20
0.35262022936546
30
0.0
41
1.0
10
2.32727021987961
20
0.39283702967566
30
0.0
41
1.0
10
2.26138014790271
20
0.41544877862685
30
0.0
41
1.0
10
2.16327600971752
20
0.45428799555296
30
0.0
41
1.0
10
2.13071853479801
20
0.46805937367915
30
0.0
41
1.0
10
2.0665287261231
20
0.49726415014456
30
0.0
41
1.0
10
2.03482273864131
20
0.51272364564815
30
0.0
41
1.0
10
1.97232537095422
20
0.54568294531505
30
0.0
41
1.0
10
1.94153237820902
20
0.56317895801415
30
0.0
41
1.0
10
1.88107291088872
20
0.60071422485845
30
0.0
41
1.0
10
1.85140245244531
20
0.62074411864415
30
0.0
41
1.0
10
1.8080150244387
20
0.65334273952526
30
0.0
41
1.0
10
1.79370512847481
20
0.66466801775066
30
0.0
41
1.0
10
1.76570003309632
20
0.68821855873955
30
0.0
41
1.0
10
1.75207055577081
20
0.70038535193245
30
0.0
41
1.0
10
1.71248909951311
20
0.73825968477915
30
0.0
41
1.0
10
1.68779451769871
20
0.76528872156005
30
0.0
41
1.0
10
1.66016783816602
20
0.80249238938406
30
0.0
41
1.0
10
1.65479170594162
20
0.81013494598865
30
0.0
41
1.0
10
1.6445279134152
20
0.82565682014716
30
0.0
41
1.0
10
1.63963714385361
20
0.83353692815045
30
0.0
41
1.0
10
1.62575763408131
20
0.85756894306906
30
0.0
41
1.0
10
1.61755370408832
20
0.87410859713646
30
0.0
41
1.0
10
1.6072115512674
20
0.89988776786926
30
0.0
41
1.0
10
1.604093624999
20
0.90865950818025
30
0.0
41
1.0
10
1.5987128254643
20
0.92617039316166
30
0.0
41
1.0
10
1.59643002472862
20
0.93495437072505
30
0.0
41
1.0
10
1.5908570567031
20
0.96139529429986
30
0.0
41
1.0
10
1.58883666683681
20
0.97914080008896
30
0.0
41
1.0
10
1.58864514300521
20
1.00595652449496
30
0.0
41
1.0
10
1.58906246162752
20
1.01485379238476
30
0.0
41
1.0
10
1.59080980254822
20
1.03224307097055
30
0.0
41
1.0
10
1.59346790251931
20
1.04932849765176
30
0.0
41
1.0
10
1.59785835928952
20
1.06583636671316
30
0.0
41
1.0
10
1.60307950111641
20
1.08206760942775
30
0.0
41
1.0
10
1.6061159395523
20
1.09005690764775
30
0.0
41
1.0
10
1.616189533507
20
1.11314645930285
30
0.0
41
1.0
10
1.6242323874466
20
1.12755451126665
30
0.0
41
1.0
10
1.63789801432782
20
1.14798191684515
30
0.0
41
1.0
10
1.6427220903083
20
1.15459213842905
30
0.0
41
1.0
10
1.65286167226512
20
1.16744974042065
30
0.0
41
1.0
10
1.658191112933
20
1.17371015828306
30
0.0
41
1.0
10
1.6856222841665
20
1.20381334839705
30
0.0
41
1.0
10
1.71021652564991
20
1.22444868822805
30
0.0
41
1.0
10
1.7628533862223
20
1.26128498049505
30
0.0
41
1.0
10
1.7910795092244
20
1.27749801125616
30
0.0
41
1.0
10
1.8488783454676
20
1.30601706562815
30
0.0
41
1.0
10
1.87858152818902
20
1.31841824768756
30
0.0
41
1.0
10
1.93919970859181
20
1.34047512462935
30
0.0
41
1.0
10
1.97011886847631
20
1.35012071983685
30
0.0
41
1.0
10
2.0329476909499
20
1.36721374593375
30
0.0
41
1.0
10
2.06489310583382
20
1.37466382899356
30
0.0
41
1.0
10
2.129486649526
20
1.38769353382426
30
0.0
41
1.0
10
2.1619536886663
20
1.39323847879706
30
0.0
41
1.0
10
2.25979671085011
20
1.40746126699166
30
0.0
41
1.0
10
2.32561093304091
20
1.41375301618736
30
0.0
41
1.0
10
2.4581967094982
20
1.42152311879306
30
0.0
41
1.0
10
2.52497078790481
20
1.42298358910085
30
0.0
41
1.0
10
2.65936769085502
20
1.42191384240625
30
0.0
41
1.0
10
2.72699146646622
20
1.41937685035525
30
0.0
41
1.0
10
2.86302739811981
20
1.41079476158525
30
0.0
41
1.0
10
2.93147747487171
20
1.40473913997666
30
0.0
41
1.0
10
3.00000000000051
20
1.39710328662495
30
0.0
0
SPLINE
5
BA
330
1F
100
AcDbEntity
67
0
8
1
62
256
6
ByLayer
370
-1
48
1.0
60
0
100
AcDbSpline
70
4
71
3
42
0.000000001
43
0.0000000001
44
0.0000000001
40
0.0
40
0.0
40
0.0
40
0.0
40
0.0625
40
0.0625
40
0.125
40
0.125
40
0.1875
40
0.1875
40
0.24999999999999
40
0.24999999999999
40
0.28124999999999
40
0.28124999999999
40
0.31249999999999
40
0.31249999999999
40
0.34374999999999
40
0.34374999999999
40
0.37499999999999
40
0.37499999999999
40
0.39062499999999
40
0.39062499999999
40
0.40624999999999
40
0.40624999999999
40
0.43749999999999
40
0.43749999999999
40
0.44531249999999
40
0.44531249999999
40
0.45312499999999
40
0.45312499999999
40
0.46874999999999
40
0.46874999999999
40
0.47656249999999
40
0.47656249999999
40
0.48437499999999
40
0.48437499999999
40
0.49999999999999
40
0.49999999999999
40
0.50781249999999
40
0.50781249999999
40
0.51562499999999
40
0.52343749999999
40
0.52343749999999
40
0.53124999999999
40
0.53124999999999
40
0.54687499999999
40
0.54687499999999
40
0.55468749999999
40
0.55468749999999
40
0.56249999999999
40
0.56249999999999
40
0.59374999999999
40
0.59374999999999
40
0.62499999999999
40
0.62499999999999
40
0.65624999999999
40
0.65624999999999
40
0.68749999999999
40
0.68749999999999
40
0.71874999999999
40
0.71874999999999
40
0.75
40
0.75
40
0.8125
40
0.8125
40
0.875
40
0.875
40
0.9375
40
0.9375
40
1.0
40
1.0
40
1.0
40
1.0
41
1.0
10
3.0
20
2.57692873161426
30
0.0
41
1.0
10
2.93160656388292
20
2.60263770788046
30
0.0
41
1.0
10
2.863533550733
20
2.62899239560565
30
0.0
41
1.0
10
2.72805306212211
20
2.68303278318075
30
0.0
41
1.0
10
2.66064526759632
20
2.71071792516716
30
0.0
41
1.0
10
2.52654490343141
20
2.76750296299066
30
0.0
41
1.0
10
2.4598515500692
20
2.79660148233185
30
0.0
41
1.0
10
2.32727021987961
20
2.85636828798995
30
0.0
41
1.0
10
2.26138014790271
20
2.88703288851656
30
0.0
41
1.0
10
2.16327600971752
20
2.93442777100226
30
0.0
41
1.0
10
2.13071853479801
20
2.95045218668776
30
0.0
41
1.0
10
2.0665287261231
20
2.98270237534186
30
0.0
41
1.0
10
2.03482273864131
20
2.99896291177215
30
0.0
41
1.0
10
1.97232537095422
20
3.03177253568425
30
0.0
41
1.0
10
1.9415323782091
20
3.04832135033035
30
0.0
41
1.0
10
1.88107291088872
20
3.08173770038776
30
0.0
41
1.0
10
1.85140245244531
20
3.09860455365116
30
0.0
41
1.0
10
1.8080150244387
20
3.12418576800185
30
0.0
41
1.0
10
1.79370512847481
20
3.13278165635066
30
0.0
41
1.0
10
1.76570003309632
20
3.14997951202216
30
0.0
41
1.0
10
1.75207055577081
20
3.15854024605096
30
0.0
41
1.0
10
1.71248909951322
20
3.18407549320055
30
0.0
41
1.0
10
1.68779451769871
20
3.20091052411236
30
0.0
41
1.0
10
1.66016783816602
20
3.22153513268006
30
0.0
41
1.0
10
1.65479170594162
20
3.22565211334675
30
0.0
41
1.0
10
1.6445279134152
20
3.23374977604826
30
0.0
41
1.0
10
1.63963714385372
20
3.23773190776606
30
0.0
41
1.0
10
1.62575763408131
20
3.24945690393905
30
0.0
41
1.0
10
1.61755370408832
20
3.25698065094676
30
0.0
41
1.0
10
1.6072115512674
20
3.26770953081615
30
0.0
41
1.0
10
1.604093624999
20
3.27119644558725
30
0.0
41
1.0
10
1.5987128254643
20
3.27781193772856
30
0.0
41
1.0
10
1.5964300247287
20
3.28095996562035
30
0.0
41
1.0
10
1.5908570567031
20
3.28990295326575
30
0.0
41
1.0
10
1.58883666683681
20
3.29519887937086
30
0.0
41
1.0
10
1.58864514300521
20
3.30202460757056
30
0.0
41
1.0
10
1.58906246162752
20
3.30409157151836
30
0.0
41
1.0
10
1.59080980254822
20
3.30774832350436
30
0.0
41
1.0
10
1.59346790251942
20
3.31095421586726
30
0.0
41
1.0
10
1.59785835928952
20
3.31330359893136
30
0.0
41
1.0
10
1.60307950111641
20
3.31524313168926
30
0.0
41
1.0
10
1.6061159395523
20
3.31600668126936
30
0.0
41
1.0
10
1.61618953350711
20
3.31768303597165
30
0.0
41
1.0
10
1.62423238744671
20
3.31801135345465
30
0.0
41
1.0
10
1.63789801432782
20
3.31755902639466
30
0.0
41
1.0
10
1.64272209030841
20
3.31724960514866
30
0.0
41
1.0
10
1.65286167226512
20
3.31634222540396
30
0.0
41
1.0
10
1.658191112933
20
3.31574187503305
30
0.0
41
1.0
10
1.6856222841665
20
3.31212918539146
30
0.0
41
1.0
10
1.71021652564991
20
3.30732492503375
30
0.0
41
1.0
10
1.7628533862223
20
3.29530228094936
30
0.0
41
1.0
10
1.7910795092244
20
3.28801338332725
30
0.0
41
1.0
10
1.8488783454676
20
3.27203045033926
30
0.0
41
1.0
10
1.87858152818902
20
3.26330682443775
30
0.0
41
1.0
10
1.93919970859181
20
3.24481453784385
30
0.0
41
1.0
10
1.97011886847631
20
3.23504158787435
30
0.0
41
1.0
10
2.0329476909499
20
3.21468948949696
30
0.0
41
1.0
10
2.06489310583382
20
3.20409708388375
30
0.0
41
1.0
10
2.129486649526
20
3.18231243810665
30
0.0
41
1.0
10
2.1619536886663
20
3.17118151998025
30
0.0
41
1.0
10
2.25979671085011
20
3.13723113381626
30
0.0
41
1.0
10
2.32561093304091
20
3.11386214059425
30
0.0
41
1.0
10
2.4581967094982
20
3.06615737151665
30
0.0
41
1.0
10
2.52497078790481
20
3.04181600637996
30
0.0
41
1.0
10
2.65936769085502
20
2.99243820547936
30
0.0
41
1.0
10
2.72699146646622
20
2.96739964213175
30
0.0
41
1.0
10
2.86302739811981
20
2.91679326331486
30
0.0
41
1.0
10
2.93147747487171
20
2.89121032585396
30
0.0
41
1.0
10
3.00000000000051
20
2.86552751382986
30
0.0
0
SPLINE
5
BB
330
1F
100
AcDbEntity
67
0
8
1
62
256
6
ByLayer
370
-1
48
1.0
60
0
100
AcDbSpline
70
4
71
3
42
0.000000001
43
0.0000000001
44
0.0000000001
40
0.0
40
0.0
40
0.0
40
0.0
40
0.01021053471431
40
0.32302265929416
40
0.63583478387402
40
0.79224084616395
40
0.94864690845387
40
0.98774842402636
40
1.0
40
1.0
40
1.0
40
1.0
41
1.0
10
9.6629536118927
20
1.48925590473046
30
0.0
41
1.0
10
9.6875914824262
20
1.48715010171736
30
0.0
41
1.0
10
10.4672136766061
20
1.42086522703356
30
0.0
41
1.0
10
12.0125216031672
20
1.31124652254735
30
0.0
41
1.0
10
13.926424286655
20
1.22687312944156
30
0.0
41
1.0
10
15.4651779267302
20
1.18970922312916
30
0.0
41
1.0
10
16.3298954935418
20
1.18014249454485
30
0.0
41
1.0
10
16.842299520405
20
1.17894701040086
30
0.0
41
1.0
10
16.9696022356211
20
1.17884781181036
30
0.0
41
1.0
10
17.0000023961482
20
1.17883178095636
30
0.0
0
SPLINE
5
BC
330
1F
100
AcDbEntity
67
0
8
1
62
256
6
ByLayer
370
-1
48
1.0
60
0
100
AcDbSpline
70
4
71
3
42
0.000000001
43
0.0000000001
44
0.0000000001
40
0.0
40
0.0
40
0.0
40
0.0
40
0.25
40
0.25
40
0.5
40
0.5
40
0.625
40
0.625
40
0.75
40
0.75
40
1.0
40
1.0
40
1.0
40
1.0
41
1.0
10
9.6629536118927
20
1.48925590473046
30
0.0
41
1.0
10
9.54049396323941
20
1.48925590473046
30
0.0
41
1.0
10
9.41811379612201
20
1.48774494551125
30
0.0
41
1.0
10
9.17353264244201
20
1.48130512288056
30
0.0
41
1.0
10
9.0513313522404
20
1.47638260357365
30
0.0
41
1.0
10
8.86819012740742
20
1.46590288828295
30
0.0
41
1.0
10
8.80716997845181
20
1.46189069257565
30
0.0
41
1.0
10
8.68519053970232
20
1.45268460205405
30
0.0
41
1.0
10
8.6242080428797
20
1.44748859401946
30
0.0
41
1.0
10
8.44181652406402
20
1.42987286332605
30
0.0
41
1.0
10
8.32082280133451
20
1.41549748839576
30
0.0
41
1.0
10
8.2007274868935
20
1.39710328662346
30
0.0
0
SPLINE
5
BD
330
1F
100
AcDbEntity
67
0
8
1
62
256
6
ByLayer
370
-1
48
1.0
60
0
100
AcDbSpline
70
4
71
3
42
0.000000001
43
0.0000000001
44
0.0000000001
40
0.0
40
0.0
40
0.0
40
0.0
40
0.35546872014537
40
0.35546872014537
40
1.0
40
1.0
40
1.0
40
1.0
41
1.0
10
32.4999655377604
20
-1.12662931343044
30
0.0
41
1.0
10
30.6633812337056
20
-1.12576233995554
30
0.0
41
1.0
10
28.8267969296695
20
-1.12489535770774
30
0.0
41
1.0
10
23.6601417503726
20
-1.12245634965885
30
0.0
41
1.0
10
20.3300708751549
20
-1.12088430367685
30
0.0
41
1.0
10
17.0
20
-1.11931222839735
30
0.0
0
SPLINE
5
BE
330
1F
100
AcDbEntity
67
0
8
1
62
256
6
ByLayer
370
-1
48
1.0
60
0
100
AcDbSpline
70
4
71
3
42
0.000000001
43
0.0000000001
44
0.0000000001
40
0.0
40
0.0
40
0.0
40
0.0
40
1.0
40
1.0
40
1.0
40
1.0
41
1.0
10
32.4736649682572
20
-0.98606030379304
30
0.0
41
1.0
10
27.3157748982079
20
-0.96856878713484
30
0.0
41
1.0
10
22.1578864370613
20
-0.95060657525795
30
0.0
41
1.0
10
17.0
20
-0.93207566035524
30
0.0
0
SPLINE
5
BF
330
1F
100
AcDbEntity
67
0
8
1
62
256
6
ByLayer
370
-1
48
1.0
60
0
100
AcDbSpline
70
4
71
3
42
0.000000001
43
0.0000000001
44
0.0000000001
40
0.0
40
0.0
40
0.0
40
0.0
40
1.0
40
1.0
40
1.0
40
1.0
41
1.0
10
17.0
20
-1.11931222839735
30
0.0
41
1.0
10
16.7636948370449
20
-1.09964188946104
30
0.0
41
1.0
10
16.5273913501042
20
-1.07996711216134
30
0.0
41
1.0
10
16.2910897725476
20
-1.06028728228274
30
0.0
0
SPLINE
5
C0
330
1F
100
AcDbEntity
67
0
8
1
62
256
6
ByLayer
370
-1
48
1.0
60
0
100
AcDbSpline
70
4
71
3
42
0.000000001
43
0.0000000001
44
0.0000000001
40
0.0
40
0.0
40
0.0
40
0.0
40
0.25
40
0.25
40
0.5
40
0.5
40
0.75
40
0.75
40
1.0
40
1.0
40
1.0
40
1.0
41
1.0
10
16.9999999999992
20
-0.93207566035625
30
0.0
41
1.0
10
16.9538704478182
20
-0.90285277492515
30
0.0
41
1.0
10
16.9084447034782
20
-0.87266676360424
30
0.0
41
1.0
10
16.819386216226
20
-0.80984110803084
30
0.0
41
1.0
10
16.7757494695673
20
-0.77720694270585
30
0.0
41
1.0
10
16.6908501781434
20
-0.70868963530604
30
0.0
41
1.0
10
16.6495133046324
20
-0.67273031408304
30
0.0
41
1.0
10
16.5712313118166
20
-0.59736453519714
30
0.0
41
1.0
10
16.5341519442726
20
-0.55788590021935
30
0.0
41
1.0
10
16.5
20
-0.51585738472694
30
0.0
0
SPLINE
5
C1
330
1F
100
AcDbEntity
67
0
8
1
62
256
6
ByLayer
370
-1
48
1.0
60
0
100
AcDbSpline
70
4
71
3
42
0.000000001
43
0.0000000001
44
0.0000000001
40
0.0
40
0.0
40
0.0
40
0.0
40
1.0
40
1.0
40
1.0
40
1.0
41
1.0
10
16.5
20
-0.34970598432135
30
0.0
41
1.0
10
16.5126882072367
20
-0.34986054527005
30
0.0
41
1.0
10
16.5253764221634
20
-0.35000807196424
30
0.0
41
1.0
10
16.5380646444955
20
-0.35014882455594
30
0.0
0
MTEXT
5
C2
330
1F
100
AcDbEntity
67
0
8
SK6
62
256
6
ByLayer
370
-1
48
1.0
60
0
100
AcDbMText
10
-32.4570458688446
20
-17.0385660010252
30
0.0
210
0.0
220
0.0
230
1.0
1
\fMonospac821 BT|b0|i0;\W1.1108;N5TS-x.xxx/x.xxx-xxxx
40
3.5
41
0.0
44
1.072372
50
0.0
71
7
72
5
7
STANDARD 3.5
0
LINE
5
C7
330
1F
100
AcDbEntity
67
0
8
40
62
256
6
ByLayer
370
-1
48
1.0
60
0
100
AcDbLine
10
33.0000001311554
20
0.49999999897476
30
0.0
11
33.0000001311554
21
-0.50000000102524
31
0.0
39
0.0
210
0.0
220
0.0
230
1.0
0
LINE
5
C9
330
1F
100
AcDbEntity
67
0
8
40
62
256
6
ByLayer
370
-1
48
1.0
60
0
100
AcDbLine
10
3.00000013115542
20
0.49999999897476
30
0.0
11
3.00000013115542
21
-0.50000000102524
31
0.0
39
0.0
210
0.0
220
0.0
230
1.0
0
DIMENSION
5
CA
330
1F
100
AcDbEntity
67
0
8
2
62
256
6
ByLayer
370
-1
48
1.0
60
0
100
AcDbDimension
2
_U0
10
3.00000013115542
20
44.9874449989748
30
0.0
11
18.0000001311554
21
44.9874449989748
31
0.0
70
32
71
1
72
1
41
1.0
210
0.0
220
0.0
230
1.0
3
NewStyle
100
AcDbAlignedDimension
13
33.0000001311554
23
-0.50000000102524
33
0.0
14
3.00000013115542
24
-0.50000000102524
34
0.0
50
0.0
100
AcDbRotatedDimension
1001
ACAD
1000
DSTYLE
1002
{
1070
371
1070
13
1070
372
1070
13
1070
144
1040
1.0
1070
277
1070
2
1070
278
1070
44
1070
345
1005
16
1070
347
1005
16
1070
346
1005
16
1070
344
1005
0
1070
343
1005
0
1070
76
1070
0
1070
75
1070
0
1070
340
1005
11
1070
271
1070
3
1070
177
1070
7
1070
176
1070
7
1070
178
1070
7
1070
41
1040
2.5
1070
147
1040
1.75
1070
42
1040
0.0
1070
44
1040
2.0
1070
140
1040
3.5
1070
281
1070
0
1070
282
1070
0
1070
173
1070
1
1070
78
1070
8
1002
}
1001
ACAD_DSTYLE_DIM_LINETYPE
1070
380
1005
16
1001
ACAD_DSTYLE_DIM_EXT1_LINETYPE
1070
381
1005
16
1001
ACAD_DSTYLE_DIM_EXT2_LINETYPE
1070
382
1005
16
0
LINE
5
E4
330
1F
100
AcDbEntity
67
0
8
40
62
256
6
ByLayer
370
-1
48
1.0
60
0
100
AcDbLine
10
17.0000001311554
20
4.25899999897476
30
0.0
11
17.0000001311554
21
-1.74600000102525
31
0.0
39
0.0
210
0.0
220
0.0
230
1.0
0
DIMENSION
5
E5
330
1F
100
AcDbEntity
67
0
8
2
62
256
6
ByLayer
370
-1
48
1.0
60
0
100
AcDbDimension
2
_U1
10
17.0000001311554
20
29.9874449989748
30
0.0
11
25.0000001311554
21
29.9874449989748
31
0.0
70
32
71
1
72
1
41
1.0
210
0.0
220
0.0
230
1.0
3
NewStyle
100
AcDbAlignedDimension
13
33.0000001311554
23
-0.00000000102524
33
0.0
14
17.0000001311554
24
1.25649999897476
34
0.0
50
0.0
100
AcDbRotatedDimension
1001
ACAD
1000
DSTYLE
1002
{
1070
371
1070
13
1070
372
1070
13
1070
144
1040
1.0
1070
277
1070
2
1070
278
1070
44
1070
345
1005
16
1070
347
1005
16
1070
346
1005
16
1070
344
1005
0
1070
343
1005
0
1070
76
1070
0
1070
75
1070
0
1070
340
1005
11
1070
271
1070
3
1070
177
1070
7
1070
176
1070
7
1070
178
1070
7
1070
41
1040
2.5
1070
147
1040
1.75
1070
42
1040
0.0
1070
44
1040
2.0
1070
140
1040
3.5
1070
281
1070
0
1070
282
1070
0
1070
173
1070
1
1070
78
1070
8
1002
}
1001
ACAD_DSTYLE_DIM_LINETYPE
1070
380
1005
16
1001
ACAD_DSTYLE_DIM_EXT1_LINETYPE
1070
381
1005
16
1001
ACAD_DSTYLE_DIM_EXT2_LINETYPE
1070
382
1005
16
0
LINE
5
FD
330
1F
100
AcDbEntity
67
0
8
40
62
256
6
ByLayer
370
-1
48
1.0
60
0
100
AcDbLine
10
30.5000001311554
20
3.00749999897475
30
0.0
11
31.5000001311554
21
3.00749999897475
31
0.0
39
0.0
210
0.0
220
0.0
230
1.0
0
LINE
5
FE
330
1F
100
AcDbEntity
67
0
8
40
62
256
6
ByLayer
370
-1
48
1.0
60
0
100
AcDbLine
10
30.5000001311554
20
-3.00750000102525
30
0.0
11
31.5000001311554
21
-3.00750000102525
31
0.0
39
0.0
210
0.0
220
0.0
230
1.0
0
DIMENSION
5
FF
330
1F
100
AcDbEntity
67
0
8
2
62
256
6
ByLayer
370
-1
48
1.0
60
0
100
AcDbDimension
2
_U2
10
60.0099251311554
20
-3.00750000102525
30
0.0
11
60.0099251311554
21
29.9999999989748
31
0.0
70
32
71
1
72
1
41
1.0
210
0.0
220
0.0
230
1.0
3
NewStyle
100
AcDbAlignedDimension
13
31.3409511311554
23
3.00749999897475
33
0.0
14
31.5000001311554
24
-3.00750000102525
34
0.0
50
270.0
100
AcDbRotatedDimension
1001
ACAD
1000
DSTYLE
1002
{
1070
371
1070
13
1070
372
1070
13
1070
144
1040
1.0
1070
277
1070
2
1070
278
1070
44
1070
345
1005
16
1070
347
1005
16
1070
346
1005
16
1070
344
1005
0
1070
343
1005
0
1070
76
1070
0
1070
75
1070
0
1070
340
1005
11
1070
271
1070
3
1070
177
1070
7
1070
176
1070
7
1070
178
1070
7
1070
41
1040
2.5
1070
147
1040
1.75
1070
42
1040
0.0
1070
44
1040
2.0
1070
140
1040
3.5
1070
281
1070
0
1070
282
1070
0
1070
173
1070
1
1070
3
1000
%%c<>
1070
78
1070
8
1002
}
1001
ACAD_DSTYLE_DIM_LINETYPE
1070
380
1005
16
1001
ACAD_DSTYLE_DIM_EXT1_LINETYPE
1070
381
1005
16
1001
ACAD_DSTYLE_DIM_EXT2_LINETYPE
1070
382
1005
16
0
LINE
5
11A
330
1F
100
AcDbEntity
67
0
8
40
62
256
6
ByLayer
370
-1
48
1.0
60
0
100
AcDbLine
10
-31.4999998688446
20
-4.00000000102524
30
0.0
11
-30.4999998688446
21
-4.00000000102524
31
0.0
39
0.0
210
0.0
220
0.0
230
1.0
0
LINE
5
11B
330
1F
100
AcDbEntity
67
0
8
40
62
256
6
ByLayer
370
-1
48
1.0
60
0
100
AcDbLine
10
-31.4999998688446
20
3.99999999897476
30
0.0
11
-30.4999998688446
21
3.99999999897476
31
0.0
39
0.0
210
0.0
220
0.0
230
1.0
0
DIMENSION
5
11C
330
1F
100
AcDbEntity
67
0
8
SK2
62
256
6
ByLayer
370
-1
48
1.0
60
0
100
AcDbDimension
2
_U3
10
-59.9900748688446
20
3.99999999897476
30
0.0
11
-59.9900748688446
21
29.9999999989748
31
0.0
70
32
71
1
72
1
41
1.0
210
0.0
220
0.0
230
1.0
3
NewStyle
100
AcDbAlignedDimension
13
-31.3019358688446
23
-4.00000000102524
33
0.0
14
-31.4999998688446
24
3.99999999897476
34
0.0
50
90.0
100
AcDbRotatedDimension
1001
ACAD
1000
DSTYLE
1002
{
1070
371
1070
13
1070
372
1070
13
1070
144
1040
1.0
1070
277
1070
2
1070
278
1070
44
1070
345
1005
16
1070
347
1005
16
1070
346
1005
16
1070
344
1005
0
1070
343
1005
0
1070
76
1070
0
1070
75
1070
0
1070
340
1005
11
1070
271
1070
3
1070
177
1070
7
1070
176
1070
7
1070
178
1070
7
1070
41
1040
2.5
1070
147
1040
1.75
1070
42
1040
0.0
1070
44
1040
2.0
1070
140
1040
3.5
1070
281
1070
0
1070
282
1070
0
1070
173
1070
1
1070
3
1000
%%c<>
1070
78
1070
8
1002
}
1001
ACAD_DSTYLE_DIM_LINETYPE
1070
380
1005
16
1001
ACAD_DSTYLE_DIM_EXT1_LINETYPE
1070
381
1005
16
1001
ACAD_DSTYLE_DIM_EXT2_LINETYPE
1070
382
1005
16
0
LINE
5
138
330
1F
100
AcDbEntity
67
0
8
40
62
256
6
ByLayer
370
-1
48
1.0
60
0
100
AcDbLine
10
-31.9999998688446
20
3.59999999897475
30
0.0
11
-31.9999998688446
21
-3.60000000102525
31
0.0
39
0.0
210
0.0
220
0.0
230
1.0
0
DIMENSION
5
139
330
1F
100
AcDbEntity
67
0
8
SK2
62
256
6
ByLayer
370
-1
48
1.0
60
0
100
AcDbDimension
2
_U4
10
33.0000001311554
20
74.9874449989748
30
0.0
11
0.50000013115542
21
74.9874449989748
31
0.0
70
32
71
1
72
1
41
1.0
210
0.0
220
0.0
230
1.0
3
NewStyle
100
AcDbAlignedDimension
13
-31.9999998688446
23
-1.88961700102524
33
0.0
14
33.0000001311554
24
-0.00000000102524
34
0.0
50
180.0
100
AcDbRotatedDimension
1001
ACAD
1000
DSTYLE
1002
{
1070
371
1070
13
1070
372
1070
13
1070
144
1040
1.0
1070
277
1070
2
1070
278
1070
44
1070
345
1005
16
1070
347
1005
16
1070
346
1005
16
1070
344
1005
0
1070
343
1005
0
1070
76
1070
0
1070
75
1070
0
1070
340
1005
11
1070
271
1070
3
1070
177
1070
7
1070
176
1070
7
1070
178
1070
7
1070
41
1040
2.5
1070
147
1040
1.75
1070
42
1040
0.0
1070
44
1040
2.0
1070
140
1040
3.5
1070
281
1070
0
1070
282
1070
0
1070
173
1070
1
1070
78
1070
8
1002
}
1001
ACAD_DSTYLE_DIM_LINETYPE
1070
380
1005
16
1001
ACAD_DSTYLE_DIM_EXT1_LINETYPE
1070
381
1005
16
1001
ACAD_DSTYLE_DIM_EXT2_LINETYPE
1070
382
1005
16
0
LINE
5
151
330
1F
100
AcDbEntity
67
0
8
40
62
256
6
ByLayer
370
-1
48
1.0
60
0
100
AcDbLine
10
0.00000013115542
20
3.59999999897475
30
0.0
11
0.00000013115542
21
-3.60000000102525
31
0.0
39
0.0
210
0.0
220
0.0
230
1.0
0
DIMENSION
5
152
330
1F
100
AcDbEntity
67
0
8
2
62
256
6
ByLayer
370
-1
48
1.0
60
0
100
AcDbDimension
2
_U5
10
0.00000013115542
20
59.9874449989748
30
0.0
11
16.5000001311554
21
59.9874449989748
31
0.0
70
32
71
1
72
1
41
1.0
210
0.0
220
0.0
230
1.0
3
NewStyle
100
AcDbAlignedDimension
13
33.0000001311554
23
0.09773099897475
33
0.0
14
0.00000013115542
24
-0.00000000102524
34
0.0
50
0.0
100
AcDbRotatedDimension
1001
ACAD
1000
DSTYLE
1002
{
1070
371
1070
13
1070
372
1070
13
1070
144
1040
1.0
1070
277
1070
2
1070
278
1070
44
1070
345
1005
16
1070
347
1005
16
1070
346
1005
16
1070
344
1005
0
1070
343
1005
0
1070
76
1070
0
1070
75
1070
0
1070
340
1005
11
1070
271
1070
3
1070
177
1070
7
1070
176
1070
7
1070
178
1070
7
1070
41
1040
2.5
1070
147
1040
1.75
1070
42
1040
0.0
1070
44
1040
2.0
1070
140
1040
3.5
1070
281
1070
0
1070
282
1070
0
1070
173
1070
1
1070
78
1070
8
1002
}
1001
ACAD_DSTYLE_DIM_LINETYPE
1070
380
1005
16
1001
ACAD_DSTYLE_DIM_EXT1_LINETYPE
1070
381
1005
16
1001
ACAD_DSTYLE_DIM_EXT2_LINETYPE
1070
382
1005
16
0
ENDSEC
0
SECTION
2
OBJECTS
0
DICTIONARY
5
1D1
330
0
100
AcDbDictionary
280
0
281
1
3
ACAD_GROUP
350
1D2
3
ACAD_LAYOUT
350
1D3
3
ACAD_MLINESTYLE
350
1D7
0
DICTIONARY
5
1D2
330
1D1
100
AcDbDictionary
280
0
281
1
0
DICTIONARY
5
1D3
330
1D1
100
AcDbDictionary
280
0
281
1
3
Layout1
350
1E
3
Layout2
350
26
3
Model
350
22
0
DICTIONARY
5
1D7
330
1D1
100
AcDbDictionary
280
0
281
1
3
Standard
350
18
0
LAYOUT
5
1E
330
1D3
100
AcDbPlotSettings
1

2
none_device
4

6

40
0.0
41
0.0
42
0.0
43
0.0
44
0.0
45
0.0
46
0.0
47
0.0
48
0.0
49
0.0
140
0.0
141
0.0
142
1.0
143
1.0
70
688
72
0
73
0
74
5
7

75
16
147
1.0
148
0.0
149
0.0
100
AcDbLayout
1
Layout1
70
1
71
1
10
-0.5
20
-7.5
11
5.0
21
5.0
12
0.0
22
0.0
32
0.0
14
-0.5
24
-0.5
34
-0.5
15
5.0
25
5.0
35
5.0
146
0.0
13
0.0
23
0.0
33
0.0
16
1.0
26
0.0
36
0.0
17
0.0
27
1.0
37
0.0
76
0
330
1B
0
LAYOUT
5
26
330
1D3
100
AcDbPlotSettings
1

2
none_device
4

6

40
0.0
41
0.0
42
0.0
43
0.0
44
0.0
45
0.0
46
0.0
47
0.0
48
0.0
49
0.0
140
0.0
141
0.0
142
1.0
143
1.0
70
688
72
0
73
0
74
5
7

75
16
147
1.0
148
0.0
149
0.0
100
AcDbLayout
1
Layout2
70
1
71
2
10
0.0
20
-7.5
11
0.0
21
0.0
12
0.0
22
0.0
32
0.0
14
0.0
24
0.0
34
0.0
15
0.0
25
0.0
35
0.0
146
0.0
13
0.0
23
0.0
33
0.0
16
1.0
26
0.0
36
0.0
17
0.0
27
1.0
37
0.0
76
0
330
23
0
LAYOUT
5
22
330
1D3
100
AcDbPlotSettings
1

2
none_device
4
Letter_(8.50_x_11.00_Inches)
6

40
6.35
41
6.35
42
6.350005
43
6.350005
44
215.9
45
279.4
46
0.0
47
0.0
48
0.0
49
0.0
140
0.0
141
0.0
142
1.0
143
1.0
70
1712
72
0
73
0
74
5
7

75
16
147
1.0
148
0.0
149
0.0
100
AcDbLayout
1
Model
70
1
71
3
10
-0.5
20
-7.5
11
5.0
21
5.0
12
0.0
22
0.0
32
0.0
14
-0.5
24
-0.5
34
-0.5
15
5.0
25
5.0
35
5.0
146
0.0
13
0.0
23
0.0
33
0.0
16
1.0
26
0.0
36
0.0
17
0.0
27
1.0
37
0.0
76
0
330
1F
0
MLINESTYLE
5
18
330
1D7
100
AcDbMlineStyle
2
Standard
70
0
3

62
256
51
90.0
52
90.0
71
2
49
-0.5
62
256
6
ByLayer
49
0.5
62
256
6
ByLayer
0
ENDSEC
0
EOF
