0
SECTION
2
HEADER
9
$ACADVER
1
AC1018
9
$DWGCODEPAGE
3
ANSI_1252
9
$LASTSAVEDBY
1
sefagserrule
9
$HANDSEED
5
20A
9
$ANGBASE
50
0.0
9
$ANGDIR
70
0
9
$ATTMODE
70
1
9
$AUNITS
70
0
9
$AUPREC
70
0
9
$CECOLOR
62
256
9
$CELTSCALE
40
1.0
9
$CELTYPE
6
ByLayer
9
$CELWEIGHT
370
13
9
$CLAYER
8
0
9
$CMLJUST
70
0
9
$CMLSCALE
40
1.0
9
$CMLSTYLE
2
Standard
9
$DIMSTYLE
2
Standard
9
$TEXTSIZE
40
0.2
9
$TEXTSTYLE
7
Standard
9
$LUNITS
70
2
9
$LUPREC
70
4
9
$EXTNAMES
290
1
9
$INSBASE
10
0.0
20
0.0
30
0.0
9
$INSUNITS
70
4
9
$LTSCALE
40
1.0
9
$LWDISPLAY
290
0
9
$PDMODE
70
0
9
$PDSIZE
40
0.0
9
$PLINEGEN
70
0
9
$PSLTSCALE
70
1
9
$TDCREATE
40
2460662.36268792
9
$TDUCREATE
40
2460662.32102126
9
$TDUPDATE
40
2460662.36268976
9
$TDUUPDATE
40
2460662.3210231
9
$TDINDWG
40
0.00000001157407
9
$DIMADEC
70
0
9
$DIMAUNIT
70
0
9
$DIMASZ
40
0.18
9
$DIMAZIN
70
3
9
$DIMSAH
70
0
9
$DIMBLK
1

9
$DIMLDRBLK
1

9
$DIMCEN
40
0.09
9
$DIMCLRD
70
0
9
$DIMCLRE
70
0
9
$DIMCLRT
70
0
9
$DIMDEC
70
2
9
$DIMDLE
40
0.0
9
$DIMDLI
40
0.38
9
$DIMDSEP
70
46
9
$DIMEXE
40
0.18
9
$DIMEXO
40
0.0625
9
$DIMGAP
40
0.09
9
$DIMJUST
70
0
9
$DIMLFAC
40
1.0
9
$DIMLUNIT
70
2
9
$DIMLWD
70
-2
9
$DIMLWE
70
-2
9
$DIMPOST
1
<>
9
$DIMRND
40
0.0
9
$DIMSCALE
40
1.0
9
$DIMSD1
70
0
9
$DIMSD2
70
0
9
$DIMSE1
70
0
9
$DIMSE2
70
0
9
$DIMTAD
70
1
9
$DIMTIH
70
0
9
$DIMTOH
70
0
9
$DIMTXT
40
0.18
9
$DIMZIN
70
0
9
$DIMFRAC
70
0
9
$DIMLTYPE
6
ByBlock
9
$DIMLTEX1
6
ByBlock
9
$DIMLTEX2
6
ByBlock
0
ENDSEC
0
SECTION
2
CLASSES
0
CLASS
1
RASTERVARIABLES
2
AcDbRasterVariables
3
ISM
90
0
91
1
280
0
281
0
0
ENDSEC
0
SECTION
2
TABLES
0
TABLE
2
APPID
5
9
330
0
100
AcDbSymbolTable
70
9
0
APPID
5
12
330
9
100
AcDbSymbolTableRecord
100
AcDbRegAppTableRecord
2
ACAD
70
0
0
APPID
5
F7
330
9
100
AcDbSymbolTableRecord
100
AcDbRegAppTableRecord
2
ACAD_DSTYLE_DIMBREAK
70
0
0
APPID
5
1AA
330
9
100
AcDbSymbolTableRecord
100
AcDbRegAppTableRecord
2
ACAD_DSTYLE_DIM_LINETYPE
70
0
0
APPID
5
1AB
330
9
100
AcDbSymbolTableRecord
100
AcDbRegAppTableRecord
2
ACAD_DSTYLE_DIM_EXT1_LINETYPE
70
0
0
APPID
5
1AC
330
9
100
AcDbSymbolTableRecord
100
AcDbRegAppTableRecord
2
ACAD_DSTYLE_DIM_EXT2_LINETYPE
70
0
0
APPID
5
1EC
330
9
100
AcDbSymbolTableRecord
100
AcDbRegAppTableRecord
2
ACAD_MLEADERVER
70
0
0
APPID
5
1FF
330
9
100
AcDbSymbolTableRecord
100
AcDbRegAppTableRecord
2
AcCmTransparency
70
0
0
APPID
5
200
330
9
100
AcDbSymbolTableRecord
100
AcDbRegAppTableRecord
2
GradientColor1ACI
70
0
0
APPID
5
201
330
9
100
AcDbSymbolTableRecord
100
AcDbRegAppTableRecord
2
GradientColor2ACI
70
0
0
ENDTAB
0
TABLE
2
VPORT
5
8
330
0
100
AcDbSymbolTable
70
1
0
VPORT
5
29
330
8
100
AcDbSymbolTableRecord
100
AcDbViewportTableRecord
2
*Active
70
0
74
    3
10
0.0
20
0.0
11
1.0
21
1.0
12
-2.37500186884458
22
32.1289189989748
13
0.0
23
0.0
14
0.5
24
0.5
15
0.5
25
0.5
16
0.0
26
0.0
36
1.0
17
0.0
27
0.0
37
0.0
40
254.0
41
0.069908
75
0
76
0
0
ENDTAB
0
TABLE
2
LTYPE
5
5
330
0
100
AcDbSymbolTable
70
12
0
LTYPE
5
14
330
5
100
AcDbSymbolTableRecord
100
AcDbLinetypeTableRecord
70
0
2
ByBlock
3

72
65
73
0
40
0.0
0
LTYPE
5
15
330
5
100
AcDbSymbolTableRecord
100
AcDbLinetypeTableRecord
70
0
2
ByLayer
3

72
65
73
0
40
0.0
0
LTYPE
5
16
330
5
100
AcDbSymbolTableRecord
100
AcDbLinetypeTableRecord
70
0
2
Continuous
3
Solid line
72
65
73
0
40
0.0
0
LTYPE
5
5F
330
5
100
AcDbSymbolTableRecord
100
AcDbLinetypeTableRecord
70
0
2
ACAD_ISO04W100
3
ISO long-dash dot ____ . ____ . ____ . ____ . _
72
65
73
4
40
30.0
49
24.0
74
0
49
-3.0
74
0
49
0.0
74
0
49
-3.0
74
0
0
LTYPE
5
60
330
5
100
AcDbSymbolTableRecord
100
AcDbLinetypeTableRecord
70
0
2
ACAD_ISO05W100
3
ISO long-dash double-dot ____ .. ____ .. ____ . 
72
65
73
6
40
33.0
49
24.0
74
0
49
-3.0
74
0
49
0.0
74
0
49
-3.0
74
0
49
0.0
74
0
49
-3.0
74
0
0
LTYPE
5
61
330
5
100
AcDbSymbolTableRecord
100
AcDbLinetypeTableRecord
70
0
2
ACAD_ISO06W100
3
ISO long-dash triple-dot ____ ... ____ ... ____
72
65
73
8
40
36.0
49
24.0
74
0
49
-3.0
74
0
49
0.0
74
0
49
-3.0
74
0
49
0.0
74
0
49
-3.0
74
0
49
0.0
74
0
49
-3.0
74
0
0
LTYPE
5
62
330
5
100
AcDbSymbolTableRecord
100
AcDbLinetypeTableRecord
70
0
2
ACAD_ISO09W100
3
ISO long-dash double-short-dash ____ __ __ ____
72
65
73
6
40
45.0
49
24.0
74
0
49
-3.0
74
0
49
6.0
74
0
49
-3.0
74
0
49
6.0
74
0
49
-3.0
74
0
0
LTYPE
5
63
330
5
100
AcDbSymbolTableRecord
100
AcDbLinetypeTableRecord
70
0
2
CENTER
3
____ _ ____ _ ____ _ ____
72
65
73
4
40
47.5
49
22.0
74
0
49
-8.5
74
0
49
8.5
74
0
49
-8.5
74
0
0
LTYPE
5
64
330
5
100
AcDbSymbolTableRecord
100
AcDbLinetypeTableRecord
70
0
2
DASHDOT
3
_._._._._._._._._._._._._._._._.
72
65
73
4
40
70.0
49
31.0
74
0
49
-13.0
74
0
49
13.0
74
0
49
-13.0
74
0
0
LTYPE
5
65
330
5
100
AcDbSymbolTableRecord
100
AcDbLinetypeTableRecord
70
0
2
DASHED
3
__ __ __ __ __ __ __ __ __
72
65
73
2
40
25.72
49
12.86
74
0
49
-12.86
74
0
0
LTYPE
5
66
330
5
100
AcDbSymbolTableRecord
100
AcDbLinetypeTableRecord
70
0
2
DOT
3
.........................
72
65
73
2
40
10.0
49
0.0
74
0
49
-10.0
74
0
0
LTYPE
5
67
330
5
100
AcDbSymbolTableRecord
100
AcDbLinetypeTableRecord
70
0
2
PHANTOM
3
____ _ _ ____ _ _ _____ _ _ ____
72
65
73
6
40
50.5
49
18.0
74
0
49
-6.5
74
0
49
6.5
74
0
49
-6.5
74
0
49
6.5
74
0
49
-6.5
74
0
0
ENDTAB
0
TABLE
2
LAYER
5
2
330
0
100
AcDbSymbolTable
70
11
0
LAYER
5
10
330
2
100
AcDbSymbolTableRecord
100
AcDbLayerTableRecord
2
0
70
0
62
7
6
Continuous
290
1
370
-3
390
0
0
LAYER
5
69
330
2
100
AcDbSymbolTableRecord
100
AcDbLayerTableRecord
2
1
70
0
62
4
6
Continuous
290
1
370
50
390
0
0
LAYER
5
7A
330
2
100
AcDbSymbolTableRecord
100
AcDbLayerTableRecord
2
SK1
70
0
62
4
6
Continuous
290
1
370
50
390
0
0
LAYER
5
82
330
2
100
AcDbSymbolTableRecord
100
AcDbLayerTableRecord
2
4
70
0
62
2
6
CENTER
290
1
370
25
390
0
0
LAYER
5
84
330
2
100
AcDbSymbolTableRecord
100
AcDbLayerTableRecord
2
SK4
70
0
62
2
6
CENTER
290
1
370
25
390
0
0
LAYER
5
C5
330
2
100
AcDbSymbolTableRecord
100
AcDbLayerTableRecord
2
NOCUT
70
0
62
7
6
Continuous
290
1
370
25
390
0
0
LAYER
5
C7
330
2
100
AcDbSymbolTableRecord
100
AcDbLayerTableRecord
2
CUT
70
0
62
1
6
Continuous
290
1
370
25
390
0
0
LAYER
5
F6
330
2
100
AcDbSymbolTableRecord
100
AcDbLayerTableRecord
2
SK6
70
0
62
5
6
Continuous
290
1
370
35
390
0
0
LAYER
5
FE
330
2
100
AcDbSymbolTableRecord
100
AcDbLayerTableRecord
2
Defpoints
70
0
62
7
6
Continuous
290
0
370
-3
390
0
0
LAYER
5
10B
330
2
100
AcDbSymbolTableRecord
100
AcDbLayerTableRecord
2
2
70
0
62
7
6
Continuous
290
1
370
25
390
0
0
LAYER
5
15E
330
2
100
AcDbSymbolTableRecord
100
AcDbLayerTableRecord
2
SK2
70
0
62
7
6
Continuous
290
1
370
25
390
0
0
ENDTAB
0
TABLE
2
STYLE
5
3
330
0
100
AcDbSymbolTable
70
4
0
STYLE
5
11
330
3
100
AcDbSymbolTableRecord
100
AcDbTextStyleTableRecord
2
Standard
3
monos.ttf
70
0
71
0
40
0.0
41
1.0
42
0.0
50
0.0
1001
ACAD
1000
Monospac821 BT
1071
0
0
STYLE
5
F5
330
3
100
AcDbSymbolTableRecord
100
AcDbTextStyleTableRecord
2
DWGDirectTextStyle
3
monos.ttf
70
0
71
0
40
0.0
41
1.0
42
0.0
50
0.0
1001
ACAD
1000
Monospac821 BT
1071
0
0
STYLE
5
1F5
330
3
100
AcDbSymbolTableRecord
100
AcDbTextStyleTableRecord
2
Monospac821 BT
3
monos.ttf
70
0
71
0
40
0.0
41
1.0
42
0.0
50
0.0
1001
ACAD
1000
Monospac821 BT
1071
0
0
STYLE
5
1FC
330
3
100
AcDbSymbolTableRecord
100
AcDbTextStyleTableRecord
2
STANDARD 3.5
3
monos.ttf
70
0
71
0
40
3.5
41
1.0
42
3.5
50
0.0
1001
ACAD
1000
Monospac821 BT
1071
0
0
ENDTAB
0
TABLE
2
DIMSTYLE
5
A
330
0
100
AcDbSymbolTable
70
3
100
AcDbDimStyleTable
0
DIMSTYLE
105
27
330
A
100
AcDbSymbolTableRecord
100
AcDbDimStyleTableRecord
2
Standard
70
0
3
<>
40
1.0
41
0.18
42
0.0625
43
0.38
44
0.18
45
0.0
46
0.0
73
0
74
0
75
0
76
0
77
1
78
0
79
3
140
0.18
141
0.09
144
1.0
147
0.09
176
0
177
0
178
0
179
0
271
2
275
0
276
0
277
2
278
46
280
0
281
0
282
0
340
11
173
0
345
14
346
14
347
14
371
-2
372
-2
0
DIMSTYLE
105
1FD
330
A
100
AcDbSymbolTableRecord
100
AcDbDimStyleTableRecord
2
DimStandard35
70
0
3
<>
40
1.0
41
0.18
42
0.0625
43
0.38
44
0.18
45
0.0
46
0.0
73
0
74
0
75
0
76
0
77
1
78
0
79
0
140
3.5
141
0.09
144
1.0
147
0.09
176
0
177
0
178
0
179
0
271
2
275
0
276
0
277
2
278
46
280
0
281
0
282
0
340
1FC
173
0
345
14
346
14
347
14
371
-2
372
-2
0
DIMSTYLE
105
1FE
330
A
100
AcDbSymbolTableRecord
100
AcDbDimStyleTableRecord
2
NewStyle
70
0
3
<>
40
1.0
41
0.18
42
0.0625
43
0.38
44
0.18
45
0.0
46
0.0
73
0
74
0
75
0
76
0
77
1
78
0
79
0
140
0.18
141
0.09
144
1.0
147
0.09
176
0
177
0
178
0
179
0
271
2
275
0
276
0
277
2
278
46
280
0
281
0
282
0
340
11
173
0
345
14
346
14
347
14
371
-2
372
-2
0
ENDTAB
0
TABLE
2
VIEW
5
6
330
0
100
AcDbSymbolTable
70
0
0
ENDTAB
0
TABLE
2
UCS
5
7
330
0
100
AcDbSymbolTable
70
0
0
ENDTAB
0
TABLE
2
BLOCK_RECORD
5
1
330
0
100
AcDbSymbolTable
70
15
0
BLOCK_RECORD
5
1F
330
1
100
AcDbSymbolTableRecord
100
AcDbBlockTableRecord
2
*Model_Space
340
22
0
BLOCK_RECORD
5
1B
330
1
100
AcDbSymbolTableRecord
100
AcDbBlockTableRecord
2
*Paper_Space
340
1E
0
BLOCK_RECORD
5
23
330
1
100
AcDbSymbolTableRecord
100
AcDbBlockTableRecord
2
*Paper_Space0
340
26
0
BLOCK_RECORD
5
FF
330
1
100
AcDbSymbolTableRecord
100
AcDbBlockTableRecord
2
*D1
340
0
0
BLOCK_RECORD
5
10C
330
1
100
AcDbSymbolTableRecord
100
AcDbBlockTableRecord
2
_U0
340
0
70
0
280
1
281
0
1001
ACAD
1000
DesignCenter Data
1002
{
1070
1
1070
0
1002
}
0
BLOCK_RECORD
5
119
330
1
100
AcDbSymbolTableRecord
100
AcDbBlockTableRecord
2
*D3
340
0
0
BLOCK_RECORD
5
125
330
1
100
AcDbSymbolTableRecord
100
AcDbBlockTableRecord
2
_U1
340
0
70
0
280
1
281
0
1001
ACAD
1000
DesignCenter Data
1002
{
1070
1
1070
0
1002
}
0
BLOCK_RECORD
5
133
330
1
100
AcDbSymbolTableRecord
100
AcDbBlockTableRecord
2
*D5
340
0
0
BLOCK_RECORD
5
141
330
1
100
AcDbSymbolTableRecord
100
AcDbBlockTableRecord
2
_U2
340
0
70
0
280
1
281
0
1001
ACAD
1000
DesignCenter Data
1002
{
1070
1
1070
0
1002
}
0
BLOCK_RECORD
5
150
330
1
100
AcDbSymbolTableRecord
100
AcDbBlockTableRecord
2
*D7
340
0
0
BLOCK_RECORD
5
15F
330
1
100
AcDbSymbolTableRecord
100
AcDbBlockTableRecord
2
_U3
340
0
70
0
280
1
281
0
1001
ACAD
1000
DesignCenter Data
1002
{
1070
1
1070
0
1002
}
0
BLOCK_RECORD
5
16D
330
1
100
AcDbSymbolTableRecord
100
AcDbBlockTableRecord
2
*D9
340
0
0
BLOCK_RECORD
5
179
330
1
100
AcDbSymbolTableRecord
100
AcDbBlockTableRecord
2
_U4
340
0
70
0
280
1
281
0
1001
ACAD
1000
DesignCenter Data
1002
{
1070
1
1070
0
1002
}
0
BLOCK_RECORD
5
186
330
1
100
AcDbSymbolTableRecord
100
AcDbBlockTableRecord
2
*D11
340
0
0
BLOCK_RECORD
5
192
330
1
100
AcDbSymbolTableRecord
100
AcDbBlockTableRecord
2
_U5
340
0
70
0
280
1
281
0
1001
ACAD
1000
DesignCenter Data
1002
{
1070
1
1070
0
1002
}
0
ENDTAB
0
ENDSEC
0
SECTION
2
BLOCKS
0
BLOCK
5
20
330
1F
100
AcDbEntity
8
0
100
AcDbBlockBegin
2
*Model_Space
70
0
10
0.0
20
0.0
30
0.0
3
*Model_Space
0
ENDBLK
5
21
330
1F
100
AcDbEntity
8
0
100
AcDbBlockEnd
0
BLOCK
5
1C
330
1B
100
AcDbEntity
8
0
100
AcDbBlockBegin
2
*Paper_Space
70
0
10
0.0
20
0.0
30
0.0
3
*Paper_Space
0
ENDBLK
5
1D
330
1B
100
AcDbEntity
8
0
100
AcDbBlockEnd
0
BLOCK
5
24
330
23
100
AcDbEntity
67
1
8
0
100
AcDbBlockBegin
2
*Paper_Space0
70
0
10
0.0
20
0.0
30
0.0
3
*Paper_Space0
0
VIEWPORT
5
1FB
330
23
100
AcDbEntity
67
1
8
0
62
256
6
ByLayer
370
-1
48
1.0
60
0
100
AcDbViewport
10
0.0
20
0.0
30
0.0
40
297.0
41
210.0
68
1
69
1
12
50.0
22
100.0
13
0.0
23
0.0
14
10.0
24
10.0
15
10.0
25
10.0
16
0.0
26
0.0
36
1.0
17
0.0
27
0.0
37
0.0
42
50.0
43
0.0
44
0.0
45
250.0
50
0.0
51
0.0
72
1000
90
819232
110
0.0
120
0.0
130
0.0
111
1.0
121
0.0
131
0.0
112
0.0
122
1.0
132
0.0
0
ENDBLK
5
25
330
23
100
AcDbEntity
8
0
100
AcDbBlockEnd
0
BLOCK
5
100
330
FF
100
AcDbEntity
8
0
100
AcDbBlockBegin
2
*D1
70
1
10
0.0
20
0.0
30
0.0
3
*D1
0
LINE
5
102
330
FF
100
AcDbEntity
8
0
62
7
6
ByLayer
370
-2
48
1.0
60
0
100
AcDbLine
10
33.0000001311554
20
-0.50000000102524
30
0.0
11
33.0000001311554
21
46.9874449989748
31
0.0
39
0.0
210
0.0
220
0.0
230
1.0
0
LINE
5
103
330
FF
100
AcDbEntity
8
0
62
7
6
ByLayer
370
-2
48
1.0
60
0
100
AcDbLine
10
2.00000013115542
20
-0.50000000102524
30
0.0
11
2.00000013115542
21
46.9874449989748
31
0.0
39
0.0
210
0.0
220
0.0
230
1.0
0
LINE
5
104
330
FF
100
AcDbEntity
8
0
62
7
6
ByLayer
370
-2
48
1.0
60
0
100
AcDbLine
10
30.5000001311554
20
44.9874449989748
30
0.0
11
4.50000013115542
21
44.9874449989748
31
0.0
39
0.0
210
0.0
220
0.0
230
1.0
0
SOLID
5
105
330
FF
100
AcDbEntity
8
0
62
7
6
ByLayer
370
-1
48
1.0
60
0
100
AcDbTrace
10
30.5000001311554
20
44.5707789989747
30
0.0
11
30.5000001311554
21
45.4041119989748
31
0.0
12
33.0000001311554
22
44.9874449989748
32
0.0
13
33.0000001311554
23
44.9874449989748
33
0.0
39
0.0
210
0.0
220
0.0
230
1.0
0
SOLID
5
106
330
FF
100
AcDbEntity
8
0
62
7
6
ByLayer
370
-1
48
1.0
60
0
100
AcDbTrace
10
4.50000013115542
20
45.4041119989748
30
0.0
11
4.50000013115542
21
44.5707789989747
31
0.0
12
2.00000013115542
22
44.9874449989748
32
0.0
13
2.00000013115542
23
44.9874449989748
33
0.0
39
0.0
210
0.0
220
0.0
230
1.0
0
MTEXT
5
107
330
FF
100
AcDbEntity
8
0
62
7
6
ByLayer
370
13
48
1.0
60
0
100
AcDbMText
10
17.5000001311554
20
50.2986949989748
30
0.0
210
0.0
220
0.0
230
1.0
1
\A1;31
40
3.5
41
0.0
44
1.0
50
0.0
71
5
72
5
7
Monospac821 BT
0
POINT
5
108
330
FF
100
AcDbEntity
8
Defpoints
62
0
6
ByLayer
370
-1
48
1.0
60
0
100
AcDbPoint
10
33.0000001311554
20
-0.50000000102524
30
0.0
39
0.0
210
0.0
220
0.0
230
1.0
50
360.0
0
POINT
5
109
330
FF
100
AcDbEntity
8
Defpoints
62
0
6
ByLayer
370
-1
48
1.0
60
0
100
AcDbPoint
10
2.00000013115542
20
-0.50000000102524
30
0.0
39
0.0
210
0.0
220
0.0
230
1.0
50
360.0
0
POINT
5
10A
330
FF
100
AcDbEntity
8
Defpoints
62
0
6
ByLayer
370
-1
48
1.0
60
0
100
AcDbPoint
10
2.00000013115542
20
44.9874449989748
30
0.0
39
0.0
210
0.0
220
0.0
230
1.0
50
360.0
0
ENDBLK
5
101
330
FF
100
AcDbEntity
8
0
100
AcDbBlockEnd
0
BLOCK
5
113
330
10C
100
AcDbEntity
8
0
100
AcDbBlockBegin
2
_U0
70
0
10
0.0
20
0.0
30
0.0
3
_U0
0
MTEXT
5
10D
330
10C
100
AcDbEntity
8
2
62
7
6
Continuous
370
13
48
1.0
60
0
100
AcDbMText
10
14.4752631311554
20
45.7060609989748
30
0.0
210
0.0
220
0.0
230
1.0
1
\fMonospac821 BT|b0|i0;\W1.0591;31
40
3.5
41
0.0
44
1.072372
50
0.0
71
7
72
5
7
Monospac821 BT
0
LINE
5
10E
330
10C
100
AcDbEntity
8
2
62
7
6
ByLayer
370
13
48
1.0
60
0
100
AcDbLine
10
33.0000001311554
20
0.49999999897476
30
0.0
11
33.0000001311554
21
46.9874449989748
31
0.0
39
0.0
210
0.0
220
0.0
230
1.0
0
LINE
5
10F
330
10C
100
AcDbEntity
8
2
62
7
6
ByLayer
370
13
48
1.0
60
0
100
AcDbLine
10
2.00000013115542
20
0.49999999897476
30
0.0
11
2.00000013115542
21
46.9874449989748
31
0.0
39
0.0
210
0.0
220
0.0
230
1.0
0
LINE
5
110
330
10C
100
AcDbEntity
8
2
62
7
6
ByLayer
370
13
48
1.0
60
0
100
AcDbLine
10
33.0000001311554
20
44.9874449989748
30
0.0
11
2.00000013115542
21
44.9874449989748
31
0.0
39
0.0
210
0.0
220
0.0
230
1.0
0
SOLID
5
111
330
10C
100
AcDbEntity
8
2
62
7
6
ByLayer
370
13
48
1.0
60
0
100
AcDbTrace
10
33.0000001311554
20
44.9874449989748
30
0.0
11
30.5000021311554
21
44.4332089989748
31
0.0
12
30.4999981311554
22
45.5416819989748
32
0.0
13
30.4999981311554
23
45.5416819989748
33
0.0
39
0.0
210
0.0
220
0.0
230
1.0
0
SOLID
5
112
330
10C
100
AcDbEntity
8
2
62
7
6
ByLayer
370
13
48
1.0
60
0
100
AcDbTrace
10
2.00000013115542
20
44.9874449989748
30
0.0
11
4.49999813115542
21
45.5416819989748
31
0.0
12
4.50000213115541
22
44.4332089989748
32
0.0
13
4.50000213115541
23
44.4332089989748
33
0.0
39
0.0
210
0.0
220
0.0
230
1.0
0
ENDBLK
5
114
330
10C
100
AcDbEntity
8
0
100
AcDbBlockEnd
0
BLOCK
5
11A
330
119
100
AcDbEntity
8
0
100
AcDbBlockBegin
2
*D3
70
1
10
0.0
20
0.0
30
0.0
3
*D3
0
LINE
5
11C
330
119
100
AcDbEntity
8
0
62
7
6
ByLayer
370
-2
48
1.0
60
0
100
AcDbLine
10
33.0000001311554
20
-0.00000000102524
30
0.0
11
33.0000001311554
21
31.9874449989748
31
0.0
39
0.0
210
0.0
220
0.0
230
1.0
0
LINE
5
11D
330
119
100
AcDbEntity
8
0
62
7
6
ByLayer
370
-2
48
1.0
60
0
100
AcDbLine
10
17.0000001311554
20
1.75149999897475
30
0.0
11
17.0000001311554
21
31.9874449989748
31
0.0
39
0.0
210
0.0
220
0.0
230
1.0
0
LINE
5
11E
330
119
100
AcDbEntity
8
0
62
7
6
ByLayer
370
-2
48
1.0
60
0
100
AcDbLine
10
30.5000001311554
20
29.9874449989748
30
0.0
11
19.5000001311554
21
29.9874449989748
31
0.0
39
0.0
210
0.0
220
0.0
230
1.0
0
SOLID
5
11F
330
119
100
AcDbEntity
8
0
62
7
6
ByLayer
370
-1
48
1.0
60
0
100
AcDbTrace
10
30.5000001311554
20
29.5707789989747
30
0.0
11
30.5000001311554
21
30.4041119989748
31
0.0
12
33.0000001311554
22
29.9874449989748
32
0.0
13
33.0000001311554
23
29.9874449989748
33
0.0
39
0.0
210
0.0
220
0.0
230
1.0
0
SOLID
5
120
330
119
100
AcDbEntity
8
0
62
7
6
ByLayer
370
-1
48
1.0
60
0
100
AcDbTrace
10
19.5000001311554
20
30.4041119989748
30
0.0
11
19.5000001311554
21
29.5707789989747
31
0.0
12
17.0000001311554
22
29.9874449989748
32
0.0
13
17.0000001311554
23
29.9874449989748
33
0.0
39
0.0
210
0.0
220
0.0
230
1.0
0
MTEXT
5
121
330
119
100
AcDbEntity
8
0
62
7
6
ByLayer
370
13
48
1.0
60
0
100
AcDbMText
10
25.0000001311554
20
35.2986949989748
30
0.0
210
0.0
220
0.0
230
1.0
1
\A1;16
40
3.5
41
0.0
44
1.0
50
0.0
71
5
72
5
7
Monospac821 BT
0
POINT
5
122
330
119
100
AcDbEntity
8
Defpoints
62
0
6
ByLayer
370
-1
48
1.0
60
0
100
AcDbPoint
10
33.0000001311554
20
-0.00000000102524
30
0.0
39
0.0
210
0.0
220
0.0
230
1.0
50
360.0
0
POINT
5
123
330
119
100
AcDbEntity
8
Defpoints
62
0
6
ByLayer
370
-1
48
1.0
60
0
100
AcDbPoint
10
17.0000001311554
20
1.75149999897475
30
0.0
39
0.0
210
0.0
220
0.0
230
1.0
50
360.0
0
POINT
5
124
330
119
100
AcDbEntity
8
Defpoints
62
0
6
ByLayer
370
-1
48
1.0
60
0
100
AcDbPoint
10
17.0000001311554
20
29.9874449989748
30
0.0
39
0.0
210
0.0
220
0.0
230
1.0
50
360.0
0
ENDBLK
5
11B
330
119
100
AcDbEntity
8
0
100
AcDbBlockEnd
0
BLOCK
5
12C
330
125
100
AcDbEntity
8
0
100
AcDbBlockBegin
2
_U1
70
0
10
0.0
20
0.0
30
0.0
3
_U1
0
MTEXT
5
126
330
125
100
AcDbEntity
8
2
62
7
6
Continuous
370
13
48
1.0
60
0
100
AcDbMText
10
21.9752631311554
20
30.7060609989748
30
0.0
210
0.0
220
0.0
230
1.0
1
\fMonospac821 BT|b0|i0;\W1.0591;16
40
3.5
41
0.0
44
1.072372
50
0.0
71
7
72
5
7
Monospac821 BT
0
LINE
5
127
330
125
100
AcDbEntity
8
2
62
7
6
ByLayer
370
13
48
1.0
60
0
100
AcDbLine
10
33.0000001311554
20
0.49999999897476
30
0.0
11
33.0000001311554
21
31.9874449989748
31
0.0
39
0.0
210
0.0
220
0.0
230
1.0
0
LINE
5
128
330
125
100
AcDbEntity
8
2
62
7
6
ByLayer
370
13
48
1.0
60
0
100
AcDbLine
10
17.0000001311554
20
5.24899999897475
30
0.0
11
17.0000001311554
21
31.9874449989748
31
0.0
39
0.0
210
0.0
220
0.0
230
1.0
0
LINE
5
129
330
125
100
AcDbEntity
8
2
62
7
6
ByLayer
370
13
48
1.0
60
0
100
AcDbLine
10
33.0000001311554
20
29.9874449989748
30
0.0
11
17.0000001311554
21
29.9874449989748
31
0.0
39
0.0
210
0.0
220
0.0
230
1.0
0
SOLID
5
12A
330
125
100
AcDbEntity
8
2
62
7
6
ByLayer
370
13
48
1.0
60
0
100
AcDbTrace
10
33.0000001311554
20
29.9874449989748
30
0.0
11
30.5000021311554
21
29.4332089989748
31
0.0
12
30.4999981311554
22
30.5416819989748
32
0.0
13
30.4999981311554
23
30.5416819989748
33
0.0
39
0.0
210
0.0
220
0.0
230
1.0
0
SOLID
5
12B
330
125
100
AcDbEntity
8
2
62
7
6
ByLayer
370
13
48
1.0
60
0
100
AcDbTrace
10
17.0000001311554
20
29.9874449989748
30
0.0
11
19.4999981311554
21
30.5416819989748
31
0.0
12
19.5000021311554
22
29.4332089989748
32
0.0
13
19.5000021311554
23
29.4332089989748
33
0.0
39
0.0
210
0.0
220
0.0
230
1.0
0
ENDBLK
5
12D
330
125
100
AcDbEntity
8
0
100
AcDbBlockEnd
0
BLOCK
5
134
330
133
100
AcDbEntity
8
0
100
AcDbBlockBegin
2
*D5
70
1
10
0.0
20
0.0
30
0.0
3
*D5
0
LINE
5
136
330
133
100
AcDbEntity
8
0
62
7
6
ByLayer
370
-2
48
1.0
60
0
100
AcDbLine
10
31.3409511311554
20
3.50249999897476
30
0.0
11
62.0099251311554
21
3.50249999897476
31
0.0
39
0.0
210
0.0
220
0.0
230
1.0
0
LINE
5
137
330
133
100
AcDbEntity
8
0
62
7
6
ByLayer
370
-2
48
1.0
60
0
100
AcDbLine
10
31.5000001311554
20
-3.50250000102524
30
0.0
11
62.0099251311554
21
-3.50250000102524
31
0.0
39
0.0
210
0.0
220
0.0
230
1.0
0
LINE
5
138
330
133
100
AcDbEntity
8
0
62
7
6
ByLayer
370
-2
48
1.0
60
0
100
AcDbLine
10
60.0099251311554
20
3.50249999897476
30
0.0
11
60.0099251311554
21
40.7467499989747
31
0.0
39
0.0
210
0.0
220
0.0
230
1.0
0
LINE
5
139
330
133
100
AcDbEntity
8
0
62
7
6
ByLayer
370
-2
48
1.0
60
0
100
AcDbLine
10
60.0099251311554
20
6.00249999897476
30
0.0
11
60.0099251311554
21
8.50249999897476
31
0.0
39
0.0
210
0.0
220
0.0
230
1.0
0
LINE
5
13A
330
133
100
AcDbEntity
8
0
62
7
6
ByLayer
370
-2
48
1.0
60
0
100
AcDbLine
10
60.0099251311554
20
-6.00250000102524
30
0.0
11
60.0099251311554
21
-8.50250000102524
31
0.0
39
0.0
210
0.0
220
0.0
230
1.0
0
SOLID
5
13B
330
133
100
AcDbEntity
8
0
62
7
6
ByLayer
370
-1
48
1.0
60
0
100
AcDbTrace
10
59.5932591311554
20
6.00249999897476
30
0.0
11
60.4265921311554
21
6.00249999897476
31
0.0
12
60.0099251311554
22
3.50249999897476
32
0.0
13
60.0099251311554
23
3.50249999897476
33
0.0
39
0.0
210
0.0
220
0.0
230
1.0
0
SOLID
5
13C
330
133
100
AcDbEntity
8
0
62
7
6
ByLayer
370
-1
48
1.0
60
0
100
AcDbTrace
10
60.4265921311554
20
-6.00250000102524
30
0.0
11
59.5932591311554
21
-6.00250000102524
31
0.0
12
60.0099251311554
22
-3.50250000102524
32
0.0
13
60.0099251311554
23
-3.50250000102524
33
0.0
39
0.0
210
0.0
220
0.0
230
1.0
0
MTEXT
5
13D
330
133
100
AcDbEntity
8
0
62
7
6
ByLayer
370
13
48
1.0
60
0
100
AcDbMText
10
54.6986751311554
20
29.9999999989748
30
0.0
210
0.0
220
0.0
230
1.0
1
\A1;7.005
40
3.5
41
0.0
44
1.0
50
90.0
71
5
72
5
7
Monospac821 BT
0
POINT
5
13E
330
133
100
AcDbEntity
8
Defpoints
62
0
6
ByLayer
370
-1
48
1.0
60
0
100
AcDbPoint
10
31.3409511311554
20
3.50249999897476
30
0.0
39
0.0
210
0.0
220
0.0
230
1.0
50
360.0
0
POINT
5
13F
330
133
100
AcDbEntity
8
Defpoints
62
0
6
ByLayer
370
-1
48
1.0
60
0
100
AcDbPoint
10
31.5000001311554
20
-3.50250000102524
30
0.0
39
0.0
210
0.0
220
0.0
230
1.0
50
360.0
0
POINT
5
140
330
133
100
AcDbEntity
8
Defpoints
62
0
6
ByLayer
370
-1
48
1.0
60
0
100
AcDbPoint
10
60.0099251311554
20
-3.50250000102524
30
0.0
39
0.0
210
0.0
220
0.0
230
1.0
50
360.0
0
ENDBLK
5
135
330
133
100
AcDbEntity
8
0
100
AcDbBlockEnd
0
BLOCK
5
149
330
141
100
AcDbEntity
8
0
100
AcDbBlockBegin
2
_U2
70
0
10
0.0
20
0.0
30
0.0
3
_U2
0
MTEXT
5
142
330
141
100
AcDbEntity
8
2
62
7
6
Continuous
370
13
48
1.0
60
0
100
AcDbMText
10
58.9395211311554
20
24.8200899989748
30
0.0
210
0.0
220
0.0
230
1.0
1
\fMonospac821 BT|b0|i0;\W1.0938;7,005
40
3.5
41
0.0
44
1.072372
50
90.0
71
7
72
5
7
Monospac821 BT
0
MTEXT
5
143
330
141
100
AcDbEntity
8
2
62
7
6
Continuous
370
13
48
1.0
60
0
100
AcDbMText
10
58.9395211311554
20
18.9187249989748
30
0.0
210
0.0
220
0.0
230
1.0
1
\fMonospac821 BT|b0|i0;%%c
40
3.5
41
0.0
44
1.072372
50
90.0
71
7
72
5
7
Monospac821 BT
0
LINE
5
144
330
141
100
AcDbEntity
8
2
62
7
6
ByLayer
370
13
48
1.0
60
0
100
AcDbLine
10
31.5000001311554
20
3.50249999897476
30
0.0
11
62.0099251311554
21
3.50249999897476
31
0.0
39
0.0
210
0.0
220
0.0
230
1.0
0
LINE
5
145
330
141
100
AcDbEntity
8
2
62
7
6
ByLayer
370
13
48
1.0
60
0
100
AcDbLine
10
31.5000001311554
20
-3.50250000102524
30
0.0
11
62.0099251311554
21
-3.50250000102524
31
0.0
39
0.0
210
0.0
220
0.0
230
1.0
0
LINE
5
146
330
141
100
AcDbEntity
8
2
62
7
6
ByLayer
370
13
48
1.0
60
0
100
AcDbLine
10
60.0099251311554
20
-3.50250000102524
30
0.0
11
60.0099251311554
21
41.2387749989748
31
0.0
39
0.0
210
0.0
220
0.0
230
1.0
0
SOLID
5
147
330
141
100
AcDbEntity
8
2
62
7
6
ByLayer
370
13
48
1.0
60
0
100
AcDbTrace
10
60.0099251311554
20
3.50249999897476
30
0.0
11
60.5641621311554
21
1.00250199897475
31
0.0
12
59.4556891311554
22
1.00249799897476
32
0.0
13
59.4556891311554
23
1.00249799897476
33
0.0
39
0.0
210
0.0
220
0.0
230
1.0
0
SOLID
5
148
330
141
100
AcDbEntity
8
2
62
7
6
ByLayer
370
13
48
1.0
60
0
100
AcDbTrace
10
60.0099251311554
20
-3.50250000102524
30
0.0
11
59.4556891311554
21
-1.00250200102525
31
0.0
12
60.5641621311554
22
-1.00249800102524
32
0.0
13
60.5641621311554
23
-1.00249800102524
33
0.0
39
0.0
210
0.0
220
0.0
230
1.0
0
ENDBLK
5
14A
330
141
100
AcDbEntity
8
0
100
AcDbBlockEnd
0
BLOCK
5
151
330
150
100
AcDbEntity
8
0
100
AcDbBlockBegin
2
*D7
70
1
10
0.0
20
0.0
30
0.0
3
*D7
0
LINE
5
153
330
150
100
AcDbEntity
8
0
62
7
6
ByLayer
370
-2
48
1.0
60
0
100
AcDbLine
10
-31.3019358688446
20
-4.00000000102524
30
0.0
11
-61.9900748688446
21
-4.00000000102524
31
0.0
39
0.0
210
0.0
220
0.0
230
1.0
0
LINE
5
154
330
150
100
AcDbEntity
8
0
62
7
6
ByLayer
370
-2
48
1.0
60
0
100
AcDbLine
10
-31.4999998688446
20
3.99999999897476
30
0.0
11
-61.9900748688446
21
3.99999999897476
31
0.0
39
0.0
210
0.0
220
0.0
230
1.0
0
LINE
5
155
330
150
100
AcDbEntity
8
0
62
7
6
ByLayer
370
-2
48
1.0
60
0
100
AcDbLine
10
-59.9900748688446
20
3.99999999897476
30
0.0
11
-59.9900748688446
21
34.7039999989748
31
0.0
39
0.0
210
0.0
220
0.0
230
1.0
0
LINE
5
156
330
150
100
AcDbEntity
8
0
62
7
6
ByLayer
370
-2
48
1.0
60
0
100
AcDbLine
10
-59.9900748688446
20
-6.50000000102524
30
0.0
11
-59.9900748688446
21
-9.00000000102524
31
0.0
39
0.0
210
0.0
220
0.0
230
1.0
0
LINE
5
157
330
150
100
AcDbEntity
8
0
62
7
6
ByLayer
370
-2
48
1.0
60
0
100
AcDbLine
10
-59.9900748688446
20
6.49999999897476
30
0.0
11
-59.9900748688446
21
8.99999999897476
31
0.0
39
0.0
210
0.0
220
0.0
230
1.0
0
SOLID
5
158
330
150
100
AcDbEntity
8
0
62
7
6
ByLayer
370
-1
48
1.0
60
0
100
AcDbTrace
10
-59.5734078688446
20
-6.50000000102524
30
0.0
11
-60.4067408688446
21
-6.50000000102524
31
0.0
12
-59.9900748688446
22
-4.00000000102524
32
0.0
13
-59.9900748688446
23
-4.00000000102524
33
0.0
39
0.0
210
0.0
220
0.0
230
1.0
0
SOLID
5
159
330
150
100
AcDbEntity
8
0
62
7
6
ByLayer
370
-1
48
1.0
60
0
100
AcDbTrace
10
-60.4067408688446
20
6.49999999897476
30
0.0
11
-59.5734078688446
21
6.49999999897476
31
0.0
12
-59.9900748688446
22
3.99999999897476
32
0.0
13
-59.9900748688446
23
3.99999999897476
33
0.0
39
0.0
210
0.0
220
0.0
230
1.0
0
MTEXT
5
15A
330
150
100
AcDbEntity
8
0
62
7
6
ByLayer
370
13
48
1.0
60
0
100
AcDbMText
10
-65.3013248688446
20
29.9999999989748
30
0.0
210
0.0
220
0.0
230
1.0
1
\A1;8
40
3.5
41
0.0
44
1.0
50
90.0
71
5
72
5
7
Monospac821 BT
0
POINT
5
15B
330
150
100
AcDbEntity
8
Defpoints
62
0
6
ByLayer
370
-1
48
1.0
60
0
100
AcDbPoint
10
-31.3019358688446
20
-4.00000000102524
30
0.0
39
0.0
210
0.0
220
0.0
230
1.0
50
360.0
0
POINT
5
15C
330
150
100
AcDbEntity
8
Defpoints
62
0
6
ByLayer
370
-1
48
1.0
60
0
100
AcDbPoint
10
-31.4999998688446
20
3.99999999897476
30
0.0
39
0.0
210
0.0
220
0.0
230
1.0
50
360.0
0
POINT
5
15D
330
150
100
AcDbEntity
8
Defpoints
62
0
6
ByLayer
370
-1
48
1.0
60
0
100
AcDbPoint
10
-59.9900748688446
20
3.99999999897476
30
0.0
39
0.0
210
0.0
220
0.0
230
1.0
50
360.0
0
ENDBLK
5
152
330
150
100
AcDbEntity
8
0
100
AcDbBlockEnd
0
BLOCK
5
167
330
15F
100
AcDbEntity
8
0
100
AcDbBlockBegin
2
_U3
70
0
10
0.0
20
0.0
30
0.0
3
_U3
0
MTEXT
5
160
330
15F
100
AcDbEntity
8
SK2
62
7
6
Continuous
370
13
48
1.0
60
0
100
AcDbMText
10
-61.0604788688446
20
31.5905639989748
30
0.0
210
0.0
220
0.0
230
1.0
1
\fMonospac821 BT|b0|i0;\W1.0000;8
40
3.5
41
0.0
44
1.072372
50
90.0
71
7
72
5
7
Monospac821 BT
0
MTEXT
5
161
330
15F
100
AcDbEntity
8
SK2
62
7
6
Continuous
370
13
48
1.0
60
0
100
AcDbMText
10
-61.0604788688446
20
25.6891989989748
30
0.0
210
0.0
220
0.0
230
1.0
1
\fMonospac821 BT|b0|i0;%%c
40
3.5
41
0.0
44
1.072372
50
90.0
71
7
72
5
7
Monospac821 BT
0
LINE
5
162
330
15F
100
AcDbEntity
8
SK2
62
7
6
ByLayer
370
13
48
1.0
60
0
100
AcDbLine
10
-31.4999998688446
20
-4.00000000102524
30
0.0
11
-61.9900748688446
21
-4.00000000102524
31
0.0
39
0.0
210
0.0
220
0.0
230
1.0
0
LINE
5
163
330
15F
100
AcDbEntity
8
SK2
62
7
6
ByLayer
370
13
48
1.0
60
0
100
AcDbLine
10
-31.4999998688446
20
3.99999999897476
30
0.0
11
-61.9900748688446
21
3.99999999897476
31
0.0
39
0.0
210
0.0
220
0.0
230
1.0
0
LINE
5
164
330
15F
100
AcDbEntity
8
SK2
62
7
6
ByLayer
370
13
48
1.0
60
0
100
AcDbLine
10
-59.9900748688446
20
-4.00000000102524
30
0.0
11
-59.9900748688446
21
34.4683009989748
31
0.0
39
0.0
210
0.0
220
0.0
230
1.0
0
SOLID
5
165
330
15F
100
AcDbEntity
8
SK2
62
7
6
ByLayer
370
13
48
1.0
60
0
100
AcDbTrace
10
-59.9900748688446
20
-4.00000000102524
30
0.0
11
-60.5443108688446
21
-1.50000200102525
31
0.0
12
-59.4358378688446
22
-1.49999800102525
32
0.0
13
-59.4358378688446
23
-1.49999800102525
33
0.0
39
0.0
210
0.0
220
0.0
230
1.0
0
SOLID
5
166
330
15F
100
AcDbEntity
8
SK2
62
7
6
ByLayer
370
13
48
1.0
60
0
100
AcDbTrace
10
-59.9900748688446
20
3.99999999897476
30
0.0
11
-59.4358378688446
21
1.50000199897475
31
0.0
12
-60.5443108688446
22
1.49999799897475
32
0.0
13
-60.5443108688446
23
1.49999799897475
33
0.0
39
0.0
210
0.0
220
0.0
230
1.0
0
ENDBLK
5
168
330
15F
100
AcDbEntity
8
0
100
AcDbBlockEnd
0
BLOCK
5
16E
330
16D
100
AcDbEntity
8
0
100
AcDbBlockBegin
2
*D9
70
1
10
0.0
20
0.0
30
0.0
3
*D9
0
LINE
5
170
330
16D
100
AcDbEntity
8
0
62
7
6
ByLayer
370
-2
48
1.0
60
0
100
AcDbLine
10
-31.9999998688446
20
-1.88961700102524
30
0.0
11
-31.9999998688446
21
76.9874449989748
31
0.0
39
0.0
210
0.0
220
0.0
230
1.0
0
LINE
5
171
330
16D
100
AcDbEntity
8
0
62
7
6
ByLayer
370
-2
48
1.0
60
0
100
AcDbLine
10
33.0000001311554
20
-0.00000000102524
30
0.0
11
33.0000001311554
21
76.9874449989748
31
0.0
39
0.0
210
0.0
220
0.0
230
1.0
0
LINE
5
172
330
16D
100
AcDbEntity
8
0
62
7
6
ByLayer
370
-2
48
1.0
60
0
100
AcDbLine
10
-29.4999998688446
20
74.9874449989748
30
0.0
11
30.5000001311554
21
74.9874449989748
31
0.0
39
0.0
210
0.0
220
0.0
230
1.0
0
SOLID
5
173
330
16D
100
AcDbEntity
8
0
62
7
6
ByLayer
370
-1
48
1.0
60
0
100
AcDbTrace
10
-29.4999998688446
20
75.4041119989748
30
0.0
11
-29.4999998688446
21
74.5707789989747
31
0.0
12
-31.9999998688446
22
74.9874449989748
32
0.0
13
-31.9999998688446
23
74.9874449989748
33
0.0
39
0.0
210
0.0
220
0.0
230
1.0
0
SOLID
5
174
330
16D
100
AcDbEntity
8
0
62
7
6
ByLayer
370
-1
48
1.0
60
0
100
AcDbTrace
10
30.5000001311554
20
74.5707789989747
30
0.0
11
30.5000001311554
21
75.4041119989748
31
0.0
12
33.0000001311554
22
74.9874449989748
32
0.0
13
33.0000001311554
23
74.9874449989748
33
0.0
39
0.0
210
0.0
220
0.0
230
1.0
0
MTEXT
5
175
330
16D
100
AcDbEntity
8
0
62
7
6
ByLayer
370
13
48
1.0
60
0
100
AcDbMText
10
0.50000013115542
20
80.2986949989748
30
0.0
210
0.0
220
0.0
230
1.0
1
\A1;65
40
3.5
41
0.0
44
1.0
50
0.0
71
5
72
5
7
Monospac821 BT
0
POINT
5
176
330
16D
100
AcDbEntity
8
Defpoints
62
0
6
ByLayer
370
-1
48
1.0
60
0
100
AcDbPoint
10
-31.9999998688446
20
-1.88961700102524
30
0.0
39
0.0
210
0.0
220
0.0
230
1.0
50
360.0
0
POINT
5
177
330
16D
100
AcDbEntity
8
Defpoints
62
0
6
ByLayer
370
-1
48
1.0
60
0
100
AcDbPoint
10
33.0000001311554
20
-0.00000000102524
30
0.0
39
0.0
210
0.0
220
0.0
230
1.0
50
360.0
0
POINT
5
178
330
16D
100
AcDbEntity
8
Defpoints
62
0
6
ByLayer
370
-1
48
1.0
60
0
100
AcDbPoint
10
33.0000001311554
20
74.9874449989748
30
0.0
39
0.0
210
0.0
220
0.0
230
1.0
50
360.0
0
ENDBLK
5
16F
330
16D
100
AcDbEntity
8
0
100
AcDbBlockEnd
0
BLOCK
5
180
330
179
100
AcDbEntity
8
0
100
AcDbBlockBegin
2
_U4
70
0
10
0.0
20
0.0
30
0.0
3
_U4
0
MTEXT
5
17A
330
179
100
AcDbEntity
8
SK2
62
7
6
Continuous
370
13
48
1.0
60
0
100
AcDbMText
10
-2.5247368688446
20
75.7060609989748
30
0.0
210
0.0
220
0.0
230
1.0
1
\fMonospac821 BT|b0|i0;\W1.0591;65
40
3.5
41
0.0
44
1.072372
50
0.0
71
7
72
5
7
Monospac821 BT
0
LINE
5
17B
330
179
100
AcDbEntity
8
SK2
62
7
6
ByLayer
370
13
48
1.0
60
0
100
AcDbLine
10
33.0000001311554
20
0.49999999897476
30
0.0
11
33.0000001311554
21
76.9874449989748
31
0.0
39
0.0
210
0.0
220
0.0
230
1.0
0
LINE
5
17C
330
179
100
AcDbEntity
8
SK2
62
7
6
ByLayer
370
13
48
1.0
60
0
100
AcDbLine
10
-31.9999998688446
20
3.59999999897475
30
0.0
11
-31.9999998688446
21
76.9874449989748
31
0.0
39
0.0
210
0.0
220
0.0
230
1.0
0
LINE
5
17D
330
179
100
AcDbEntity
8
SK2
62
7
6
ByLayer
370
13
48
1.0
60
0
100
AcDbLine
10
33.0000001311554
20
74.9874449989748
30
0.0
11
-31.9999998688446
21
74.9874449989748
31
0.0
39
0.0
210
0.0
220
0.0
230
1.0
0
SOLID
5
17E
330
179
100
AcDbEntity
8
SK2
62
7
6
ByLayer
370
13
48
1.0
60
0
100
AcDbTrace
10
33.0000001311554
20
74.9874449989748
30
0.0
11
30.5000021311554
21
74.4332089989748
31
0.0
12
30.4999981311554
22
75.5416819989748
32
0.0
13
30.4999981311554
23
75.5416819989748
33
0.0
39
0.0
210
0.0
220
0.0
230
1.0
0
SOLID
5
17F
330
179
100
AcDbEntity
8
SK2
62
7
6
ByLayer
370
13
48
1.0
60
0
100
AcDbTrace
10
-31.9999998688446
20
74.9874449989748
30
0.0
11
-29.5000018688446
21
75.5416819989748
31
0.0
12
-29.4999978688446
22
74.4332089989748
32
0.0
13
-29.4999978688446
23
74.4332089989748
33
0.0
39
0.0
210
0.0
220
0.0
230
1.0
0
ENDBLK
5
181
330
179
100
AcDbEntity
8
0
100
AcDbBlockEnd
0
BLOCK
5
187
330
186
100
AcDbEntity
8
0
100
AcDbBlockBegin
2
*D11
70
1
10
0.0
20
0.0
30
0.0
3
*D11
0
LINE
5
189
330
186
100
AcDbEntity
8
0
62
7
6
ByLayer
370
-2
48
1.0
60
0
100
AcDbLine
10
33.0000001311554
20
0.09773099897475
30
0.0
11
33.0000001311554
21
61.9874449989748
31
0.0
39
0.0
210
0.0
220
0.0
230
1.0
0
LINE
5
18A
330
186
100
AcDbEntity
8
0
62
7
6
ByLayer
370
-2
48
1.0
60
0
100
AcDbLine
10
0.00000013115542
20
-0.00000000102524
30
0.0
11
0.00000013115542
21
61.9874449989748
31
0.0
39
0.0
210
0.0
220
0.0
230
1.0
0
LINE
5
18B
330
186
100
AcDbEntity
8
0
62
7
6
ByLayer
370
-2
48
1.0
60
0
100
AcDbLine
10
30.5000001311554
20
59.9874449989748
30
0.0
11
2.50000013115542
21
59.9874449989748
31
0.0
39
0.0
210
0.0
220
0.0
230
1.0
0
SOLID
5
18C
330
186
100
AcDbEntity
8
0
62
7
6
ByLayer
370
-1
48
1.0
60
0
100
AcDbTrace
10
30.5000001311554
20
59.5707789989747
30
0.0
11
30.5000001311554
21
60.4041119989748
31
0.0
12
33.0000001311554
22
59.9874449989748
32
0.0
13
33.0000001311554
23
59.9874449989748
33
0.0
39
0.0
210
0.0
220
0.0
230
1.0
0
SOLID
5
18D
330
186
100
AcDbEntity
8
0
62
7
6
ByLayer
370
-1
48
1.0
60
0
100
AcDbTrace
10
2.50000013115542
20
60.4041119989748
30
0.0
11
2.50000013115542
21
59.5707789989747
31
0.0
12
0.00000013115542
22
59.9874449989748
32
0.0
13
0.00000013115542
23
59.9874449989748
33
0.0
39
0.0
210
0.0
220
0.0
230
1.0
0
MTEXT
5
18E
330
186
100
AcDbEntity
8
0
62
7
6
ByLayer
370
13
48
1.0
60
0
100
AcDbMText
10
16.5000001311554
20
65.2986949989748
30
0.0
210
0.0
220
0.0
230
1.0
1
\A1;33
40
3.5
41
0.0
44
1.0
50
0.0
71
5
72
5
7
Monospac821 BT
0
POINT
5
18F
330
186
100
AcDbEntity
8
Defpoints
62
0
6
ByLayer
370
-1
48
1.0
60
0
100
AcDbPoint
10
33.0000001311554
20
0.09773099897475
30
0.0
39
0.0
210
0.0
220
0.0
230
1.0
50
360.0
0
POINT
5
190
330
186
100
AcDbEntity
8
Defpoints
62
0
6
ByLayer
370
-1
48
1.0
60
0
100
AcDbPoint
10
0.00000013115542
20
-0.00000000102524
30
0.0
39
0.0
210
0.0
220
0.0
230
1.0
50
360.0
0
POINT
5
191
330
186
100
AcDbEntity
8
Defpoints
62
0
6
ByLayer
370
-1
48
1.0
60
0
100
AcDbPoint
10
0.00000013115542
20
59.9874449989748
30
0.0
39
0.0
210
0.0
220
0.0
230
1.0
50
360.0
0
ENDBLK
5
188
330
186
100
AcDbEntity
8
0
100
AcDbBlockEnd
0
BLOCK
5
199
330
192
100
AcDbEntity
8
0
100
AcDbBlockBegin
2
_U5
70
0
10
0.0
20
0.0
30
0.0
3
_U5
0
MTEXT
5
193
330
192
100
AcDbEntity
8
2
62
7
6
Continuous
370
13
48
1.0
60
0
100
AcDbMText
10
13.4752631311554
20
60.7060609989748
30
0.0
210
0.0
220
0.0
230
1.0
1
\fMonospac821 BT|b0|i0;\W1.0591;33
40
3.5
41
0.0
44
1.072372
50
0.0
71
7
72
5
7
Monospac821 BT
0
LINE
5
194
330
192
100
AcDbEntity
8
2
62
7
6
ByLayer
370
13
48
1.0
60
0
100
AcDbLine
10
0.00000013115542
20
3.59999999897475
30
0.0
11
0.00000013115542
21
61.9874449989748
31
0.0
39
0.0
210
0.0
220
0.0
230
1.0
0
LINE
5
195
330
192
100
AcDbEntity
8
2
62
7
6
ByLayer
370
13
48
1.0
60
0
100
AcDbLine
10
33.0000001311554
20
0.49999999897476
30
0.0
11
33.0000001311554
21
61.9874449989748
31
0.0
39
0.0
210
0.0
220
0.0
230
1.0
0
LINE
5
196
330
192
100
AcDbEntity
8
2
62
7
6
ByLayer
370
13
48
1.0
60
0
100
AcDbLine
10
0.00000013115542
20
59.9874449989748
30
0.0
11
33.0000001311554
21
59.9874449989748
31
0.0
39
0.0
210
0.0
220
0.0
230
1.0
0
SOLID
5
197
330
192
100
AcDbEntity
8
2
62
7
6
ByLayer
370
13
48
1.0
60
0
100
AcDbTrace
10
0.00000013115542
20
59.9874449989748
30
0.0
11
2.49999813115542
21
60.5416819989748
31
0.0
12
2.50000213115541
22
59.4332089989748
32
0.0
13
2.50000213115541
23
59.4332089989748
33
0.0
39
0.0
210
0.0
220
0.0
230
1.0
0
SOLID
5
198
330
192
100
AcDbEntity
8
2
62
7
6
ByLayer
370
13
48
1.0
60
0
100
AcDbTrace
10
33.0000001311554
20
59.9874449989748
30
0.0
11
30.5000021311554
21
59.4332089989748
31
0.0
12
30.4999981311554
22
60.5416819989748
32
0.0
13
30.4999981311554
23
60.5416819989748
33
0.0
39
0.0
210
0.0
220
0.0
230
1.0
0
ENDBLK
5
19A
330
192
100
AcDbEntity
8
0
100
AcDbBlockEnd
0
ENDSEC
0
SECTION
2
ENTITIES
0
VIEWPORT
5
1FA
330
1B
100
AcDbEntity
67
1
8
0
62
256
6
ByLayer
370
-1
48
1.0
60
0
100
AcDbViewport
10
0.0
20
0.0
30
0.0
40
297.0
41
210.0
68
1
69
1
12
50.0
22
100.0
13
0.0
23
0.0
14
10.0
24
10.0
15
10.0
25
10.0
16
0.0
26
0.0
36
1.0
17
0.0
27
0.0
37
0.0
42
50.0
43
0.0
44
0.0
45
250.0
50
0.0
51
0.0
72
1000
90
819232
110
0.0
120
0.0
130
0.0
111
1.0
121
0.0
131
0.0
112
0.0
122
1.0
132
0.0
0
LINE
5
68
330
1F
100
AcDbEntity
67
0
8
1
62
256
6
ByLayer
370
-1
48
1.0
60
0
100
AcDbLine
10
17.0000001311554
20
-1.30474300102524
30
0.0
11
17.0000001311554
21
-1.11919700102524
31
0.0
39
0.0
210
0.0
220
0.0
230
1.0
0
LINE
5
6A
330
1F
100
AcDbEntity
67
0
8
1
62
256
6
ByLayer
370
-1
48
1.0
60
0
100
AcDbLine
10
16.5000001311554
20
-0.35671700102525
30
0.0
11
16.5000001311554
21
-0.74818500102525
31
0.0
39
0.0
210
0.0
220
0.0
230
1.0
0
LINE
5
6B
330
1F
100
AcDbEntity
67
0
8
1
62
256
6
ByLayer
370
-1
48
1.0
60
0
100
AcDbLine
10
32.3829381311554
20
-3.11711800102525
30
0.0
11
16.5000001311554
21
-3.11711800102525
31
0.0
39
0.0
210
0.0
220
0.0
230
1.0
0
LINE
5
6C
330
1F
100
AcDbEntity
67
0
8
1
62
256
6
ByLayer
370
-1
48
1.0
60
0
100
AcDbLine
10
32.3875161311554
20
-3.09058300102525
30
0.0
11
32.3829381311554
21
-3.11711800102525
31
0.0
39
0.0
210
0.0
220
0.0
230
1.0
0
LINE
5
6D
330
1F
100
AcDbEntity
67
0
8
1
62
256
6
ByLayer
370
-1
48
1.0
60
0
100
AcDbLine
10
32.3816371311554
20
2.67583799897476
30
0.0
11
32.3875161311554
21
2.66314499897476
31
0.0
39
0.0
210
0.0
220
0.0
230
1.0
0
LINE
5
6E
330
1F
100
AcDbEntity
67
0
8
1
62
256
6
ByLayer
370
-1
48
1.0
60
0
100
AcDbLine
10
33.0000001311554
20
1.71028399897476
30
0.0
11
33.0000001311554
21
2.39221999897475
31
0.0
39
0.0
210
0.0
220
0.0
230
1.0
0
LINE
5
6F
330
1F
100
AcDbEntity
67
0
8
1
62
256
6
ByLayer
370
-1
48
1.0
60
0
100
AcDbLine
10
32.3875161311554
20
2.66314499897476
30
0.0
11
32.6951621311554
21
2.53384099897475
31
0.0
39
0.0
210
0.0
220
0.0
230
1.0
0
LINE
5
70
330
1F
100
AcDbEntity
67
0
8
1
62
256
6
ByLayer
370
-1
48
1.0
60
0
100
AcDbLine
10
32.3875161311554
20
2.66314499897476
30
0.0
11
32.3829381311554
21
2.63403499897476
31
0.0
39
0.0
210
0.0
220
0.0
230
1.0
0
LINE
5
71
330
1F
100
AcDbEntity
67
0
8
1
62
256
6
ByLayer
370
-1
48
1.0
60
0
100
AcDbLine
10
32.3829381311554
20
2.63403499897476
30
0.0
11
32.4733151311554
21
1.93165099897476
31
0.0
39
0.0
210
0.0
220
0.0
230
1.0
0
LINE
5
72
330
1F
100
AcDbEntity
67
0
8
1
62
256
6
ByLayer
370
-1
48
1.0
60
0
100
AcDbLine
10
32.3829381311554
20
2.63403499897476
30
0.0
11
16.5000001311554
21
2.63403499897476
31
0.0
39
0.0
210
0.0
220
0.0
230
1.0
0
LINE
5
73
330
1F
100
AcDbEntity
67
0
8
1
62
256
6
ByLayer
370
-1
48
1.0
60
0
100
AcDbLine
10
32.4733151311554
20
1.93165099897476
30
0.0
11
32.4731181311554
21
1.93089699897476
31
0.0
39
0.0
210
0.0
220
0.0
230
1.0
0
LINE
5
74
330
1F
100
AcDbEntity
67
0
8
1
62
256
6
ByLayer
370
-1
48
1.0
60
0
100
AcDbLine
10
32.4733151311554
20
1.93165099897476
30
0.0
11
33.0000001311554
21
1.71028399897476
31
0.0
39
0.0
210
0.0
220
0.0
230
1.0
0
LINE
5
75
330
1F
100
AcDbEntity
67
0
8
1
62
256
6
ByLayer
370
-1
48
1.0
60
0
100
AcDbLine
10
33.0000001311554
20
-0.92458200102524
30
0.0
11
33.0000001311554
21
-0.02902800102524
31
0.0
39
0.0
210
0.0
220
0.0
230
1.0
0
LINE
5
76
330
1F
100
AcDbEntity
67
0
8
1
62
256
6
ByLayer
370
-1
48
1.0
60
0
100
AcDbLine
10
32.4733151311554
20
-1.17049100102524
30
0.0
11
33.0000001311554
21
-0.92458200102524
31
0.0
39
0.0
210
0.0
220
0.0
230
1.0
0
LINE
5
77
330
1F
100
AcDbEntity
67
0
8
1
62
256
6
ByLayer
370
-1
48
1.0
60
0
100
AcDbLine
10
32.4733151311554
20
-1.17049100102524
30
0.0
11
32.4731181311554
21
-1.17168900102524
31
0.0
39
0.0
210
0.0
220
0.0
230
1.0
0
LINE
5
78
330
1F
100
AcDbEntity
67
0
8
1
62
256
6
ByLayer
370
-1
48
1.0
60
0
100
AcDbLine
10
32.4052961311554
20
-0.33101900102524
30
0.0
11
32.4733151311554
21
-1.17049100102524
31
0.0
39
0.0
210
0.0
220
0.0
230
1.0
0
LINE
5
79
330
1F
100
AcDbEntity
67
0
8
SK1
62
256
6
ByLayer
370
-1
48
1.0
60
0
100
AcDbLine
10
-31.9999998688446
20
-3.60000000102525
30
0.0
11
-31.9999998688446
21
-2.55152400102524
31
0.0
39
0.0
210
0.0
220
0.0
230
1.0
0
LINE
5
7B
330
1F
100
AcDbEntity
67
0
8
SK1
62
256
6
ByLayer
370
-1
48
1.0
60
0
100
AcDbLine
10
0.00000013115542
20
-4.00000000102524
30
0.0
11
0.00000013115542
21
3.99999999897476
31
0.0
39
0.0
210
0.0
220
0.0
230
1.0
0
LINE
5
7C
330
1F
100
AcDbEntity
67
0
8
SK1
62
256
6
ByLayer
370
-1
48
1.0
60
0
100
AcDbLine
10
-31.5999998688446
20
3.99999999897476
30
0.0
11
-31.5999998688446
21
-4.00000000102524
31
0.0
39
0.0
210
0.0
220
0.0
230
1.0
0
LINE
5
7D
330
1F
100
AcDbEntity
67
0
8
1
62
256
6
ByLayer
370
-1
48
1.0
60
0
100
AcDbLine
10
16.2910901311554
20
-3.36196800102525
30
0.0
11
16.2910901311554
21
-2.87248300102524
31
0.0
39
0.0
210
0.0
220
0.0
230
1.0
0
LINE
5
7E
330
1F
100
AcDbEntity
67
0
8
1
62
256
6
ByLayer
370
-1
48
1.0
60
0
100
AcDbLine
10
17.0000001311554
20
-3.48700000102525
30
0.0
11
17.0000001311554
21
-3.48129200102524
31
0.0
39
0.0
210
0.0
220
0.0
230
1.0
0
LINE
5
7F
330
1F
100
AcDbEntity
67
0
8
1
62
256
6
ByLayer
370
-1
48
1.0
60
0
100
AcDbLine
10
0.00000013115542
20
-4.00000000102524
30
0.0
11
0.00000013115542
21
3.99999999897476
31
0.0
39
0.0
210
0.0
220
0.0
230
1.0
0
LINE
5
80
330
1F
100
AcDbEntity
67
0
8
1
62
256
6
ByLayer
370
-1
48
1.0
60
0
100
AcDbLine
10
2.00000013115542
20
-3.36200000102525
30
0.0
11
2.00000013115542
21
-2.54324200102525
31
0.0
39
0.0
210
0.0
220
0.0
230
1.0
0
LINE
5
81
330
1F
100
AcDbEntity
67
0
8
4
62
256
6
ByLayer
370
-1
48
1.0
60
0
100
AcDbLine
10
34.5000001311554
20
-0.00000000102524
30
0.0
11
-1.49999986884458
21
-0.00000000102524
31
0.0
39
0.0
210
0.0
220
0.0
230
1.0
0
LINE
5
83
330
1F
100
AcDbEntity
67
0
8
SK4
62
256
6
ByLayer
370
-1
48
1.0
60
0
100
AcDbLine
10
34.5000001311554
20
-0.00000000102524
30
0.0
11
-33.4999998688446
21
-0.00000000102524
31
0.0
39
0.0
210
0.0
220
0.0
230
1.0
0
LINE
5
85
330
1F
100
AcDbEntity
67
0
8
SK1
62
256
6
ByLayer
370
-1
48
1.0
60
0
100
AcDbLine
10
-31.9999998688446
20
-3.60000000102525
30
0.0
11
-31.5999998688446
21
-4.00000000102524
31
0.0
39
0.0
210
0.0
220
0.0
230
1.0
0
LINE
5
86
330
1F
100
AcDbEntity
67
0
8
SK1
62
256
6
ByLayer
370
-1
48
1.0
60
0
100
AcDbLine
10
-31.5999998688446
20
3.99999999897476
30
0.0
11
-31.9999998688446
21
3.59999999897475
31
0.0
39
0.0
210
0.0
220
0.0
230
1.0
0
LINE
5
87
330
1F
100
AcDbEntity
67
0
8
SK1
62
256
6
ByLayer
370
-1
48
1.0
60
0
100
AcDbLine
10
0.00000013115542
20
3.99999999897476
30
0.0
11
-31.5999998688446
21
3.99999999897476
31
0.0
39
0.0
210
0.0
220
0.0
230
1.0
0
LINE
5
88
330
1F
100
AcDbEntity
67
0
8
SK1
62
256
6
ByLayer
370
-1
48
1.0
60
0
100
AcDbLine
10
-31.5999998688446
20
-4.00000000102524
30
0.0
11
0.00000013115542
21
-4.00000000102524
31
0.0
39
0.0
210
0.0
220
0.0
230
1.0
0
LINE
5
89
330
1F
100
AcDbEntity
67
0
8
1
62
256
6
ByLayer
370
-1
48
1.0
60
0
100
AcDbLine
10
2.00000013115542
20
3.36199999897475
30
0.0
11
0.00000013115542
21
3.99999999897476
31
0.0
39
0.0
210
0.0
220
0.0
230
1.0
0
LINE
5
8A
330
1F
100
AcDbEntity
67
0
8
1
62
256
6
ByLayer
370
-1
48
1.0
60
0
100
AcDbLine
10
0.00000013115542
20
-4.00000000102524
30
0.0
11
2.00000013115542
21
-3.36200000102525
31
0.0
39
0.0
210
0.0
220
0.0
230
1.0
0
LINE
5
8B
330
1F
100
AcDbEntity
67
0
8
1
62
256
6
ByLayer
370
-1
48
1.0
60
0
100
AcDbLine
10
16.5000001311554
20
2.71355899897476
30
0.0
11
16.5000001311554
21
2.19757899897475
31
0.0
39
0.0
210
0.0
220
0.0
230
1.0
0
LINE
5
8C
330
1F
100
AcDbEntity
67
0
8
1
62
256
6
ByLayer
370
-1
48
1.0
60
0
100
AcDbLine
10
17.0000001311554
20
1.79733399897475
30
0.0
11
17.0000001311554
21
1.96395099897475
31
0.0
39
0.0
210
0.0
220
0.0
230
1.0
0
LINE
5
8D
330
1F
100
AcDbEntity
67
0
8
1
62
256
6
ByLayer
370
-1
48
1.0
60
0
100
AcDbLine
10
33.0000001311554
20
1.34050899897476
30
0.0
11
33.0000001311554
21
1.59376899897475
31
0.0
39
0.0
210
0.0
220
0.0
230
1.0
0
LINE
5
8E
330
1F
100
AcDbEntity
67
0
8
1
62
256
6
ByLayer
370
-1
48
1.0
60
0
100
AcDbLine
10
33.0000001311554
20
1.59376899897475
30
0.0
11
32.4999831311554
21
1.80392799897476
31
0.0
39
0.0
210
0.0
220
0.0
230
1.0
0
LINE
5
8F
330
1F
100
AcDbEntity
67
0
8
1
62
256
6
ByLayer
370
-1
48
1.0
60
0
100
AcDbLine
10
33.0000001311554
20
1.59376899897475
30
0.0
11
33.0000001311554
21
1.71028399897476
31
0.0
39
0.0
210
0.0
220
0.0
230
1.0
0
LINE
5
90
330
1F
100
AcDbEntity
67
0
8
1
62
256
6
ByLayer
370
-1
48
1.0
60
0
100
AcDbLine
10
16.2910901311554
20
1.74420199897476
30
0.0
11
8.6459451311554
21
1.74420199897476
31
0.0
39
0.0
210
0.0
220
0.0
230
1.0
0
LINE
5
91
330
1F
100
AcDbEntity
67
0
8
1
62
256
6
ByLayer
370
-1
48
1.0
60
0
100
AcDbLine
10
16.2910901311554
20
1.74420199897476
30
0.0
11
16.2910901311554
21
2.69580799897476
31
0.0
39
0.0
210
0.0
220
0.0
230
1.0
0
LINE
5
92
330
1F
100
AcDbEntity
67
0
8
1
62
256
6
ByLayer
370
-1
48
1.0
60
0
100
AcDbLine
10
10.3582381311554
20
2.99145799897475
30
0.0
11
2.00000013115542
21
2.99145799897475
31
0.0
39
0.0
210
0.0
220
0.0
230
1.0
0
LINE
5
93
330
1F
100
AcDbEntity
67
0
8
1
62
256
6
ByLayer
370
-1
48
1.0
60
0
100
AcDbLine
10
10.3582381311554
20
-2.54324200102525
30
0.0
11
2.00000013115542
21
-2.54324200102525
31
0.0
39
0.0
210
0.0
220
0.0
230
1.0
0
LINE
5
94
330
1F
100
AcDbEntity
67
0
8
1
62
256
6
ByLayer
370
-1
48
1.0
60
0
100
AcDbLine
10
33.0000001311554
20
-1.07861000102524
30
0.0
11
33.0000001311554
21
-0.92458200102524
31
0.0
39
0.0
210
0.0
220
0.0
230
1.0
0
LINE
5
95
330
1F
100
AcDbEntity
67
0
8
1
62
256
6
ByLayer
370
-1
48
1.0
60
0
100
AcDbLine
10
33.0000001311554
20
-1.07861000102524
30
0.0
11
32.4999831311554
21
-1.31206800102524
31
0.0
39
0.0
210
0.0
220
0.0
230
1.0
0
LINE
5
96
330
1F
100
AcDbEntity
67
0
8
1
62
256
6
ByLayer
370
-1
48
1.0
60
0
100
AcDbLine
10
2.00000013115542
20
-1.44264000102524
30
0.0
11
6.92531113115541
21
-1.44264000102524
31
0.0
39
0.0
210
0.0
220
0.0
230
1.0
0
LINE
5
97
330
1F
100
AcDbEntity
67
0
8
1
62
256
6
ByLayer
370
-1
48
1.0
60
0
100
AcDbLine
10
16.2910901311554
20
-1.24572000102525
30
0.0
11
8.6459451311554
21
-1.24572000102525
31
0.0
39
0.0
210
0.0
220
0.0
230
1.0
0
LINE
5
98
330
1F
100
AcDbEntity
67
0
8
1
62
256
6
ByLayer
370
-1
48
1.0
60
0
100
AcDbLine
10
8.39042013115542
20
3.36199999897475
30
0.0
11
2.00000013115542
21
3.36199999897475
31
0.0
39
0.0
210
0.0
220
0.0
230
1.0
0
LINE
5
99
330
1F
100
AcDbEntity
67
0
8
1
62
256
6
ByLayer
370
-1
48
1.0
60
0
100
AcDbLine
10
32.4733151311554
20
-3.49884600102524
30
0.0
11
32.4731181311554
21
-3.49925600102524
31
0.0
39
0.0
210
0.0
220
0.0
230
1.0
0
LINE
5
9A
330
1F
100
AcDbEntity
67
0
8
1
62
256
6
ByLayer
370
-1
48
1.0
60
0
100
AcDbLine
10
2.00000013115542
20
3.35604499897475
30
0.0
11
6.92531113115541
21
3.35604499897475
31
0.0
39
0.0
210
0.0
220
0.0
230
1.0
0
LINE
5
9B
330
1F
100
AcDbEntity
67
0
8
1
62
256
6
ByLayer
370
-1
48
1.0
60
0
100
AcDbLine
10
16.5000001311554
20
-2.91411800102524
30
0.0
11
16.5000001311554
21
-3.35432100102524
31
0.0
39
0.0
210
0.0
220
0.0
230
1.0
0
LINE
5
9C
330
1F
100
AcDbEntity
67
0
8
1
62
256
6
ByLayer
370
-1
48
1.0
60
0
100
AcDbLine
10
16.2910901311554
20
-3.36196800102525
30
0.0
11
8.6459451311554
21
-3.36196800102525
31
0.0
39
0.0
210
0.0
220
0.0
230
1.0
0
LINE
5
9D
330
1F
100
AcDbEntity
67
0
8
SK1
62
256
6
ByLayer
370
-1
48
1.0
60
0
100
AcDbLine
10
-31.9999998688446
20
3.31524399897475
30
0.0
11
-31.9999998688446
21
3.56976899897475
31
0.0
39
0.0
210
0.0
220
0.0
230
1.0
0
LINE
5
9E
330
1F
100
AcDbEntity
67
0
8
SK1
62
256
6
ByLayer
370
-1
48
1.0
60
0
100
AcDbLine
10
-31.9999998688446
20
-2.55152300102525
30
0.0
11
-31.9999998688446
21
-1.76832700102524
31
0.0
39
0.0
210
0.0
220
0.0
230
1.0
0
LINE
5
9F
330
1F
100
AcDbEntity
67
0
8
SK1
62
256
6
ByLayer
370
-1
48
1.0
60
0
100
AcDbLine
10
-31.9999998688446
20
0.48615699897475
30
0.0
11
-31.9999998688446
21
1.43947299897475
31
0.0
39
0.0
210
0.0
220
0.0
230
1.0
0
LINE
5
A0
330
1F
100
AcDbEntity
67
0
8
1
62
256
6
ByLayer
370
-1
48
1.0
60
0
100
AcDbLine
10
16.2910901311554
20
3.36196799897476
30
0.0
11
8.6459451311554
21
3.36196799897476
31
0.0
39
0.0
210
0.0
220
0.0
230
1.0
0
LINE
5
A1
330
1F
100
AcDbEntity
67
0
8
1
62
256
6
ByLayer
370
-1
48
1.0
60
0
100
AcDbLine
10
33.0000001311554
20
-2.97791500102524
30
0.0
11
33.0000001311554
21
-2.48479200102524
31
0.0
39
0.0
210
0.0
220
0.0
230
1.0
0
LINE
5
A2
330
1F
100
AcDbEntity
67
0
8
1
62
256
6
ByLayer
370
-1
48
1.0
60
0
100
AcDbLine
10
32.3829381311554
20
-3.11711800102525
30
0.0
11
32.4733151311554
21
-3.49884600102524
31
0.0
39
0.0
210
0.0
220
0.0
230
1.0
0
LINE
5
A3
330
1F
100
AcDbEntity
67
0
8
1
62
256
6
ByLayer
370
-1
48
1.0
60
0
100
AcDbLine
10
32.4733151311554
20
-3.49884600102524
30
0.0
11
33.0000001311554
21
-2.97791500102524
31
0.0
39
0.0
210
0.0
220
0.0
230
1.0
0
LINE
5
A4
330
1F
100
AcDbEntity
67
0
8
1
62
256
6
ByLayer
370
-1
48
1.0
60
0
100
AcDbLine
10
33.0000001311554
20
-2.48479200102524
30
0.0
11
33.0000001311554
21
-2.21505400102525
31
0.0
39
0.0
210
0.0
220
0.0
230
1.0
0
LINE
5
A5
330
1F
100
AcDbEntity
67
0
8
1
62
256
6
ByLayer
370
-1
48
1.0
60
0
100
AcDbLine
10
32.3875161311554
20
-3.09058300102525
30
0.0
11
33.0000001311554
21
-2.48479200102524
31
0.0
39
0.0
210
0.0
220
0.0
230
1.0
0
LINE
5
A6
330
1F
100
AcDbEntity
67
0
8
1
62
256
6
ByLayer
370
-1
48
1.0
60
0
100
AcDbLine
10
32.2560621311554
20
-2.83190300102524
30
0.0
11
32.3875161311554
21
-3.09058300102525
31
0.0
39
0.0
210
0.0
220
0.0
230
1.0
0
LINE
5
A7
330
1F
100
AcDbEntity
67
0
8
1
62
256
6
ByLayer
370
-1
48
1.0
60
0
100
AcDbLine
10
16.2910901311554
20
-1.24572000102525
30
0.0
11
16.2910901311554
21
-0.33351600102525
31
0.0
39
0.0
210
0.0
220
0.0
230
1.0
0
LINE
5
A8
330
1F
100
AcDbEntity
67
0
8
1
62
256
6
ByLayer
370
-1
48
1.0
60
0
100
AcDbLine
10
10.3582381311554
20
0.22552199897476
30
0.0
11
2.00000013115542
21
0.22552199897476
31
0.0
39
0.0
210
0.0
220
0.0
230
1.0
0
LINE
5
A9
330
1F
100
AcDbEntity
67
0
8
1
62
256
6
ByLayer
370
-1
48
1.0
60
0
100
AcDbLine
10
2.00000013115542
20
1.55705199897476
30
0.0
11
6.92531113115541
21
1.55705199897476
31
0.0
39
0.0
210
0.0
220
0.0
230
1.0
0
LINE
5
AA
330
1F
100
AcDbEntity
67
0
8
1
62
256
6
ByLayer
370
-1
48
1.0
60
0
100
AcDbLine
10
2.00000013115542
20
-1.44264000102524
30
0.0
11
2.00000013115542
21
0.22552199897476
31
0.0
39
0.0
210
0.0
220
0.0
230
1.0
0
LINE
5
AB
330
1F
100
AcDbEntity
67
0
8
1
62
256
6
ByLayer
370
-1
48
1.0
60
0
100
AcDbLine
10
2.00000013115542
20
1.55705199897476
30
0.0
11
2.00000013115542
21
2.99145799897475
31
0.0
39
0.0
210
0.0
220
0.0
230
1.0
0
LINE
5
AC
330
1F
100
AcDbEntity
67
0
8
1
62
256
6
ByLayer
370
-1
48
1.0
60
0
100
AcDbLine
10
2.00000013115542
20
3.36199999897475
30
0.0
11
2.00000013115542
21
3.35604499897475
31
0.0
39
0.0
210
0.0
220
0.0
230
1.0
0
LINE
5
AD
330
1F
100
AcDbEntity
67
0
8
SK1
62
256
6
ByLayer
370
-1
48
1.0
60
0
100
AcDbLine
10
-31.9999998688446
20
-1.76892100102525
30
0.0
11
-31.9999998688446
21
0.49269399897476
31
0.0
39
0.0
210
0.0
220
0.0
230
1.0
0
LINE
5
AE
330
1F
100
AcDbEntity
67
0
8
SK1
62
256
6
ByLayer
370
-1
48
1.0
60
0
100
AcDbLine
10
-31.9999998688446
20
3.59999999897475
30
0.0
11
-31.9999998688446
21
3.56976899897475
31
0.0
39
0.0
210
0.0
220
0.0
230
1.0
0
LINE
5
AF
330
1F
100
AcDbEntity
67
0
8
SK1
62
256
6
ByLayer
370
-1
48
1.0
60
0
100
AcDbLine
10
-31.9999998688446
20
1.43950299897476
30
0.0
11
-31.9999998688446
21
3.31052299897476
31
0.0
39
0.0
210
0.0
220
0.0
230
1.0
0
LINE
5
B0
330
1F
100
AcDbEntity
67
0
8
1
62
256
6
ByLayer
370
-1
48
1.0
60
0
100
AcDbLine
10
33.0000001311554
20
2.41197999897476
30
0.0
11
33.0000001311554
21
3.00796299897476
31
0.0
39
0.0
210
0.0
220
0.0
230
1.0
0
LINE
5
B1
330
1F
100
AcDbEntity
67
0
8
1
62
256
6
ByLayer
370
-1
48
1.0
60
0
100
AcDbLine
10
33.0000001311554
20
3.00796299897476
30
0.0
11
32.4999831311554
21
3.50251699897476
31
0.0
39
0.0
210
0.0
220
0.0
230
1.0
0
LINE
5
B2
330
1F
100
AcDbEntity
67
0
8
1
62
256
6
ByLayer
370
-1
48
1.0
60
0
100
AcDbLine
10
33.0000001311554
20
-3.00796300102525
30
0.0
11
33.0000001311554
21
-2.97791500102524
31
0.0
39
0.0
210
0.0
220
0.0
230
1.0
0
LINE
5
B3
330
1F
100
AcDbEntity
67
0
8
1
62
256
6
ByLayer
370
-1
48
1.0
60
0
100
AcDbLine
10
33.0000001311554
20
-3.00796300102525
30
0.0
11
32.4999831311554
21
-3.50251700102524
31
0.0
39
0.0
210
0.0
220
0.0
230
1.0
0
LINE
5
B4
330
1F
100
AcDbEntity
67
0
8
1
62
256
6
ByLayer
370
-1
48
1.0
60
0
100
AcDbLine
10
2.00000013115542
20
-3.36200000102525
30
0.0
11
8.39042013115542
21
-3.36200000102525
31
0.0
39
0.0
210
0.0
220
0.0
230
1.0
0
ELLIPSE
5
B5
330
1F
100
AcDbEntity
67
0
8
1
62
256
6
ByLayer
370
-1
48
1.0
60
0
100
AcDbEllipse
10
36.1192181311554
20
-0.00246900102525
30
0.0
11
-3.40957371454724
21
3.16253378622037
31
0.0
210
0.0
220
0.0
230
1.0
40
0.443951
41
0.54031678611859
42
0.58313442284345
0
ELLIPSE
5
B6
330
1F
100
AcDbEntity
67
0
8
1
62
256
6
ByLayer
370
-1
48
1.0
60
0
100
AcDbEllipse
10
36.1192191311554
20
0.00070099897475
30
0.0
11
-3.11908754662116
21
-2.39968996908974
31
0.0
210
0.0
220
0.0
230
1.0
40
0.819547
41
-0.41286901578329
42
-0.37005138552703
0
ELLIPSE
5
B7
330
1F
100
AcDbEntity
67
0
8
1
62
256
6
ByLayer
370
-1
48
1.0
60
0
100
AcDbEllipse
10
36.1192181311554
20
0.00361899897476
30
0.0
11
-3.67192935918113
21
-3.48815593971476
31
0.0
210
0.0
220
0.0
230
1.0
40
0.096531
41
0.05824832125604
42
0.10106595722684
0
SPLINE
5
B8
330
1F
100
AcDbEntity
67
0
8
1
62
256
6
ByLayer
370
-1
48
1.0
60
0
100
AcDbSpline
70
4
71
3
42
0.000000001
43
0.0000000001
44
0.0000000001
40
0.0
40
0.0
40
0.0
40
0.0
40
1.0
40
1.0
40
1.0
40
1.0
41
1.0
10
17.0
20
-1.30474252186224
30
0.0
41
1.0
10
16.7636950976361
20
-1.28507236520275
30
0.0
41
1.0
10
16.5273916320158
20
-1.26539840387625
30
0.0
41
1.0
10
16.2910897725476
20
-1.24572019197015
30
0.0
0
SPLINE
5
B9
330
1F
100
AcDbEntity
67
0
8
1
62
256
6
ByLayer
370
-1
48
1.0
60
0
100
AcDbSpline
70
4
71
3
42
0.000000001
43
0.0000000001
44
0.0000000001
40
0.0
40
0.0
40
0.0
40
0.0
40
0.49999999999999
40
0.49999999999999
40
0.75
40
0.75
40
1.0
40
1.0
40
1.0
40
1.0
41
1.0
10
16.9999999999993
20
-1.11919721616565
30
0.0
41
1.0
10
16.9112162036815
20
-1.06481880715805
30
0.0
41
1.0
10
16.8243807194246
20
-1.00767299302484
30
0.0
41
1.0
10
16.6985015696281
20
-0.91574128253285
30
0.0
41
1.0
10
16.6572787286496
20
-0.88405071232874
30
0.0
41
1.0
10
16.5767156638436
20
-0.81799548060924
30
0.0
41
1.0
10
16.5375641724762
20
-0.78378274460034
30
0.0
41
1.0
10
16.500000000004
20
-0.74818464135055
30
0.0
0
SPLINE
5
BA
330
1F
100
AcDbEntity
67
0
8
1
62
256
6
ByLayer
370
-1
48
1.0
60
0
100
AcDbSpline
70
4
71
3
42
0.000000001
43
0.0000000001
44
0.0000000001
40
0.0
40
0.0
40
0.0
40
0.0
40
1.0
40
1.0
40
1.0
40
1.0
41
1.0
10
32.3816366730994
20
2.67583782920475
30
0.0
41
1.0
10
32.4861450980699
20
2.62850539907295
30
0.0
41
1.0
10
32.5906535243481
20
2.58117296687276
30
0.0
41
1.0
10
32.6951619521015
20
2.53384053233965
30
0.0
0
SPLINE
5
BB
330
1F
100
AcDbEntity
67
0
8
1
62
256
6
ByLayer
370
-1
48
1.0
60
0
100
AcDbSpline
70
4
71
3
42
0.000000001
43
0.0000000001
44
0.0000000001
40
0.0
40
0.0
40
0.0
40
0.0
40
0.5
40
0.5
40
0.75
40
0.75
40
0.875
40
0.875
40
0.9375
40
0.9375
40
0.953125
40
0.953125
40
0.96875
40
0.96875
40
1.0
40
1.0
40
1.0
40
1.0
41
1.0
10
32.3816366730994
20
2.67583782920475
30
0.0
41
1.0
10
29.734696707346
20
2.67583761904386
30
0.0
41
1.0
10
27.0877567415925
20
2.67583621067006
30
0.0
41
1.0
10
23.1173467929644
20
2.67583812565636
30
0.0
41
1.0
10
21.7938768100892
20
2.67584003086776
30
0.0
41
1.0
10
19.808671835774
20
2.67583931776146
30
0.0
41
1.0
10
19.1469368428853
20
2.67583756414736
30
0.0
41
1.0
10
18.1543343554364
20
2.67583626795046
30
0.0
41
1.0
10
17.8234668653254
20
2.67583883947175
30
0.0
41
1.0
10
17.4098824989924
20
2.67584010899066
30
0.0
41
1.0
10
17.3271656249529
20
2.67583995602575
30
0.0
41
1.0
10
17.1617318734346
20
2.67583783944555
30
0.0
41
1.0
10
17.0790149769069
20
2.67582584756165
30
0.0
41
1.0
10
16.8308646550936
20
2.67598348419335
30
0.0
41
1.0
10
16.6654317287636
20
2.67641578774416
30
0.0
41
1.0
10
16.5
20
2.67747854972856
30
0.0
0
SPLINE
5
BC
330
1F
100
AcDbEntity
67
0
8
1
62
256
6
ByLayer
370
-1
48
1.0
60
0
100
AcDbSpline
70
4
71
4
42
0.000000001
43
0.0000000001
44
0.0000000001
40
0.0
40
0.0
40
0.0
40
0.0
40
0.0
40
1.0
40
1.0
40
1.0
40
1.0
40
1.0
41
1.0
10
33.0
20
-2.21505370688854
30
0.0
41
1.0
10
33.0
20
-1.98621027482734
30
0.0
41
1.0
10
33.0
20
-1.75736684276605
30
0.0
41
1.0
10
33.0
20
-1.52852341070475
30
0.0
41
1.0
10
33.0
20
-1.29967997864354
30
0.0
0
SPLINE
5
BD
330
1F
100
AcDbEntity
67
0
8
1
62
256
6
ByLayer
370
-1
48
1.0
60
0
100
AcDbSpline
70
4
71
3
42
0.000000001
43
0.0000000001
44
0.0000000001
40
0.0
40
0.0
40
0.0
40
0.0
40
0.03125
40
0.03125
40
0.046875
40
0.046875
40
0.0625
40
0.125
40
0.125
40
0.25
40
0.25
40
0.5
40
0.5
40
1.0
40
1.0
40
1.0
40
1.0
41
1.0
10
16.5
20
-2.83051618270244
30
0.0
41
1.0
10
16.6641240625916
20
-2.83140760028644
30
0.0
41
1.0
10
16.8282490704707
20
-2.83177515431395
30
0.0
41
1.0
10
17.0744373288195
20
-2.83191277002595
30
0.0
41
1.0
10
17.1565001812285
20
-2.83190343071304
30
0.0
41
1.0
10
17.3206258556769
20
-2.83190158252295
30
0.0
41
1.0
10
17.7309400330549
20
-2.83190180714354
30
0.0
41
1.0
10
18.1412542057016
20
-2.83190465378244
30
0.0
41
1.0
10
19.1260082342068
20
-2.83190364232344
30
0.0
41
1.0
10
19.7825109211097
20
-2.83190211166624
30
0.0
41
1.0
10
21.7520189770955
20
-2.83190146274785
30
0.0
41
1.0
10
23.0650243477519
20
-2.83190305474405
30
0.0
41
1.0
10
27.0040404597224
20
-2.83190471492745
30
0.0
41
1.0
10
29.630051201037
20
-2.83190356154604
30
0.0
41
1.0
10
32.2560619423511
20
-2.83190335426944
30
0.0
0
SPLINE
5
BE
330
1F
100
AcDbEntity
67
0
8
1
62
256
6
ByLayer
370
-1
48
1.0
60
0
100
AcDbSpline
70
4
71
3
42
0.000000001
43
0.0000000001
44
0.0000000001
40
0.0
40
0.0
40
0.0
40
0.0
40
1.0
40
1.0
40
1.0
40
1.0
41
1.0
10
32.2560619423511
20
-2.83190335426944
30
0.0
41
1.0
10
32.5040412894438
20
-2.62628679639634
30
0.0
41
1.0
10
32.7520206414674
20
-2.42067024642624
30
0.0
41
1.0
10
33.0
20
-2.21505370688854
30
0.0
0
SPLINE
5
BF
330
1F
100
AcDbEntity
67
0
8
1
62
256
6
ByLayer
370
-1
48
1.0
60
0
100
AcDbSpline
70
4
71
3
42
0.000000001
43
0.0000000001
44
0.0000000001
40
0.0
40
0.0
40
0.0
40
0.0
40
1.0
40
1.0
40
1.0
40
1.0
41
1.0
10
16.5000000000001
20
-2.83051618270254
30
0.0
41
1.0
10
16.5000000000001
20
-2.85838344227784
30
0.0
41
1.0
10
16.5
20
-2.88625070171224
30
0.0
41
1.0
10
16.5
20
-2.91411796100515
30
0.0
0
SPLINE
5
C0
330
1F
100
AcDbEntity
67
0
8
1
62
256
6
ByLayer
370
-1
48
1.0
60
0
100
AcDbSpline
70
4
71
3
42
0.000000001
43
0.0000000001
44
0.0000000001
40
0.0
40
0.0
40
0.0
40
0.0
40
1.0
40
1.0
40
1.0
40
1.0
41
1.0
10
32.6951619521015
20
2.53384053233965
30
0.0
41
1.0
10
32.7967746338884
20
2.48663374964666
30
0.0
41
1.0
10
32.8983873164912
20
2.43942696443736
30
0.0
41
1.0
10
33.0
20
2.39222017643405
30
0.0
0
SPLINE
5
C1
330
1F
100
AcDbEntity
67
0
8
1
62
256
6
ByLayer
370
-1
48
1.0
60
0
100
AcDbSpline
70
4
71
4
42
0.000000001
43
0.0000000001
44
0.0000000001
40
0.0
40
0.0
40
0.0
40
0.0
40
0.0
40
0.5
40
0.5
40
0.5
40
1.0
40
1.0
40
1.0
40
1.0
40
1.0
41
1.0
10
33.0
20
0.45434207256116
30
0.0
41
1.0
10
33.0
20
0.51918872983126
30
0.0
41
0.98596628981892
10
33.0
20
0.63164081426896
30
0.0
41
1.0
10
33.0
20
0.77959459289366
30
0.0
41
1.0
10
33.0
20
1.03873434337845
30
0.0
41
0.98596628981892
10
33.0
20
1.18271939339286
30
0.0
41
1.0
10
33.0
20
1.28569790482136
30
0.0
41
1.0
10
33.0
20
1.34050866797176
30
0.0
0
SPLINE
5
C2
330
1F
100
AcDbEntity
67
0
8
1
62
256
6
ByLayer
370
-1
48
1.0
60
0
100
AcDbSpline
70
4
71
3
42
0.000000001
43
0.0000000001
44
0.0000000001
40
0.0
40
0.0
40
0.0
40
0.0
40
0.03125
40
0.03125
40
0.046875
40
0.046875
40
0.0625
40
0.125
40
0.125
40
0.25
40
0.25
40
0.5
40
0.5
40
1.0
40
1.0
40
1.0
40
1.0
41
1.0
10
16.5
20
-0.32789607762294
30
0.0
41
1.0
10
16.6656783828685
20
-0.32992225910215
30
0.0
41
1.0
10
16.8313578453328
20
-0.33074430507014
30
0.0
41
1.0
10
17.0798778771903
20
-0.33104252448464
30
0.0
41
1.0
10
17.162717997685
20
-0.33101938053194
30
0.0
41
1.0
10
17.3283982007631
20
-0.33101537708174
30
0.0
41
1.0
10
17.7425986986099
20
-0.33101635305864
30
0.0
41
1.0
10
18.1567991918964
20
-0.33102241544725
30
0.0
41
1.0
10
19.1508803910724
20
-0.33101991311895
30
0.0
41
1.0
10
19.8136011916379
20
-0.33101659604094
30
0.0
41
1.0
10
21.8017635884672
20
-0.33101525835494
30
0.0
41
1.0
10
23.1272051863524
20
-0.33101889204424
30
0.0
41
1.0
10
27.1035299800095
20
-0.33102251928834
30
0.0
41
1.0
10
29.754413175782
20
-0.33101982301974
30
0.0
41
1.0
10
32.405296371554
20
-0.33101943611415
30
0.0
0
SPLINE
5
C3
330
1F
100
AcDbEntity
67
0
8
1
62
256
6
ByLayer
370
-1
48
1.0
60
0
100
AcDbSpline
70
4
71
3
42
0.000000001
43
0.0000000001
44
0.0000000001
40
0.0
40
0.0
40
0.0
40
0.0
40
1.0
40
1.0
40
1.0
40
1.0
41
1.0
10
32.405296371554
20
-0.33101943611415
30
0.0
41
1.0
10
32.6035309105195
20
-0.23035555115885
30
0.0
41
1.0
10
32.8017654530492
20
-0.12969167783925
30
0.0
41
1.0
10
33.0
20
-0.02902781895254
30
0.0
0
SPLINE
5
C4
330
1F
100
AcDbEntity
67
0
8
NOCUT
62
256
6
ByLayer
370
-1
48
1.0
60
0
100
AcDbSpline
70
2055
71
3
42
0.000000001
43
0.0000000001
44
0.0000000001
40
0.0
40
0.0
40
0.0
40
0.0
40
0.0838276928
40
0.0838276928
40
0.0838276928
40
0.101132842
40
0.101132842
40
0.101132842
40
0.4446915124
40
0.4446915124
40
0.4446915124
40
0.4951587182
40
0.4951587182
40
0.4951587182
40
0.5913189623
40
0.5913189623
40
0.5913189623
40
1.0
40
1.0
40
1.0
40
1.0
41
1.0
10
17.0
20
-0.00000000000024
30
0.0
41
1.0
10
17.0
20
1.16233333333315
30
0.0
41
1.0
10
17.0
20
2.32466666666646
30
0.0
41
1.0
10
17.0
20
3.48699999999975
30
0.0
41
1.0
10
16.7636965908492
20
3.44533333333315
30
0.0
41
1.0
10
16.5273931816984
20
3.40366666666645
30
0.0
41
1.0
10
16.2910897725476
20
3.36199999999975
30
0.0
41
1.0
10
11.5273931816984
20
3.36199999999985
30
0.0
41
1.0
10
6.76369659084921
20
3.36199999999985
30
0.0
41
1.0
10
2.0
20
3.36199999999985
30
0.0
41
1.0
10
1.3333333333334
20
3.57466666666656
30
0.0
41
1.0
10
0.66666666666671
20
3.78733333333315
30
0.0
41
1.0
10
0.0
20
3.99999999999986
30
0.0
41
1.0
10
0.0
20
2.66666666666656
30
0.0
41
1.0
10
0.0
20
1.33333333333316
30
0.0
41
1.0
10
0.0
20
-0.00000000000014
30
0.0
41
1.0
10
5.6666666666666
20
-0.00000000000014
30
0.0
41
1.0
10
11.3333333333333
20
-0.00000000000014
30
0.0
41
1.0
10
17.0
20
-0.00000000000024
30
0.0
0
SPLINE
5
C6
330
1F
100
AcDbEntity
67
0
8
CUT
62
256
6
ByLayer
370
-1
48
1.0
60
0
100
AcDbSpline
70
2055
71
3
42
0.000000001
43
0.0000000001
44
0.0000000001
40
0.0
40
0.0
40
0.0
40
0.0
40
0.090111242
40
0.090111242
40
0.090111242
40
0.4906632784
40
0.4906632784
40
0.4906632784
40
0.50893637
40
0.50893637
40
0.50893637
40
0.5865271369
40
0.5865271369
40
0.5865271369
40
1.0
40
1.0
40
1.0
40
1.0
41
1.0
10
17.0
20
-0.00000000000024
30
0.0
41
1.0
10
16.9999999999998
20
1.16233333333315
30
0.0
41
1.0
10
16.9999999999997
20
2.32466666666646
30
0.0
41
1.0
10
16.9999999999996
20
3.48699999999975
30
0.0
41
1.0
10
22.1666666666663
20
3.49216666666635
30
0.0
41
1.0
10
27.3333333333331
20
3.49733333333296
30
0.0
41
1.0
10
32.4999999999998
20
3.50249999999956
30
0.0
41
1.0
10
32.6666666666666
20
3.33583333333296
30
0.0
41
1.0
10
32.8333333333333
20
3.16916666666636
30
0.0
41
1.0
10
33.0
20
3.00249999999976
30
0.0
41
1.0
10
33.0
20
2.00166666666635
30
0.0
41
1.0
10
33.0
20
1.00083333333305
30
0.0
41
1.0
10
33.0
20
-0.00000000000024
30
0.0
41
1.0
10
27.6666666666666
20
-0.00000000000024
30
0.0
41
1.0
10
22.3333333333333
20
-0.00000000000024
30
0.0
41
1.0
10
17.0
20
-0.00000000000024
30
0.0
0
SPLINE
5
C8
330
1F
100
AcDbEntity
67
0
8
1
62
256
6
ByLayer
370
-1
48
1.0
60
0
100
AcDbSpline
70
4
71
3
42
0.000000001
43
0.0000000001
44
0.0000000001
40
0.0
40
0.0
40
0.0
40
0.0
40
0.5
40
0.5
40
0.75
40
0.75
40
1.0
40
1.0
40
1.0
40
1.0
41
1.0
10
16.9999999999994
20
1.96395136946086
30
0.0
41
1.0
10
16.9112176821522
20
1.99819310034745
30
0.0
41
1.0
10
16.8243759937071
20
2.03418013758706
30
0.0
41
1.0
10
16.6984732945725
20
2.09208171265536
30
0.0
41
1.0
10
16.6572306910983
20
2.11204773409025
30
0.0
41
1.0
10
16.5766616775296
20
2.15364830807596
30
0.0
41
1.0
10
16.5375697048844
20
2.17515989896836
30
0.0
41
1.0
10
16.5
20
2.19757946805535
30
0.0
0
SPLINE
5
C9
330
1F
100
AcDbEntity
67
0
8
1
62
256
6
ByLayer
370
-1
48
1.0
60
0
100
AcDbSpline
70
4
71
3
42
0.000000001
43
0.0000000001
44
0.0000000001
40
0.0
40
0.0
40
0.0
40
0.0
40
1.0
40
1.0
40
1.0
40
1.0
41
1.0
10
16.2910897725476
20
2.69580829851375
30
0.0
41
1.0
10
16.3607068710982
20
2.70162224624235
30
0.0
41
1.0
10
16.4303438315491
20
2.70753799068626
30
0.0
41
1.0
10
16.5
20
2.71355876248165
30
0.0
0
SPLINE
5
CA
330
1F
100
AcDbEntity
67
0
8
1
62
256
6
ByLayer
370
-1
48
1.0
60
0
100
AcDbSpline
70
4
71
3
42
0.000000001
43
0.0000000001
44
0.0000000001
40
0.0
40
0.0
40
0.0
40
0.0
40
1.0
40
1.0
40
1.0
40
1.0
41
1.0
10
32.4731183668025
20
1.93089701445645
30
0.0
41
1.0
10
27.3154109022922
20
1.94166485176855
30
0.0
41
1.0
10
22.1577046929352
20
1.95266986726055
30
0.0
41
1.0
10
17.0
20
1.96395136946116
30
0.0
0
SPLINE
5
CB
330
1F
100
AcDbEntity
67
0
8
1
62
256
6
ByLayer
370
-1
48
1.0
60
0
100
AcDbSpline
70
4
71
3
42
0.000000001
43
0.0000000001
44
0.0000000001
40
0.0
40
0.0
40
0.0
40
0.0
40
0.41927599036986
40
0.41927599036986
40
1.0
40
1.0
40
1.0
40
1.0
41
1.0
10
32.4999655377656
20
1.80392084272755
30
0.0
41
1.0
10
30.33371107053
20
1.80300030120725
30
0.0
41
1.0
10
28.1674566033169
20
1.80207975025286
30
0.0
41
1.0
10
23.0008014240408
20
1.79988415483815
30
0.0
41
1.0
10
20.0004007119986
20
1.79860910166465
30
0.0
41
1.0
10
17.0
20
1.79733403014745
30
0.0
0
SPLINE
5
CC
330
1F
100
AcDbEntity
67
0
8
1
62
256
6
ByLayer
370
-1
48
1.0
60
0
100
AcDbSpline
70
4
71
3
42
0.000000001
43
0.0000000001
44
0.0000000001
40
0.0
40
0.0
40
0.0
40
0.0
40
1.0
40
1.0
40
1.0
40
1.0
41
1.0
10
17.0
20
1.79733403014745
30
0.0
41
1.0
10
16.7636950976361
20
1.77962695675996
30
0.0
41
1.0
10
16.5273916320159
20
1.76191645841156
30
0.0
41
1.0
10
16.2910897725477
20
1.74420213369176
30
0.0
0
SPLINE
5
CD
330
1F
100
AcDbEntity
67
0
8
1
62
256
6
ByLayer
370
-1
48
1.0
60
0
100
AcDbSpline
70
4
71
3
42
0.000000001
43
0.0000000001
44
0.0000000001
40
0.0
40
0.0
40
0.0
40
0.0
40
0.25
40
0.25
40
0.375
40
0.375
40
0.5
40
0.5
40
0.75
40
0.75
40
0.875
40
0.875
40
1.0
40
1.0
40
1.0
40
1.0
41
1.0
10
10.3582384545328
20
2.99145791021616
30
0.0
41
1.0
10
10.8472528500611
20
2.95156952831346
30
0.0
41
1.0
10
11.3382522347437
20
2.91392260369756
30
0.0
41
1.0
10
12.0774359262837
20
2.86294571765396
30
0.0
41
1.0
10
12.3243492626509
20
2.84685626569066
30
0.0
41
1.0
10
12.8187146208398
20
2.81678050873866
30
0.0
41
1.0
10
13.0660613768893
20
2.80279990317275
30
0.0
41
1.0
10
13.8085804501383
20
2.76433212424266
30
0.0
41
1.0
10
14.3042316122603
20
2.74334615032465
30
0.0
41
1.0
10
15.0486211607964
20
2.71960609728455
30
0.0
41
1.0
10
15.2969028536174
20
2.71297289685386
30
0.0
41
1.0
10
15.7937665204684
20
2.70234988163156
30
0.0
41
1.0
10
16.0423495519479
20
2.69836941814626
30
0.0
41
1.0
10
16.2910897725477
20
2.69580829851375
30
0.0
0
SPLINE
5
CE
330
1F
100
AcDbEntity
67
0
8
1
62
256
6
ByLayer
370
-1
48
1.0
60
0
100
AcDbSpline
70
4
71
3
42
0.000000001
43
0.0000000001
44
0.0000000001
40
0.0
40
0.0
40
0.0
40
0.0
40
0.12500000000002
40
0.12500000000002
40
0.25000000000005
40
0.25000000000005
40
0.31250000000006
40
0.31250000000006
40
0.37500000000007
40
0.37500000000007
40
0.43750000000008
40
0.43750000000008
40
0.50000000000009
40
0.50000000000009
40
0.53125000000009
40
0.53125000000009
40
0.5625000000001
40
0.5625000000001
40
0.59375000000011
40
0.59375000000011
40
0.60937500000011
40
0.60937500000011
40
0.61718750000011
40
0.61718750000011
40
0.62500000000011
40
0.62500000000011
40
0.63281250000011
40
0.63281250000011
40
0.63671875000011
40
0.63671875000011
40
0.64062500000011
40
0.64062500000011
40
0.64257812500011
40
0.64257812500011
40
0.64355468750011
40
0.64355468750011
40
0.64453125000011
40
0.64453125000011
40
0.64550781250011
40
0.64550781250011
40
0.64648437500011
40
0.64648437500011
40
0.64746093750011
40
0.64746093750011
40
0.64843750000011
40
0.64843750000011
40
0.65039062500011
40
0.65039062500011
40
0.65234375000011
40
0.65234375000011
40
0.65625000000011
40
0.65625000000011
40
0.66406250000011
40
0.66406250000011
40
0.67187500000011
40
0.67187500000011
40
0.6875000000001
40
0.6875000000001
40
0.7031250000001
40
0.7031250000001
40
0.71875000000009
40
0.71875000000009
40
0.75000000000008
40
0.75000000000008
40
0.81250000000006
40
0.81250000000006
40
0.87500000000004
40
0.87500000000004
40
1.0
40
1.0
40
1.0
40
1.0
41
1.0
10
10.3582384545327
20
-2.54324248541245
30
0.0
41
1.0
10
10.7023220051291
20
-2.52935671165734
30
0.0
41
1.0
10
11.0466857141592
20
-2.51005003108385
30
0.0
41
1.0
10
11.7361082083302
20
-2.46277158096424
30
0.0
41
1.0
10
12.0811667939098
20
-2.43479614695075
30
0.0
41
1.0
10
12.5993418523564
20
-2.38735228550195
30
0.0
41
1.0
10
12.7722103741509
20
-2.37061393308555
30
0.0
41
1.0
10
13.1178876088609
20
-2.33540410424675
30
0.0
41
1.0
10
13.2906879916981
20
-2.31693634766455
30
0.0
41
1.0
10
13.6362079563119
20
-2.27824952225085
30
0.0
41
1.0
10
13.8089284525951
20
-2.25803691474074
30
0.0
41
1.0
10
14.1542532393838
20
-2.21561600406665
30
0.0
41
1.0
10
14.3268611682868
20
-2.19343311396594
30
0.0
41
1.0
10
14.5855943018347
20
-2.15802088210825
30
0.0
41
1.0
10
14.6718080816169
20
-2.14585493800145
30
0.0
41
1.0
10
14.8441320351806
20
-2.12050132582304
30
0.0
41
1.0
10
14.9302440069776
20
-2.10732634782404
30
0.0
41
1.0
10
15.1022729398125
20
-2.07931062745685
30
0.0
41
1.0
10
15.1881987515233
20
-2.06453236474084
30
0.0
41
1.0
10
15.3167427641755
20
-2.03971557854445
30
0.0
41
1.0
10
15.3595563553648
20
-2.03099203595394
30
0.0
41
1.0
10
15.4235173918217
20
-2.01667216649714
30
0.0
41
1.0
10
15.4447885798164
20
-2.01169093893364
30
0.0
41
1.0
10
15.4871809767195
20
-2.00109846350105
30
0.0
41
1.0
10
15.5083019112669
20
-1.99549575196595
30
0.0
41
1.0
10
15.550230594202
20
-1.98323862597255
30
0.0
41
1.0
10
15.5710616898294
20
-1.97662033467815
30
0.0
41
1.0
10
15.6016996949507
20
-1.96502974506964
30
0.0
41
1.0
10
15.6118044907704
20
-1.96088803419075
30
0.0
41
1.0
10
15.6315494225731
20
-1.95158771026115
30
0.0
41
1.0
10
15.6412048501062
20
-1.94649078997455
30
0.0
41
1.0
10
15.6546064463734
20
-1.93711421629564
30
0.0
41
1.0
10
15.6588849371347
20
-1.93369772669755
30
0.0
41
1.0
10
15.6645436998548
20
-1.92779448415014
30
0.0
41
1.0
10
15.666300914224
20
-1.92568846098524
30
0.0
41
1.0
10
15.6693173370664
20
-1.92118932084105
30
0.0
41
1.0
10
15.6706047350824
20
-1.91874294261355
30
0.0
41
1.0
10
15.6723400182259
20
-1.91359397770314
30
0.0
41
1.0
10
15.6727837823596
20
-1.91084701663195
30
0.0
41
1.0
10
15.6726101354829
20
-1.90542580710664
30
0.0
41
1.0
10
15.6719950126295
20
-1.90271369384375
30
0.0
41
1.0
10
15.6699931663865
20
-1.89765677523015
30
0.0
41
1.0
10
15.6686166288373
20
-1.89528002884474
30
0.0
41
1.0
10
15.6654228079036
20
-1.89083715261025
30
0.0
41
1.0
10
15.663630861396
20
-1.88879704653644
30
0.0
41
1.0
10
15.6578823211371
20
-1.88302321850794
30
0.0
41
1.0
10
15.6535424593912
20
-1.87962312434874
30
0.0
41
1.0
10
15.6446309979557
20
-1.87346678309234
30
0.0
41
1.0
10
15.6400083791762
20
-1.87068216117395
30
0.0
41
1.0
10
15.6258474043244
20
-1.86284379932384
30
0.0
41
1.0
10
15.6160048428879
20
-1.85828986652184
30
0.0
41
1.0
10
15.5860277754599
20
-1.84564878695905
30
0.0
41
1.0
10
15.5656367919701
20
-1.83864653782435
30
0.0
41
1.0
10
15.5245521553931
20
-1.82570367161024
30
0.0
41
1.0
10
15.5038393549505
20
-1.81983022352784
30
0.0
41
1.0
10
15.4414206950149
20
-1.80319282479094
30
0.0
41
1.0
10
15.3994299886632
20
-1.79339575278485
30
0.0
41
1.0
10
15.3151598167744
20
-1.77494941171574
30
0.0
41
1.0
10
15.2729222627046
20
-1.76635391540175
30
0.0
41
1.0
10
15.1883314928973
20
-1.74987971952365
30
0.0
41
1.0
10
15.1459766932094
20
-1.74201057600345
30
0.0
41
1.0
10
15.0187972723919
20
-1.71912564303415
30
0.0
41
1.0
10
14.93386038665
20
-1.70481571816255
30
0.0
41
1.0
10
14.6788197029898
20
-1.66338837190264
30
0.0
41
1.0
10
14.5084808603223
20
-1.63774977724825
30
0.0
41
1.0
10
14.1675945296296
20
-1.58826680788795
30
0.0
41
1.0
10
13.9970862898699
20
-1.56450292707194
30
0.0
41
1.0
10
13.4854793990044
20
-1.49523673680784
30
0.0
41
1.0
10
13.1443021985279
20
-1.45173030015424
30
0.0
41
1.0
10
12.8030609781709
20
-1.41055806268794
30
0.0
0
SPLINE
5
CF
330
1F
100
AcDbEntity
67
0
8
1
62
256
6
ByLayer
370
-1
48
1.0
60
0
100
AcDbSpline
70
4
71
3
42
0.000000001
43
0.0000000001
44
0.0000000001
40
0.0
40
0.0
40
0.0
40
0.0
40
0.04609231552204
40
0.14148308396984
40
0.23687385241763
40
0.28456923664153
40
0.33226462086543
40
0.3441884669214
40
0.35611231297738
40
0.37996000508933
40
0.42765538931322
40
0.61843692620882
40
1.0
40
1.0
40
1.0
40
1.0
41
1.0
10
8.6459449111903
20
1.74420213369176
30
0.0
41
1.0
10
9.00831008324951
20
1.70871871273826
30
0.0
41
1.0
10
10.1246819522926
20
1.60687305305716
30
0.0
41
1.0
10
12.0125216031672
20
1.47295635383506
30
0.0
41
1.0
10
13.926424286655
20
1.38858296072935
30
0.0
41
1.0
10
15.4651779267302
20
1.35141905441685
30
0.0
41
1.0
10
16.3298954935418
20
1.34185232583266
30
0.0
41
1.0
10
16.9085205119592
20
1.34050234222876
30
0.0
41
1.0
10
17.2972792894657
20
1.34051280400176
30
0.0
41
1.0
10
17.980017872245
20
1.34050612283446
30
0.0
41
1.0
10
20.1257270475667
20
1.34051206151146
30
0.0
41
1.0
10
25.1974096133161
20
1.34050595314196
30
0.0
41
1.0
10
29.8789637296766
20
1.34050866797176
30
0.0
41
1.0
10
33.0
20
1.34050866797176
30
0.0
0
SPLINE
5
D0
330
1F
100
AcDbEntity
67
0
8
1
62
256
6
ByLayer
370
-1
48
1.0
60
0
100
AcDbSpline
70
4
71
3
42
0.000000001
43
0.0000000001
44
0.0000000001
40
0.0
40
0.0
40
0.0
40
0.0
40
0.25
40
0.25
40
0.5
40
0.5
40
0.625
40
0.625
40
0.75
40
0.75
40
0.875
40
0.875
40
0.9375
40
0.9375
40
1.0
40
1.0
40
1.0
40
1.0
41
1.0
10
8.6459449111903
20
1.74420213369176
30
0.0
41
1.0
10
8.50072495606381
20
1.74420213369176
30
0.0
41
1.0
10
8.35569062143591
20
1.74145957859245
30
0.0
41
1.0
10
8.06604532531722
20
1.72968598588396
30
0.0
41
1.0
10
7.92143245423031
20
1.72068563569076
30
0.0
41
1.0
10
7.70492229055861
20
1.70101773790975
30
0.0
41
1.0
10
7.6327586740793
20
1.69341473898696
30
0.0
41
1.0
10
7.48903079956972
20
1.67569345403865
30
0.0
41
1.0
10
7.41744716701402
20
1.66558328359736
30
0.0
41
1.0
10
7.27500741404472
20
1.64208028768226
30
0.0
41
1.0
10
7.2041463288104
20
1.62871082436895
30
0.0
41
1.0
10
7.09863889345442
20
1.60507313575826
30
0.0
41
1.0
10
7.0635824343905
20
1.59658470409155
30
0.0
41
1.0
10
6.9938932990616
20
1.57805765514435
30
0.0
41
1.0
10
6.9593793066831
20
1.56805598683066
30
0.0
41
1.0
10
6.92531151312642
20
1.55705167686456
30
0.0
0
SPLINE
5
D1
330
1F
100
AcDbEntity
67
0
8
1
62
256
6
ByLayer
370
-1
48
1.0
60
0
100
AcDbSpline
70
4
71
3
42
0.000000001
43
0.0000000001
44
0.0000000001
40
0.0
40
0.0
40
0.0
40
0.0
40
0.41927599036981
40
0.41927599036981
40
1.0
40
1.0
40
1.0
40
1.0
41
1.0
10
32.4999655377643
20
-1.31205957717134
30
0.0
41
1.0
10
30.3337110705291
20
-1.31103698040904
30
0.0
41
1.0
10
28.1674566033164
20
-1.31001437316664
30
0.0
41
1.0
10
23.0008014240408
20
-1.30757536448215
30
0.0
41
1.0
10
20.0004007119986
20
-1.30615895336085
30
0.0
41
1.0
10
17.0
20
-1.30474252186224
30
0.0
0
SPLINE
5
D2
330
1F
100
AcDbEntity
67
0
8
1
62
256
6
ByLayer
370
-1
48
1.0
60
0
100
AcDbSpline
70
4
71
3
42
0.000000001
43
0.0000000001
44
0.0000000001
40
0.0
40
0.0
40
0.0
40
0.0
40
1.0
40
1.0
40
1.0
40
1.0
41
1.0
10
32.473118366803
20
-1.17168911004684
30
0.0
41
1.0
10
27.3154109022926
20
-1.15458927029985
30
0.0
41
1.0
10
22.1577046929354
20
-1.13711278027924
30
0.0
41
1.0
10
17.0
20
-1.11919721616505
30
0.0
0
SPLINE
5
D3
330
1F
100
AcDbEntity
67
0
8
1
62
256
6
ByLayer
370
-1
48
1.0
60
0
100
AcDbSpline
70
4
71
3
42
0.000000001
43
0.0000000001
44
0.0000000001
40
0.0
40
0.0
40
0.0
40
0.0
40
0.25
40
0.25
40
0.5
40
0.5
40
0.625
40
0.625
40
0.75
40
0.75
40
0.875
40
0.875
40
0.9375
40
0.9375
40
1.0
40
1.0
40
1.0
40
1.0
41
1.0
10
8.6459449111903
20
3.36196755348625
30
0.0
41
1.0
10
8.50072495606381
20
3.36196755348625
30
0.0
41
1.0
10
8.35569062143512
20
3.36198715484616
30
0.0
41
1.0
10
8.06604532531651
20
3.36200631448895
30
0.0
41
1.0
10
7.9214324542296
20
3.36201050645606
30
0.0
41
1.0
10
7.70492229055802
20
3.36182095454755
30
0.0
41
1.0
10
7.6327586740787
20
3.36172328121876
30
0.0
41
1.0
10
7.48903079956912
20
3.36139090565496
30
0.0
41
1.0
10
7.41744716701362
20
3.36115749881405
30
0.0
41
1.0
10
7.2750074140443
20
3.36043521033416
30
0.0
41
1.0
10
7.20414632881
20
3.35995003679126
30
0.0
41
1.0
10
7.09863889345411
20
3.35885463275585
30
0.0
41
1.0
10
7.0635824343901
20
3.35842685400935
30
0.0
41
1.0
10
6.99389329906131
20
3.35739029876615
30
0.0
41
1.0
10
6.95937930668282
20
3.35678411021415
30
0.0
41
1.0
10
6.9253115131261
20
3.35604546637165
30
0.0
0
SPLINE
5
D4
330
1F
100
AcDbEntity
67
0
8
1
62
256
6
ByLayer
370
-1
48
1.0
60
0
100
AcDbSpline
70
4
71
4
42
0.000000001
43
0.0000000001
44
0.0000000001
40
0.0
40
0.0
40
0.0
40
0.0
40
0.0
40
1.0
40
1.0
40
1.0
40
1.0
40
1.0
41
1.0
10
33.0
20
-0.02902781895254
30
0.0
41
1.0
10
33.0
20
0.09181465392585
30
0.0
41
1.0
10
33.0
20
0.21265712680426
30
0.0
41
1.0
10
33.0
20
0.33349959968275
30
0.0
41
1.0
10
33.0
20
0.45434207256116
30
0.0
0
SPLINE
5
D5
330
1F
100
AcDbEntity
67
0
8
1
62
256
6
ByLayer
370
-1
48
1.0
60
0
100
AcDbSpline
70
4
71
3
42
0.000000001
43
0.0000000001
44
0.0000000001
40
0.0
40
0.0
40
0.0
40
0.0
40
1.0
40
1.0
40
1.0
40
1.0
41
1.0
10
32.473118366803
20
-3.49925603507285
30
0.0
41
1.0
10
27.3154109022926
20
-3.49340398051814
30
0.0
41
1.0
10
22.1577046929354
20
-3.48742302546025
30
0.0
41
1.0
10
17.0
20
-3.48129180668134
30
0.0
0
SPLINE
5
D6
330
1F
100
AcDbEntity
67
0
8
1
62
256
6
ByLayer
370
-1
48
1.0
60
0
100
AcDbSpline
70
4
71
3
42
0.000000001
43
0.0000000001
44
0.0000000001
40
0.0
40
0.0
40
0.0
40
0.0
40
0.0420997174194
40
0.0420997174194
40
0.23367977393552
40
0.23367977393552
40
0.42525983045164
40
0.42525983045164
40
0.61683988696776
40
0.61683988696776
40
0.80841994348388
40
0.80841994348388
40
1.0
40
1.0
40
1.0
40
1.0
41
1.0
10
8.8711128280861
20
2.99425607702696
30
0.0
41
1.0
10
8.8438195886574
20
3.00006464788386
30
0.0
41
1.0
10
8.81651992214381
20
3.00580907014286
30
0.0
41
1.0
10
8.66495884710852
20
3.03737268207536
30
0.0
41
1.0
10
8.54058881235511
20
3.06206057021606
30
0.0
41
1.0
10
8.2917717637192
20
3.10998682096286
30
0.0
41
1.0
10
8.1673246429626
20
3.13322242792705
30
0.0
41
1.0
10
7.9184804414912
20
3.17888289579416
30
0.0
41
1.0
10
7.7940828650658
20
3.20130479828426
30
0.0
41
1.0
10
7.54544972866492
20
3.24578083779886
30
0.0
41
1.0
10
7.4212134248489
20
3.26783250229916
30
0.0
41
1.0
10
7.17301841072651
20
3.31189778842416
30
0.0
41
1.0
10
7.04905829721392
20
3.33390878921296
30
0.0
41
1.0
10
6.9253115131244
20
3.35604546637566
30
0.0
0
SPLINE
5
D7
330
1F
100
AcDbEntity
67
0
8
1
62
256
6
ByLayer
370
-1
48
1.0
60
0
100
AcDbSpline
70
4
71
3
42
0.000000001
43
0.0000000001
44
0.0000000001
40
0.0
40
0.0
40
0.0
40
0.0
40
1.0
40
1.0
40
1.0
40
1.0
41
1.0
10
16.5
20
-0.32789607762294
30
0.0
41
1.0
10
16.5
20
-0.33750305120995
30
0.0
41
1.0
10
16.5
20
-0.34711002432755
30
0.0
41
1.0
10
16.5
20
-0.35671699697454
30
0.0
0
SPLINE
5
D8
330
1F
100
AcDbEntity
67
0
8
1
62
256
6
ByLayer
370
-1
48
1.0
60
0
100
AcDbSpline
70
4
71
4
42
0.000000001
43
0.0000000001
44
0.0000000001
40
0.0
40
0.0
40
0.0
40
0.0
40
0.0
40
1.0
40
1.0
40
1.0
40
1.0
40
1.0
41
1.0
10
33.0
20
-1.29967997864354
30
0.0
41
1.0
10
33.0
20
-1.25379296836404
30
0.0
41
0.99821673687214
10
33.0
20
-1.20546116543154
30
0.0
41
0.99655724335075
10
33.0
20
-1.15652546329214
30
0.0
41
0.99556895702012
10
33.0
20
-1.10874764986615
30
0.0
0
SPLINE
5
D9
330
1F
100
AcDbEntity
67
0
8
1
62
256
6
ByLayer
370
-1
48
1.0
60
0
100
AcDbSpline
70
4
71
3
42
0.000000001
43
0.0000000001
44
0.0000000001
40
0.0
40
0.0
40
0.0
40
0.0
40
1.0
40
1.0
40
1.0
40
1.0
41
1.0
10
17.0
20
-3.48699961942265
30
0.0
41
1.0
10
16.7636950976361
20
-3.44533063873484
30
0.0
41
1.0
10
16.5273916320158
20
-3.40365359829464
30
0.0
41
1.0
10
16.2910897725476
20
-3.36196755348665
30
0.0
0
SPLINE
5
DA
330
1F
100
AcDbEntity
67
0
8
1
62
256
6
ByLayer
370
-1
48
1.0
60
0
100
AcDbSpline
70
4
71
3
42
0.000000001
43
0.0000000001
44
0.0000000001
40
0.0
40
0.0
40
0.0
40
0.0
40
0.50000000000001
40
0.50000000000001
40
0.75
40
0.75
40
1.0
40
1.0
40
1.0
40
1.0
41
1.0
10
16.9999999999994
20
-3.48129180668144
30
0.0
41
1.0
10
16.911217678367
20
-3.46268226792914
30
0.0
41
1.0
10
16.8243760023046
20
-3.44312420115334
30
0.0
41
1.0
10
16.6984733517659
20
-3.41165613342724
30
0.0
41
1.0
10
16.6572308718908
20
-3.40080512708565
30
0.0
41
1.0
10
16.5766616943081
20
-3.37819619537625
30
0.0
41
1.0
10
16.5375696879489
20
-3.36650516379234
30
0.0
41
1.0
10
16.5
20
-3.35432068528985
30
0.0
0
SPLINE
5
DB
330
1F
100
AcDbEntity
67
0
8
1
62
256
6
ByLayer
370
-1
48
1.0
60
0
100
AcDbSpline
70
4
71
3
42
0.000000001
43
0.0000000001
44
0.0000000001
40
0.0
40
0.0
40
0.0
40
0.0
40
1.0
40
1.0
40
1.0
40
1.0
41
1.0
10
8.64594491119021
20
-3.36196755348665
30
0.0
41
1.0
10
8.56060095881182
20
-3.36196755348665
30
0.0
41
1.0
10
8.47532111540971
20
-3.36197432333765
30
0.0
41
1.0
10
8.3901106717054
20
-3.36198185037594
30
0.0
0
SPLINE
5
DC
330
1F
100
AcDbEntity
67
0
8
1
62
256
6
ByLayer
370
-1
48
1.0
60
0
100
AcDbSpline
70
4
71
3
42
0.000000001
43
0.0000000001
44
0.0000000001
40
0.0
40
0.0
40
0.0
40
0.0
40
0.25
40
0.25
40
0.375
40
0.375
40
0.5
40
0.5
40
0.75
40
0.75
40
0.875
40
0.875
40
1.0
40
1.0
40
1.0
40
1.0
41
1.0
10
10.3582384545327
20
-2.54324248541245
30
0.0
41
1.0
10
10.8472528500611
20
-2.60040602132324
30
0.0
41
1.0
10
11.3382522347437
20
-2.64759729817494
30
0.0
41
1.0
10
12.0774359262837
20
-2.70697237241325
30
0.0
41
1.0
10
12.3243492626509
20
-2.72484892595375
30
0.0
41
1.0
10
12.8187146208398
20
-2.75715924187415
30
0.0
41
1.0
10
13.0660613768893
20
-2.77158688746104
30
0.0
41
1.0
10
13.8085804501383
20
-2.81022223887484
30
0.0
41
1.0
10
14.3042316122603
20
-2.82980918185754
30
0.0
41
1.0
10
15.0486211607964
20
-2.85145921533035
30
0.0
41
1.0
10
15.2969028536174
20
-2.85738266896884
30
0.0
41
1.0
10
15.7937665204684
20
-2.86678532481474
30
0.0
41
1.0
10
16.0423495519479
20
-2.87025596258924
30
0.0
41
1.0
10
16.2910897725476
20
-2.87248314887694
30
0.0
0
SPLINE
5
DD
330
1F
100
AcDbEntity
67
0
8
1
62
256
6
ByLayer
370
-1
48
1.0
60
0
100
AcDbSpline
70
4
71
3
42
0.000000001
43
0.0000000001
44
0.0000000001
40
0.0
40
0.0
40
0.0
40
0.0
40
1.0
40
1.0
40
1.0
40
1.0
41
1.0
10
16.2910897725476
20
-2.87248314887694
30
0.0
41
1.0
10
16.3607068710982
20
-2.88647488414514
30
0.0
41
1.0
10
16.4303438315491
20
-2.90035210151395
30
0.0
41
1.0
10
16.5
20
-2.91411796100515
30
0.0
0
SPLINE
5
DE
330
1F
100
AcDbEntity
67
0
8
1
62
256
6
ByLayer
370
-1
48
1.0
60
0
100
AcDbSpline
70
4
71
3
42
0.000000001
43
0.0000000001
44
0.0000000001
40
0.0
40
0.0
40
0.0
40
0.0
40
0.62630747206117
40
1.0
40
1.0
40
1.0
40
1.0
41
1.0
10
8.64594491119121
20
3.36196755348605
30
0.0
41
1.0
10
9.00831008325011
20
3.27846657339255
30
0.0
41
1.0
10
9.58900135694972
20
3.15380143297696
30
0.0
41
1.0
10
10.1727287735069
20
3.04305351238206
30
0.0
41
1.0
10
10.3912287762494
20
3.00362000002205
30
0.0
0
SPLINE
5
DF
330
1F
100
AcDbEntity
67
0
8
1
62
256
6
ByLayer
370
-1
48
1.0
60
0
100
AcDbSpline
70
4
71
3
42
0.000000001
43
0.0000000001
44
0.0000000001
40
0.0
40
0.0
40
0.0
40
0.0
40
1.0
40
1.0
40
1.0
40
1.0
41
1.0
10
32.9574404785441
20
2.41198023127966
30
0.0
41
1.0
10
32.9716269856921
20
2.41198023145435
30
0.0
41
1.0
10
32.985813492844
20
2.41198023154236
30
0.0
41
1.0
10
33.0
20
2.41198023154236
30
0.0
0
SPLINE
5
E0
330
1F
100
AcDbEntity
67
0
8
1
62
256
6
ByLayer
370
-1
48
1.0
60
0
100
AcDbSpline
70
4
71
3
42
0.000000001
43
0.0000000001
44
0.0000000001
40
0.0
40
0.0
40
0.0
40
0.0
40
1.0
40
1.0
40
1.0
40
1.0
41
1.0
10
16.2910897725476
20
-0.33351572079114
30
0.0
41
1.0
10
16.3607068710982
20
-0.34144298657145
30
0.0
41
1.0
10
16.4303438315491
20
-0.34917669907804
30
0.0
41
1.0
10
16.5
20
-0.35671699697454
30
0.0
0
SPLINE
5
E1
330
1F
100
AcDbEntity
67
0
8
1
62
256
6
ByLayer
370
-1
48
1.0
60
0
100
AcDbSpline
70
4
71
3
42
0.000000001
43
0.0000000001
44
0.0000000001
40
0.0
40
0.0
40
0.0
40
0.0
40
0.34731266822958
40
0.34731266822958
40
0.69462533645916
40
0.69462533645916
40
0.86828167057395
40
0.86828167057395
40
1.0
40
1.0
40
1.0
40
1.0
41
1.0
10
12.8030609781709
20
-1.41055806268794
30
0.0
41
1.0
10
12.6770596187126
20
-1.39535545062584
30
0.0
41
1.0
10
12.5515180684447
20
-1.37861458260045
30
0.0
41
1.0
10
12.3015299980031
20
-1.34212045900505
30
0.0
41
1.0
10
12.1770865504362
20
-1.32235293484955
30
0.0
41
1.0
10
11.9913262379601
20
-1.29099148502804
30
0.0
41
1.0
10
11.9295561308855
20
-1.28025947157134
30
0.0
41
1.0
10
11.8211947191588
20
-1.26107099960375
30
0.0
41
1.0
10
11.7745552537604
20
-1.25269332911114
30
0.0
41
1.0
10
11.7280822370804
20
-1.24428894175655
30
0.0
0
SPLINE
5
E2
330
1F
100
AcDbEntity
67
0
8
1
62
256
6
ByLayer
370
-1
48
1.0
60
0
100
AcDbSpline
70
4
71
3
42
0.000000001
43
0.0000000001
44
0.0000000001
40
0.0
40
0.0
40
0.0
40
0.0
40
0.23136049192929
40
0.23136049192929
40
0.61568024596465
40
0.61568024596465
40
1.0
40
1.0
40
1.0
40
1.0
41
1.0
10
7.8943577692115
20
-1.28395515663755
30
0.0
41
1.0
10
7.81947280268332
20
-1.29429599518994
30
0.0
41
1.0
10
7.7446048709219
20
-1.30498528601784
30
0.0
41
1.0
10
7.54544972866481
20
-1.33449250431565
30
0.0
41
1.0
10
7.4212134248489
20
-1.35400852482725
30
0.0
41
1.0
10
7.1730184107266
20
-1.39591265810265
30
0.0
41
1.0
10
7.04905829721412
20
-1.41829052944165
30
0.0
41
1.0
10
6.92531151312471
20
-1.44264008466965
30
0.0
0
SPLINE
5
E3
330
1F
100
AcDbEntity
67
0
8
1
62
256
6
ByLayer
370
-1
48
1.0
60
0
100
AcDbSpline
70
4
71
3
42
0.000000001
43
0.0000000001
44
0.0000000001
40
0.0
40
0.0
40
0.0
40
0.0
40
0.35492548349499
40
0.63378877609679
40
0.91265206869859
40
0.98236789184904
40
1.0
40
1.0
40
1.0
40
1.0
41
1.0
10
12.8030609781658
20
-1.41055806268824
30
0.0
41
1.0
10
13.2952566722877
20
-1.38446731815364
30
0.0
41
1.0
10
14.1761278935463
20
-1.34607082451224
30
0.0
41
1.0
10
15.4481304538526
20
-1.31194357558165
30
0.0
41
1.0
10
16.3234051150826
20
-1.30118649161405
30
0.0
41
1.0
10
16.8346869076536
20
-1.29986137943675
30
0.0
41
1.0
10
16.9567452068039
20
-1.29974560337244
30
0.0
41
1.0
10
16.981387603119
20
-1.29972830845614
30
0.0
0
SPLINE
5
E4
330
1F
100
AcDbEntity
67
0
8
1
62
256
6
ByLayer
370
-1
48
1.0
60
0
100
AcDbSpline
70
4
71
3
42
0.000000001
43
0.0000000001
44
0.0000000001
40
0.0
40
0.0
40
0.0
40
0.0
40
1.0
40
1.0
40
1.0
40
1.0
41
1.0
10
32.5265071836446
20
-1.29967996401204
30
0.0
41
1.0
10
32.6843381235119
20
-1.29967997350194
30
0.0
41
1.0
10
32.8421690623663
20
-1.29967997864354
30
0.0
41
1.0
10
33.0
20
-1.29967997864354
30
0.0
0
SPLINE
5
E5
330
1F
100
AcDbEntity
67
0
8
1
62
256
6
ByLayer
370
-1
48
1.0
60
0
100
AcDbSpline
70
4
71
3
42
0.000000001
43
0.0000000001
44
0.0000000001
40
0.0
40
0.0
40
0.0
40
0.0
40
0.25
40
0.25
40
0.5
40
0.5
40
0.625
40
0.625
40
0.75
40
0.75
40
0.875
40
0.875
40
0.9375
40
0.9375
40
1.0
40
1.0
40
1.0
40
1.0
41
1.0
10
8.64594491119021
20
-1.24572019197015
30
0.0
41
1.0
10
8.50072495606372
20
-1.24572019197015
30
0.0
41
1.0
10
8.35569062143591
20
-1.24870503185875
30
0.0
41
1.0
10
8.06604532531722
20
-1.26145818591834
30
0.0
41
1.0
10
7.9214324542302
20
-1.27119762328545
30
0.0
41
1.0
10
7.70492229055861
20
-1.29229545841744
30
0.0
41
1.0
10
7.63275867407921
20
-1.30042849435215
30
0.0
41
1.0
10
7.4890307995696
20
-1.31928763928815
30
0.0
41
1.0
10
7.41744716701402
20
-1.33000617673254
30
0.0
41
1.0
10
7.27500741404461
20
-1.35475601623355
30
0.0
41
1.0
10
7.2041463288104
20
-1.36876550271134
30
0.0
41
1.0
10
7.09863889345442
20
-1.39331339979215
30
0.0
41
1.0
10
7.06358243439041
20
-1.40209662972684
30
0.0
41
1.0
10
6.99389329906151
20
-1.42117126173605
30
0.0
41
1.0
10
6.95937930668302
20
-1.43142510794384
30
0.0
41
1.0
10
6.92531151312642
20
-1.44264008467175
30
0.0
0
SPLINE
5
E6
330
1F
100
AcDbEntity
67
0
8
1
62
256
6
ByLayer
370
-1
48
1.0
60
0
100
AcDbSpline
70
4
71
3
42
0.000000001
43
0.0000000001
44
0.0000000001
40
0.0
40
0.0
40
0.0
40
0.0
40
0.125
40
0.125
40
0.25000000000001
40
0.25000000000001
40
0.31250000000001
40
0.31250000000001
40
0.37500000000001
40
0.37500000000001
40
0.43750000000001
40
0.43750000000001
40
0.50000000000002
40
0.50000000000002
40
0.53125000000002
40
0.53125000000002
40
0.56250000000002
40
0.56250000000002
40
0.59375000000002
40
0.59375000000002
40
0.60937500000002
40
0.60937500000002
40
0.61718750000002
40
0.61718750000002
40
0.62500000000002
40
0.62500000000002
40
0.63281250000002
40
0.63281250000002
40
0.63671875000002
40
0.63671875000002
40
0.64062500000002
40
0.64062500000002
40
0.64257812500002
40
0.64257812500002
40
0.64355468750002
40
0.64355468750002
40
0.64453125000002
40
0.64453125000002
40
0.64550781250002
40
0.64550781250002
40
0.64648437500002
40
0.64648437500002
40
0.64746093750002
40
0.64746093750002
40
0.64843750000002
40
0.64843750000002
40
0.65039062500002
40
0.65039062500002
40
0.65234375000002
40
0.65234375000002
40
0.65625000000002
40
0.65625000000002
40
0.66406250000002
40
0.66406250000002
40
0.67187500000002
40
0.67187500000002
40
0.68750000000002
40
0.68750000000002
40
0.70312500000002
40
0.70312500000002
40
0.71875000000002
40
0.71875000000002
40
0.75000000000001
40
0.75000000000001
40
0.81250000000001
40
0.81250000000001
40
0.87500000000001
40
0.87500000000001
40
1.0
40
1.0
40
1.0
40
1.0
41
1.0
10
10.3582384545328
20
0.22552184944635
30
0.0
41
1.0
10
10.7023220051291
20
0.19108234641186
30
0.0
41
1.0
10
11.0466857141592
20
0.16259203544915
30
0.0
41
1.0
10
11.7361082083301
20
0.11643339324526
30
0.0
41
1.0
10
12.0811667939097
20
0.09876701903275
30
0.0
41
1.0
10
12.5993418523562
20
0.07989557252695
30
0.0
41
1.0
10
12.7722103741507
20
0.07487840917476
30
0.0
41
1.0
10
13.1178876088606
20
0.06736054259086
30
0.0
41
1.0
10
13.2906879916978
20
0.06485801888105
30
0.0
41
1.0
10
13.6362079563116
20
0.06237192010735
30
0.0
41
1.0
10
13.8089284525948
20
0.06238506595396
30
0.0
41
1.0
10
14.1542532393835
20
0.06504636990086
30
0.0
41
1.0
10
14.3268611682865
20
0.06768203636835
30
0.0
41
1.0
10
14.5855943018343
20
0.07392873762805
30
0.0
41
1.0
10
14.6718080816165
20
0.07639580180066
30
0.0
41
1.0
10
14.8441320351802
20
0.08224853989346
30
0.0
41
1.0
10
14.9302440069772
20
0.08562779238966
30
0.0
41
1.0
10
15.102272939812
20
0.09362931372226
30
0.0
41
1.0
10
15.1881987515228
20
0.09821994841175
30
0.0
41
1.0
10
15.316742764175
20
0.10674588718246
30
0.0
41
1.0
10
15.3595563553643
20
0.10986543290176
30
0.0
41
1.0
10
15.4235173918212
20
0.11524694900615
30
0.0
41
1.0
10
15.4447885798159
20
0.11715907092916
30
0.0
41
1.0
10
15.4871809767191
20
0.12132873298926
30
0.0
41
1.0
10
15.5083019112665
20
0.12358200441045
30
0.0
41
1.0
10
15.5502305942015
20
0.12865005727326
30
0.0
41
1.0
10
15.5710616898289
20
0.13144610453276
30
0.0
41
1.0
10
15.6016996949502
20
0.13651003816216
30
0.0
41
1.0
10
15.6118044907699
20
0.13834365060136
30
0.0
41
1.0
10
15.6315494225726
20
0.14253971078186
30
0.0
41
1.0
10
15.6412048501058
20
0.14487077838865
30
0.0
41
1.0
10
15.654606446373
20
0.14926858808606
30
0.0
41
1.0
10
15.6588849371344
20
0.15088615737926
30
0.0
41
1.0
10
15.6645436998545
20
0.15372327972816
30
0.0
41
1.0
10
15.6663009142237
20
0.15474179969786
30
0.0
41
1.0
10
15.6693173370661
20
0.15693539236365
30
0.0
41
1.0
10
15.6706047350822
20
0.15813661183755
30
0.0
41
1.0
10
15.6723400182259
20
0.16068804055186
30
0.0
41
1.0
10
15.6727837823596
20
0.16206068531045
30
0.0
41
1.0
10
15.672610135483
20
0.16479452225336
30
0.0
41
1.0
10
15.6719950126296
20
0.16617472673966
30
0.0
41
1.0
10
15.6699931663868
20
0.16876855133306
30
0.0
41
1.0
10
15.6686166288376
20
0.16999801715676
30
0.0
41
1.0
10
15.665422807904
20
0.17231117483316
30
0.0
41
1.0
10
15.6636308613964
20
0.17338115957375
30
0.0
41
1.0
10
15.6578823211375
20
0.17642584698356
30
0.0
41
1.0
10
15.6535424593916
20
0.17824203069125
30
0.0
41
1.0
10
15.6446309979562
20
0.18155688908385
30
0.0
41
1.0
10
15.6400083791767
20
0.18307105988475
30
0.0
41
1.0
10
15.6258474043249
20
0.18736291609845
30
0.0
41
1.0
10
15.6160048428884
20
0.18989813925866
30
0.0
41
1.0
10
15.5860277754604
20
0.19700903815085
30
0.0
41
1.0
10
15.5656367919705
20
0.20105275091875
30
0.0
41
1.0
10
15.5245521553935
20
0.20863582955306
30
0.0
41
1.0
10
15.503839354951
20
0.21214180747546
30
0.0
41
1.0
10
15.4414206950153
20
0.22220648040276
30
0.0
41
1.0
10
15.3994299886637
20
0.22832013837555
30
0.0
41
1.0
10
15.3151598167749
20
0.24007122147695
30
0.0
41
1.0
10
15.272922262705
20
0.24568021800445
30
0.0
41
1.0
10
15.1883314928977
20
0.25663471732025
30
0.0
41
1.0
10
15.1459766932098
20
0.26197544047305
30
0.0
41
1.0
10
15.0187972723923
20
0.27777907330466
30
0.0
41
1.0
10
14.9338603866504
20
0.28803177040176
30
0.0
41
1.0
10
14.6788197029901
20
0.31861174991495
30
0.0
41
1.0
10
14.5084808603226
20
0.33877310711085
30
0.0
41
1.0
10
14.1675945296299
20
0.37973559585225
30
0.0
41
1.0
10
13.9970862898701
20
0.40049426572325
30
0.0
41
1.0
10
13.4854793990046
20
0.46405558071825
30
0.0
41
1.0
10
13.144302198528
20
0.50815744679106
30
0.0
41
1.0
10
12.8030609781709
20
0.55415451458856
30
0.0
0
SPLINE
5
E7
330
1F
100
AcDbEntity
67
0
8
1
62
256
6
ByLayer
370
-1
48
1.0
60
0
100
AcDbSpline
70
4
71
3
42
0.000000001
43
0.0000000001
44
0.0000000001
40
0.0
40
0.0
40
0.0
40
0.0
40
0.0625
40
0.0625
40
0.125
40
0.125
40
0.15625
40
0.15625
40
0.1875
40
0.1875
40
0.25
40
0.25
40
0.3125
40
0.3125
40
0.34375
40
0.34375
40
0.37500000000001
40
0.37500000000001
40
0.40625000000001
40
0.40625000000001
40
0.43750000000001
40
0.43750000000001
40
0.46875000000001
40
0.46875000000001
40
0.50000000000001
40
0.50000000000001
40
0.56250000000001
40
0.56250000000001
40
0.62500000000001
40
0.62500000000001
40
0.65625000000001
40
0.65625000000001
40
0.68750000000001
40
0.68750000000001
40
0.75
40
0.75
40
0.8125
40
0.8125
40
0.875
40
0.875
40
0.9375
40
0.9375
40
1.0
40
1.0
40
1.0
40
1.0
41
1.0
10
12.8030609781709
20
0.55415451458856
30
0.0
41
1.0
10
12.6770596187127
20
0.57113866752145
30
0.0
41
1.0
10
12.5515180684447
20
0.59044171904336
30
0.0
41
1.0
10
12.3015299980031
20
0.63479059929665
30
0.0
41
1.0
10
12.1770865504362
20
0.65985057331446
30
0.0
41
1.0
10
11.9913262379601
20
0.70244969398115
30
0.0
41
1.0
10
11.9295561308856
20
0.71748155382775
30
0.0
41
1.0
10
11.8063131263627
20
0.74925897974346
30
0.0
41
1.0
10
11.7448662115901
20
0.76600047886835
30
0.0
41
1.0
10
11.5615029926981
20
0.81858080187556
30
0.0
41
1.0
10
11.4404145231629
20
0.85688530818295
30
0.0
41
1.0
10
11.2000540189376
20
0.93819635876285
30
0.0
41
1.0
10
11.0807839855358
20
0.98120237256205
30
0.0
41
1.0
10
10.9023210027237
20
1.04628892636326
30
0.0
41
1.0
10
10.8428854738816
20
1.06806810411666
30
0.0
41
1.0
10
10.7244047859514
20
1.11098331202265
30
0.0
41
1.0
10
10.6653056022794
20
1.13213548555436
30
0.0
41
1.0
10
10.5471865895072
20
1.17321631274116
30
0.0
41
1.0
10
10.4881656278198
20
1.19314209407806
30
0.0
41
1.0
10
10.36999628724
20
1.23127604697146
30
0.0
41
1.0
10
10.3108468783014
20
1.24948270079736
30
0.0
41
1.0
10
10.1922458130624
20
1.28387895421166
30
0.0
41
1.0
10
10.13279361483
20
1.30006891840905
30
0.0
41
1.0
10
10.0134690093417
20
1.33034549290176
30
0.0
41
1.0
10
9.95359668106221
20
1.34443395138716
30
0.0
41
1.0
10
9.77326843465852
20
1.38368119251236
30
0.0
41
1.0
10
9.6520849979679
20
1.40580714925976
30
0.0
41
1.0
10
9.40793117424661
20
1.44376029403466
30
0.0
41
1.0
10
9.28497728273081
20
1.45962656123976
30
0.0
41
1.0
10
9.09956095453362
20
1.48010685600995
30
0.0
41
1.0
10
9.0375620598322
20
1.48637946030045
30
0.0
41
1.0
10
8.9134417821262
20
1.49796711189126
30
0.0
41
1.0
10
8.85134262456472
20
1.50328070177815
30
0.0
41
1.0
10
8.66495884710801
20
1.51799100356675
30
0.0
41
1.0
10
8.54058881235471
20
1.52617229311505
30
0.0
41
1.0
10
8.291771763719
20
1.53997055382125
30
0.0
41
1.0
10
8.1673246429624
20
1.54558228012955
30
0.0
41
1.0
10
7.91848044149111
20
1.55449892413286
30
0.0
41
1.0
10
7.79408286506572
20
1.55780178169485
30
0.0
41
1.0
10
7.54544972866492
20
1.56205534644755
30
0.0
41
1.0
10
7.42121342484901
20
1.56300742051445
30
0.0
41
1.0
10
7.17301841072671
20
1.56222359479905
30
0.0
41
1.0
10
7.0490582972142
20
1.56049490558425
30
0.0
41
1.0
10
6.9253115131248
20
1.55705167686996
30
0.0
0
SPLINE
5
E8
330
1F
100
AcDbEntity
67
0
8
1
62
256
6
ByLayer
370
-1
48
1.0
60
0
100
AcDbSpline
70
4
71
3
42
0.000000001
43
0.0000000001
44
0.0000000001
40
0.0
40
0.0
40
0.0
40
0.0
40
0.125
40
0.125
40
0.1875
40
0.1875
40
0.24999999999999
40
0.24999999999999
40
0.31249999999999
40
0.31249999999999
40
0.34374999999999
40
0.34374999999999
40
0.35937499999999
40
0.35937499999999
40
0.37499999999999
40
0.37499999999999
40
0.40624999999999
40
0.40624999999999
40
0.42187499999999
40
0.42187499999999
40
0.43749999999999
40
0.43749999999999
40
0.45312499999999
40
0.45312499999999
40
0.46093749999999
40
0.46093749999999
40
0.46874999999999
40
0.46874999999999
40
0.48437499999999
40
0.48437499999999
40
0.49218749999999
40
0.49218749999999
40
0.49999999999999
40
0.49999999999999
40
0.51562499999999
40
0.51562499999999
40
0.52343749999999
40
0.52343749999999
40
0.53124999999999
40
0.53124999999999
40
0.56249999999999
40
0.56249999999999
40
0.57031249999999
40
0.57031249999999
40
0.57812499999999
40
0.59374999999999
40
0.59374999999999
40
0.62499999999999
40
0.62499999999999
40
0.64062499999999
40
0.64062499999999
40
0.65624999999999
40
0.65624999999999
40
0.68749999999999
40
0.68749999999999
40
0.75
40
0.75
40
0.78125
40
0.78125
40
0.8125
40
0.8125
40
0.875
40
0.875
40
1.0
40
1.0
40
1.0
40
1.0
41
1.0
10
2.0
20
-2.54324248541245
30
0.0
41
1.0
10
1.87827207690222
20
-2.55507967331805
30
0.0
41
1.0
10
1.7578934054836
20
-2.56324028431554
30
0.0
41
1.0
10
1.57995888136
20
-2.56755488399524
30
0.0
41
1.0
10
1.52109004760942
20
-2.56765769341105
30
0.0
41
1.0
10
1.40443493921461
20
-2.56442667612704
30
0.0
41
1.0
10
1.34660372825101
20
-2.56110394443614
30
0.0
41
1.0
10
1.23253333627551
20
-2.54972449547304
30
0.0
41
1.0
10
1.1768403438501
20
-2.54174743284645
30
0.0
41
1.0
10
1.096146493916
20
-2.52476360501174
30
0.0
41
1.0
10
1.06972759866042
20
-2.51825695311504
30
0.0
41
1.0
10
1.0310097299639
20
-2.50686543454505
30
0.0
41
1.0
10
1.01825635471192
20
-2.50279476946345
30
0.0
41
1.0
10
0.9931014440028
20
-2.49401829699235
30
0.0
41
1.0
10
0.9806761828207
20
-2.48930286667995
30
0.0
41
1.0
10
0.9441911312866
20
-2.47410005884494
30
0.0
41
1.0
10
0.92102340742531
20
-2.46263093193845
30
0.0
41
1.0
10
0.8886436900265
20
-2.44265986925025
30
0.0
41
1.0
10
0.878211958436
20
-2.43550746085674
30
0.0
41
1.0
10
0.85851177749791
20
-2.42021638317884
30
0.0
41
1.0
10
0.84926713281712
20
-2.41210319028055
30
0.0
41
1.0
10
0.83218738645351
20
-2.39478378548664
30
0.0
41
1.0
10
0.82435101480681
20
-2.38557856382104
30
0.0
41
1.0
10
0.81386114243611
20
-2.37078692909054
30
0.0
41
1.0
10
0.81057603007821
20
-2.36569184604704
30
0.0
41
1.0
10
0.8044752452
20
-2.35513602869365
30
0.0
41
1.0
10
0.80165210232872
20
-2.34965405429125
30
0.0
41
1.0
10
0.79408976530942
20
-2.33288204611884
30
0.0
41
1.0
10
0.79021137284261
20
-2.32120665208764
30
0.0
41
1.0
10
0.7862933658117
20
-2.30288515173224
30
0.0
41
1.0
10
0.78530443445342
20
-2.29664305574164
30
0.0
41
1.0
10
0.78399323108661
20
-2.28387503023474
30
0.0
41
1.0
10
0.78367381587191
20
-2.27732316591054
30
0.0
41
1.0
10
0.7837542901261
20
-2.25761231469974
30
0.0
41
1.0
10
0.7851702471558
20
-2.24429847499005
30
0.0
41
1.0
10
0.78921444785331
20
-2.22408394290524
30
0.0
41
1.0
10
0.79088300648752
20
-2.21730508902854
30
0.0
41
1.0
10
0.79484540751591
20
-2.20366820490234
30
0.0
41
1.0
10
0.7971493870177
20
-2.19678878170484
30
0.0
41
1.0
10
0.80995996194071
20
-2.16278115246494
30
0.0
41
1.0
10
0.82435912231742
20
-2.13639811421575
30
0.0
41
1.0
10
0.84609028417691
20
-2.10416843394664
30
0.0
41
1.0
10
0.8506320469904
20
-2.09775527333055
30
0.0
41
1.0
10
0.85996521178902
20
-2.08513856687655
30
0.0
41
1.0
10
0.8743761318575
20
-2.06647296620474
30
0.0
41
1.0
10
0.88989134826352
20
-2.04850505706254
30
0.0
41
1.0
10
0.9221448132117
20
-2.01334400054644
30
0.0
41
1.0
10
0.94526523559182
20
-1.99092842946395
30
0.0
41
1.0
10
0.98175370159822
20
-1.95845758541334
30
0.0
41
1.0
10
0.99417378804461
20
-1.94787234875955
30
0.0
41
1.0
10
1.01931556722252
20
-1.92722824706725
30
0.0
41
1.0
10
1.03206049479562
20
-1.91714903155024
30
0.0
41
1.0
10
1.07074832152782
20
-1.88754381221814
30
0.0
41
1.0
10
1.0971409719844
20
-1.86864565357645
30
0.0
41
1.0
10
1.17774224166402
20
-1.81394007225974
30
0.0
41
1.0
10
1.23335528052951
20
-1.78009524999514
30
0.0
41
1.0
10
1.3187700996551
20
-1.73212226655754
30
0.0
41
1.0
10
1.34750170351742
20
-1.71665158218505
30
0.0
41
1.0
10
1.405199180545
20
-1.68671574769624
30
0.0
41
1.0
10
1.43420120591512
20
-1.67223093296614
30
0.0
41
1.0
10
1.52161210930751
20
-1.63004215643444
30
0.0
41
1.0
10
1.58042310307451
20
-1.60359485659525
30
0.0
41
1.0
10
1.7581741298556
20
-1.52830800453334
30
0.0
41
1.0
10
1.87841729966271
20
-1.48347395112225
30
0.0
41
1.0
10
2.0
20
-1.44264008466574
30
0.0
0
SPLINE
5
E9
330
1F
100
AcDbEntity
67
0
8
1
62
256
6
ByLayer
370
-1
48
1.0
60
0
100
AcDbSpline
70
4
71
3
42
0.000000001
43
0.0000000001
44
0.0000000001
40
0.0
40
0.0
40
0.0
40
0.0
40
0.125
40
0.125
40
0.1875
40
0.1875
40
0.25
40
0.25
40
0.3125
40
0.3125
40
0.34375
40
0.34375
40
0.359375
40
0.359375
40
0.375
40
0.375
40
0.40625
40
0.40625
40
0.421875
40
0.421875
40
0.4375
40
0.4375
40
0.453125
40
0.453125
40
0.4609375
40
0.4609375
40
0.46875
40
0.46875
40
0.484375
40
0.484375
40
0.4921875
40
0.4921875
40
0.5
40
0.5
40
0.515625
40
0.515625
40
0.5234375
40
0.5234375
40
0.53125
40
0.53125
40
0.5625
40
0.5625
40
0.5703125
40
0.5703125
40
0.578125
40
0.59375
40
0.59375
40
0.625
40
0.625
40
0.640625
40
0.640625
40
0.65625
40
0.65625
40
0.6875
40
0.6875
40
0.75
40
0.75
40
0.78125
40
0.78125
40
0.8125
40
0.8125
40
0.875
40
0.875
40
1.0
40
1.0
40
1.0
40
1.0
41
1.0
10
2.0
20
0.22552184944635
30
0.0
41
1.0
10
1.87827207690222
20
0.25488044882886
30
0.0
41
1.0
10
1.7578934054836
20
0.28896119108096
30
0.0
41
1.0
10
1.57995888136
20
0.34977465034845
30
0.0
41
1.0
10
1.52109004760942
20
0.37167694841216
30
0.0
41
1.0
10
1.40443493921461
20
0.41957886181235
30
0.0
41
1.0
10
1.34660372825101
20
0.44558238712686
30
0.0
41
1.0
10
1.23253333627551
20
0.50304032547506
30
0.0
41
1.0
10
1.1768403438501
20
0.53418953674036
30
0.0
41
1.0
10
1.096146493916
20
0.58610149402446
30
0.0
41
1.0
10
1.06972759866042
20
0.60427908031825
30
0.0
41
1.0
10
1.0310097299639
20
0.63321417413715
30
0.0
41
1.0
10
1.01825635471192
20
0.64313887964876
30
0.0
41
1.0
10
0.9931014440028
20
0.66363471205786
30
0.0
41
1.0
10
0.9806761828207
20
0.67422683408846
30
0.0
41
1.0
10
0.9441911312866
20
0.70699268163756
30
0.0
41
1.0
10
0.92102340742531
20
0.73002558320346
30
0.0
41
1.0
10
0.8886436900265
20
0.76701902348306
30
0.0
41
1.0
10
0.878211958436
20
0.77981225163805
30
0.0
41
1.0
10
0.85851177749791
20
0.80613970532106
30
0.0
41
1.0
10
0.84926713281712
20
0.81963359595076
30
0.0
41
1.0
10
0.83218738645351
20
0.84738977906456
30
0.0
41
1.0
10
0.82435101480681
20
0.86165137956266
30
0.0
41
1.0
10
0.81386114243611
20
0.88373302810516
30
0.0
41
1.0
10
0.81057603007832
20
0.89120885044765
30
0.0
41
1.0
10
0.80447524520011
20
0.90641630954525
30
0.0
41
1.0
10
0.80165210232872
20
0.91417663079116
30
0.0
41
1.0
10
0.79408976530942
20
0.93749050380285
30
0.0
41
1.0
10
0.79021137284261
20
0.95316710733796
30
0.0
41
1.0
10
0.7862933658117
20
0.97690043187835
30
0.0
41
1.0
10
0.78530443445342
20
0.98484799992485
30
0.0
41
1.0
10
0.78399323108661
20
1.00081975502586
30
0.0
41
1.0
10
0.78367381587202
20
1.00887417436346
30
0.0
41
1.0
10
0.7837542901261
20
1.03268853000395
30
0.0
41
1.0
10
0.7851702471558
20
1.04822905819755
30
0.0
41
1.0
10
0.78921444785331
20
1.07106690825606
30
0.0
41
1.0
10
0.79088300648752
20
1.07860059610185
30
0.0
41
1.0
10
0.79484540751591
20
1.09351408404545
30
0.0
41
1.0
10
0.7971493870177
20
1.10091571664715
30
0.0
41
1.0
10
0.80995996194071
20
1.13693847536506
30
0.0
41
1.0
10
0.82435912231742
20
1.16310710540155
30
0.0
41
1.0
10
0.84609028417691
20
1.19344445359886
30
0.0
41
1.0
10
0.85063204699051
20
1.19939537226766
30
0.0
41
1.0
10
0.85996521178902
20
1.21094655043466
30
0.0
41
1.0
10
0.8743761318575
20
1.22779918836406
30
0.0
41
1.0
10
0.88989134826352
20
1.24338018839566
30
0.0
41
1.0
10
0.9221448132117
20
1.27313799770155
30
0.0
41
1.0
10
0.94526523559182
20
1.29111894426696
30
0.0
41
1.0
10
0.98175370159822
20
1.31602958435936
30
0.0
41
1.0
10
0.99417378804461
20
1.32395099493975
30
0.0
41
1.0
10
1.01931556722252
20
1.33905480449175
30
0.0
41
1.0
10
1.03206049479562
20
1.34625266624626
30
0.0
41
1.0
10
1.07074832152782
20
1.36692933850226
30
0.0
41
1.0
10
1.0971409719844
20
1.37949813063315
30
0.0
41
1.0
10
1.17774224166402
20
1.41435602028666
30
0.0
41
1.0
10
1.23335528052951
20
1.43383627709865
30
0.0
41
1.0
10
1.3187700996551
20
1.45916173160566
30
0.0
41
1.0
10
1.34750170351742
20
1.46691602847075
30
0.0
41
1.0
10
1.405199180545
20
1.48120435407715
30
0.0
41
1.0
10
1.43420120591512
20
1.48774831223386
30
0.0
41
1.0
10
1.52161210930751
20
1.50582641976595
30
0.0
41
1.0
10
1.58042310307451
20
1.51581883415466
30
0.0
41
1.0
10
1.7581741298556
20
1.54093949979536
30
0.0
41
1.0
10
1.87841729966271
20
1.55127743006486
30
0.0
41
1.0
10
2.0
20
1.55705167687056
30
0.0
0
SPLINE
5
EA
330
1F
100
AcDbEntity
67
0
8
1
62
256
6
ByLayer
370
-1
48
1.0
60
0
100
AcDbSpline
70
4
71
3
42
0.000000001
43
0.0000000001
44
0.0000000001
40
0.0
40
0.0
40
0.0
40
0.0
40
0.125
40
0.125
40
0.1875
40
0.1875
40
0.25
40
0.25
40
0.3125
40
0.3125
40
0.34375
40
0.34375
40
0.359375
40
0.359375
40
0.375
40
0.375
40
0.40625
40
0.40625
40
0.421875
40
0.421875
40
0.4375
40
0.4375
40
0.453125
40
0.453125
40
0.4609375
40
0.4609375
40
0.46875
40
0.46875
40
0.484375
40
0.484375
40
0.4921875
40
0.4921875
40
0.5
40
0.5
40
0.515625
40
0.515625
40
0.5234375
40
0.5234375
40
0.53125
40
0.53125
40
0.5625
40
0.5625
40
0.5703125
40
0.5703125
40
0.578125
40
0.59375
40
0.59375
40
0.625
40
0.625
40
0.640625
40
0.640625
40
0.65625
40
0.65625
40
0.6875
40
0.6875
40
0.75
40
0.75
40
0.78125
40
0.78125
40
0.8125
40
0.8125
40
0.875
40
0.875
40
1.0
40
1.0
40
1.0
40
1.0
41
1.0
10
2.0
20
2.99145791021616
30
0.0
41
1.0
10
1.87827207690222
20
3.03824680111195
30
0.0
41
1.0
10
1.75789340548371
20
3.08657187855106
30
0.0
41
1.0
10
1.57995888136011
20
3.16180468573076
30
0.0
41
1.0
10
1.52109004760942
20
3.18734272123676
30
0.0
41
1.0
10
1.40443493921461
20
3.23948710727986
30
0.0
41
1.0
10
1.34660372825101
20
3.26610990530405
30
0.0
41
1.0
10
1.23253333627551
20
3.32060282560936
30
0.0
41
1.0
10
1.1768403438501
20
3.34820411336996
30
0.0
41
1.0
10
1.096146493916
20
3.39024324933335
30
0.0
41
1.0
10
1.06972759866042
20
3.40436317656146
30
0.0
41
1.0
10
1.0310097299639
20
3.42572926206735
30
0.0
41
1.0
10
1.01825635471192
20
3.43288244476426
30
0.0
41
1.0
10
0.9931014440028
20
3.44725758778455
30
0.0
41
1.0
10
0.9806761828207
20
3.45449359443225
30
0.0
41
1.0
10
0.9441911312866
20
3.47621641398565
30
0.0
41
1.0
10
0.92102340742531
20
3.49064699434275
30
0.0
41
1.0
10
0.8886436900265
20
3.51216016078655
30
0.0
41
1.0
10
0.878211958436
20
3.51933597994916
30
0.0
41
1.0
10
0.85851177749802
20
3.53348934286186
30
0.0
41
1.0
10
0.8492671328172
20
3.54044740295376
30
0.0
41
1.0
10
0.83218738645351
20
3.55408248085055
30
0.0
41
1.0
10
0.82435101480681
20
3.56075975809105
30
0.0
41
1.0
10
0.81386114243611
20
3.57051995820466
30
0.0
41
1.0
10
0.81057603007832
20
3.57373058829066
30
0.0
41
1.0
10
0.80447524520011
20
3.58005638900106
30
0.0
41
1.0
10
0.80165210232872
20
3.58318206439735
30
0.0
41
1.0
10
0.79408976530942
20
3.59224731328796
30
0.0
41
1.0
10
0.79021137284272
20
3.59791614174456
30
0.0
41
1.0
10
0.7862933658117
20
3.60580530300186
30
0.0
41
1.0
10
0.78530443445342
20
3.60833253373396
30
0.0
41
1.0
10
0.78399323108661
20
3.61317131118776
30
0.0
41
1.0
10
0.78367381587202
20
3.61549012081626
30
0.0
41
1.0
10
0.7837542901261
20
3.62198217991535
30
0.0
41
1.0
10
0.7851702471558
20
3.62573450340815
30
0.0
41
1.0
10
0.7892144478534
20
3.63055228310475
30
0.0
41
1.0
10
0.79088300648752
20
3.63202291875996
30
0.0
41
1.0
10
0.79484540751591
20
3.63470055336695
30
0.0
41
1.0
10
0.7971493870177
20
3.63590993815015
30
0.0
41
1.0
10
0.80995996194071
20
3.64123087926525
30
0.0
41
1.0
10
0.82435912231742
20
3.64329496678056
30
0.0
41
1.0
10
0.84609028417691
20
3.64392362828356
30
0.0
41
1.0
10
0.85063204699051
20
3.64394922711436
30
0.0
41
1.0
10
0.85996521178902
20
3.64381830090845
30
0.0
41
1.0
10
0.8743761318575
20
3.64334994113226
30
0.0
41
1.0
10
0.88989134826352
20
3.64215408582726
30
0.0
41
1.0
10
0.9221448132117
20
3.63896370982215
30
0.0
41
1.0
10
0.94526523559182
20
3.63578046642625
30
0.0
41
1.0
10
0.98175370159822
20
3.62985009845956
30
0.0
41
1.0
10
0.99417378804461
20
3.62768551309796
30
0.0
41
1.0
10
1.01931556722252
20
3.62306332873786
30
0.0
41
1.0
10
1.03206049479562
20
3.62060183945145
30
0.0
41
1.0
10
1.07074832152782
20
3.61283164994505
30
0.0
41
1.0
10
1.0971409719844
20
3.60714031461275
30
0.0
41
1.0
10
1.17774224166402
20
3.58889398972956
30
0.0
41
1.0
10
1.23335528052951
20
3.57518448745135
30
0.0
41
1.0
10
1.3187700996551
20
3.55309741522706
30
0.0
41
1.0
10
1.34750170351742
20
3.54549531660956
30
0.0
41
1.0
10
1.405199180545
20
3.52995366653785
30
0.0
41
1.0
10
1.43420120591512
20
3.52200453690905
30
0.0
41
1.0
10
1.52161210930751
20
3.49771171492625
30
0.0
41
1.0
10
1.58042310307462
20
3.48092689236826
30
0.0
41
1.0
10
1.7581741298556
20
3.42928637345396
30
0.0
41
1.0
10
1.8784172996628
20
3.39316836699986
30
0.0
41
1.0
10
2.0
20
3.35604546637205
30
0.0
0
SPLINE
5
EB
330
1F
100
AcDbEntity
67
0
8
SK1
62
256
6
ByLayer
370
-1
48
1.0
60
0
100
AcDbSpline
70
4
71
3
42
0.000000001
43
0.0000000001
44
0.0000000001
40
0.0
40
0.0
40
0.0
40
0.0
40
0.12500000000001
40
0.12500000000001
40
0.18750000000002
40
0.18750000000002
40
0.21875000000002
40
0.21875000000002
40
0.25000000000002
40
0.25000000000002
40
0.37500000000002
40
0.37500000000002
40
0.40625000000002
40
0.40625000000002
40
0.43750000000002
40
0.43750000000002
40
0.50000000000002
40
0.56250000000001
40
0.56250000000001
40
0.59375000000001
40
0.59375000000001
40
0.62500000000001
40
0.62500000000001
40
0.75000000000001
40
0.75000000000001
40
0.81250000000001
40
0.81250000000001
40
0.87500000000001
40
0.9375
40
0.9375
40
1.0
40
1.0
40
1.0
40
1.0
41
1.0
10
-32.0
20
-1.76892059563855
30
0.0
41
1.0
10
-31.9773499153464
20
-1.81028501900805
30
0.0
41
1.0
10
-31.9568085150197
20
-1.85232307482494
30
0.0
41
1.0
10
-31.9293524674271
20
-1.91643104933435
30
0.0
41
1.0
10
-31.9207627264692
20
-1.93797645145735
30
0.0
41
1.0
10
-31.9087805367066
20
-1.97057460195495
30
0.0
41
1.0
10
-31.9049262982291
20
-1.98152048649155
30
0.0
41
1.0
10
-31.8975927612212
20
-2.00332952459914
30
0.0
41
1.0
10
-31.8941162143402
20
-2.01418077544514
30
0.0
41
1.0
10
-31.8776825867566
20
-2.06816747750115
30
0.0
41
1.0
10
-31.8675445601946
20
-2.11050115540114
30
0.0
41
1.0
10
-31.8588698638242
20
-2.16223341755675
30
0.0
41
1.0
10
-31.8573366681415
20
-2.17252017096455
30
0.0
41
1.0
10
-31.8546878979208
20
-2.19296933015775
30
0.0
41
1.0
10
-31.8535707632296
20
-2.20316160322204
30
0.0
41
1.0
10
-31.8509039921787
20
-2.23312259764894
30
0.0
41
1.0
10
-31.8491317616795
20
-2.27165365088365
30
0.0
41
1.0
10
-31.8508334614462
20
-2.30741895401064
30
0.0
41
1.0
10
-31.853417647294
20
-2.33320373480144
30
0.0
41
1.0
10
-31.8544974351594
20
-2.34162518194114
30
0.0
41
1.0
10
-31.8570996715281
20
-2.35811733614484
30
0.0
41
1.0
10
-31.8586281335553
20
-2.36621028691854
30
0.0
41
1.0
10
-31.8672860669123
20
-2.40531484966445
30
0.0
41
1.0
10
-31.8774518291218
20
-2.43257055384954
30
0.0
41
1.0
10
-31.8971872175745
20
-2.46799515343125
30
0.0
41
1.0
10
-31.9045632840845
20
-2.47893054702935
30
0.0
41
1.0
10
-31.9205226716935
20
-2.49865462351025
30
0.0
41
1.0
10
-31.9377052150074
20
-2.51630985201454
30
0.0
41
1.0
10
-31.9571893171343
20
-2.53014655312575
30
0.0
41
1.0
10
-31.9777841418346
20
-2.54217959417825
30
0.0
41
1.0
10
-31.9886628464965
20
-2.54730114651835
30
0.0
41
1.0
10
-32.0
20
-2.55152377981744
30
0.0
0
SPLINE
5
EC
330
1F
100
AcDbEntity
67
0
8
SK1
62
256
6
ByLayer
370
-1
48
1.0
60
0
100
AcDbSpline
70
4
71
3
42
0.000000001
43
0.0000000001
44
0.0000000001
40
0.0
40
0.0
40
0.0
40
0.0
40
0.12500000000002
40
0.12500000000002
40
0.18750000000003
40
0.18750000000003
40
0.21875000000003
40
0.21875000000003
40
0.25000000000003
40
0.25000000000003
40
0.37500000000003
40
0.37500000000003
40
0.40625000000003
40
0.40625000000003
40
0.43750000000003
40
0.43750000000003
40
0.50000000000003
40
0.56250000000002
40
0.56250000000002
40
0.59375000000002
40
0.59375000000002
40
0.62500000000002
40
0.62500000000002
40
0.75000000000002
40
0.75000000000002
40
0.81250000000001
40
0.81250000000001
40
0.87500000000001
40
0.9375
40
0.9375
40
1.0
40
1.0
40
1.0
40
1.0
41
1.0
10
-32.0
20
3.56976919060645
30
0.0
41
1.0
10
-31.9773499153464
20
3.58773966244206
30
0.0
41
1.0
10
-31.9568085150196
20
3.60283553178705
30
0.0
41
1.0
10
-31.9293524674271
20
3.62064822909096
30
0.0
41
1.0
10
-31.9207627264691
20
3.62577651509656
30
0.0
41
1.0
10
-31.9087805367065
20
3.63213935376966
30
0.0
41
1.0
10
-31.904926298229
20
3.63404294303916
30
0.0
41
1.0
10
-31.8975927612212
20
3.63735462189295
30
0.0
41
1.0
10
-31.8941162143402
20
3.63876262559256
30
0.0
41
1.0
10
-31.8776825867566
20
3.64455586080736
30
0.0
41
1.0
10
-31.8675445601945
20
3.64523477502296
30
0.0
41
1.0
10
-31.8588698638242
20
3.64069787948286
30
0.0
41
1.0
10
-31.8573366681415
20
3.63951897679915
30
0.0
41
1.0
10
-31.8546878979207
20
3.63659702450376
30
0.0
41
1.0
10
-31.8535707632295
20
3.63484635284286
30
0.0
41
1.0
10
-31.8509039921787
20
3.62880312094056
30
0.0
41
1.0
10
-31.8491317616795
20
3.61862162220565
30
0.0
41
1.0
10
-31.8508334614462
20
3.60429432490216
30
0.0
41
1.0
10
-31.853417647294
20
3.59199119316075
30
0.0
41
1.0
10
-31.8544974351594
20
3.58763012075056
30
0.0
41
1.0
10
-31.8570996715281
20
3.57838228383966
30
0.0
41
1.0
10
-31.8586281335553
20
3.57347942076855
30
0.0
41
1.0
10
-31.8672860669123
20
3.54794906833875
30
0.0
41
1.0
10
-31.8774518291218
20
3.52417663861776
30
0.0
41
1.0
10
-31.8971872175745
20
3.48400610454866
30
0.0
41
1.0
10
-31.9045632840845
20
3.46978128006856
30
0.0
41
1.0
10
-31.9205226716935
20
3.44038835081666
30
0.0
41
1.0
10
-31.9377055224126
20
3.41000256337246
30
0.0
41
1.0
10
-31.9571893171343
20
3.37780410913095
30
0.0
41
1.0
10
-31.9777841418346
20
3.34475898850415
30
0.0
41
1.0
10
-31.9886628464964
20
3.32777483020085
30
0.0
41
1.0
10
-32.0
20
3.31052263420605
30
0.0
0
SPLINE
5
ED
330
1F
100
AcDbEntity
67
0
8
SK1
62
256
6
ByLayer
370
-1
48
1.0
60
0
100
AcDbSpline
70
4
71
3
42
0.000000001
43
0.0000000001
44
0.0000000001
40
0.0
40
0.0
40
0.0
40
0.0
40
0.12499999999999
40
0.12499999999999
40
0.18749999999999
40
0.18749999999999
40
0.21874999999998
40
0.21874999999998
40
0.24999999999998
40
0.24999999999998
40
0.37499999999997
40
0.37499999999997
40
0.40624999999997
40
0.40624999999997
40
0.43749999999997
40
0.43749999999997
40
0.49999999999997
40
0.56249999999997
40
0.56249999999997
40
0.59374999999997
40
0.59374999999997
40
0.62499999999997
40
0.62499999999997
40
0.74999999999998
40
0.74999999999998
40
0.81249999999998
40
0.81249999999998
40
0.87499999999999
40
0.9375
40
0.9375
40
1.0
40
1.0
40
1.0
40
1.0
41
1.0
10
-32.0
20
1.43950257502586
30
0.0
41
1.0
10
-31.9773499153464
20
1.41674077424526
30
0.0
41
1.0
10
-31.9568085150197
20
1.39088015404666
30
0.0
41
1.0
10
-31.9293524674271
20
1.34695638783076
30
0.0
41
1.0
10
-31.9207627264691
20
1.33145527356976
30
0.0
41
1.0
10
-31.9087805367066
20
1.30679945191335
30
0.0
41
1.0
10
-31.9049262982291
20
1.29831981729066
30
0.0
41
1.0
10
-31.8975927612212
20
1.28101022985976
30
0.0
41
1.0
10
-31.8941162143402
20
1.27219120696185
30
0.0
41
1.0
10
-31.8776825867566
20
1.22727136489445
30
0.0
41
1.0
10
-31.8675445601946
20
1.18871931371555
30
0.0
41
1.0
10
-31.8588698638242
20
1.13698574527746
30
0.0
41
1.0
10
-31.8573366681415
20
1.12646034392415
30
0.0
41
1.0
10
-31.8546878979207
20
1.10503856727085
30
0.0
41
1.0
10
-31.8535707632296
20
1.09410801482936
30
0.0
41
1.0
10
-31.8509039921787
20
1.06120415853195
30
0.0
41
1.0
10
-31.8491317616794
20
1.01681289230486
30
0.0
41
1.0
10
-31.8508334614462
20
0.97140751070505
30
0.0
41
1.0
10
-31.853417647294
20
0.93697249688786
30
0.0
41
1.0
10
-31.8544974351594
20
0.92543056122025
30
0.0
41
1.0
10
-31.8570996715281
20
0.90221813561156
30
0.0
41
1.0
10
-31.8586281335553
20
0.89051321509825
30
0.0
41
1.0
10
-31.8672860669123
20
0.83237091865615
30
0.0
41
1.0
10
-31.8774518291218
20
0.78669690835966
30
0.0
41
1.0
10
-31.8971872175745
20
0.71934627120226
30
0.0
41
1.0
10
-31.9045632840845
20
0.69698402701036
30
0.0
41
1.0
10
-31.9205226716935
20
0.65343163959345
30
0.0
41
1.0
10
-31.9377052150074
20
0.61093690985666
30
0.0
41
1.0
10
-31.9571893171343
20
0.57041051093286
30
0.0
41
1.0
10
-31.9777841418346
20
0.53082253072395
30
0.0
41
1.0
10
-31.9886628464965
20
0.51145832476236
30
0.0
41
1.0
10
-32.0
20
0.49269427980106
30
0.0
0
SPLINE
5
EE
330
1F
100
AcDbEntity
67
0
8
1
62
256
6
ByLayer
370
-1
48
1.0
60
0
100
AcDbSpline
70
4
71
3
42
0.000000001
43
0.0000000001
44
0.0000000001
40
0.0
40
0.0
40
0.0
40
0.0
40
0.41927599036983
40
0.41927599036983
40
1.0
40
1.0
40
1.0
40
1.0
41
1.0
10
32.4999655377648
20
3.50249996553745
30
0.0
41
1.0
10
30.3337110705295
20
3.50033371107006
30
0.0
41
1.0
10
28.1674566033166
20
3.49816743440165
30
0.0
41
1.0
10
23.0008014240408
20
3.49300067302156
30
0.0
41
1.0
10
20.0004007119986
20
3.49000016780535
30
0.0
41
1.0
10
17.0
20
3.48699961942215
30
0.0
0
SPLINE
5
EF
330
1F
100
AcDbEntity
67
0
8
1
62
256
6
ByLayer
370
-1
48
1.0
60
0
100
AcDbSpline
70
4
71
3
42
0.000000001
43
0.0000000001
44
0.0000000001
40
0.0
40
0.0
40
0.0
40
0.0
40
1.0
40
1.0
40
1.0
40
1.0
41
1.0
10
17.0
20
3.48699961942215
30
0.0
41
1.0
10
16.7636950976361
20
3.44533063873446
30
0.0
41
1.0
10
16.5273916320159
20
3.40365359829416
30
0.0
41
1.0
10
16.2910897725477
20
3.36196755348625
30
0.0
0
SPLINE
5
F0
330
1F
100
AcDbEntity
67
0
8
1
62
256
6
ByLayer
370
-1
48
1.0
60
0
100
AcDbSpline
70
4
71
3
42
0.000000001
43
0.0000000001
44
0.0000000001
40
0.0
40
0.0
40
0.0
40
0.0
40
0.41927599036983
40
0.41927599036983
40
1.0
40
1.0
40
1.0
40
1.0
41
1.0
10
32.4999655377648
20
-3.50249996553805
30
0.0
41
1.0
10
30.3337110705295
20
-3.50033371107054
30
0.0
41
1.0
10
28.1674566033166
20
-3.49816743440215
30
0.0
41
1.0
10
23.0008014240408
20
-3.49300067302194
30
0.0
41
1.0
10
20.0004007119986
20
-3.49000016780575
30
0.0
41
1.0
10
17.0
20
-3.48699961942265
30
0.0
0
SPLINE
5
F1
330
1F
100
AcDbEntity
67
0
8
1
62
256
6
ByLayer
370
-1
48
1.0
60
0
100
AcDbSpline
70
4
71
3
42
0.000000001
43
0.0000000001
44
0.0000000001
40
0.0
40
0.0
40
0.0
40
0.0
40
0.07368585779997
40
0.13158049168747
40
0.18947512557497
40
0.20394878404685
40
0.21842244251872
40
0.24736975946247
40
0.30526439334998
40
0.53684292889998
40
1.0
40
1.0
40
1.0
40
1.0
41
1.0
10
12.8030609781658
20
0.55415451458876
30
0.0
41
1.0
10
13.2952566722877
20
0.53066762853055
30
0.0
41
1.0
10
14.1761278935463
20
0.49610310815075
30
0.0
41
1.0
10
15.4481304538526
20
0.46538176150416
30
0.0
41
1.0
10
16.3234051150826
20
0.45569823541196
30
0.0
41
1.0
10
16.907403016365
20
0.45433571639465
30
0.0
41
1.0
10
17.2972875876592
20
0.45434620846356
30
0.0
41
1.0
10
17.9800144714687
20
0.45433952741085
30
0.0
41
1.0
10
20.1257278050906
20
0.45434546609936
30
0.0
41
1.0
10
25.1974093106986
20
0.45433935773106
30
0.0
41
1.0
10
29.8789640106783
20
0.45434207256116
30
0.0
41
1.0
10
33.0
20
0.45434207256116
30
0.0
0
SPLINE
5
F2
330
1F
100
AcDbEntity
67
0
8
1
62
256
6
ByLayer
370
-1
48
1.0
60
0
100
AcDbSpline
70
4
71
3
42
0.000000001
43
0.0000000001
44
0.0000000001
40
0.0
40
0.0
40
0.0
40
0.0
40
0.25
40
0.25
40
0.375
40
0.375
40
0.5
40
0.5
40
0.75
40
0.75
40
0.875
40
0.875
40
1.0
40
1.0
40
1.0
40
1.0
41
1.0
10
10.3582384545328
20
0.22552184944635
30
0.0
41
1.0
10
10.8472528500611
20
0.13831693145426
30
0.0
41
1.0
10
11.3382522347437
20
0.06226190753355
30
0.0
41
1.0
10
12.0774359262837
20
-0.03653869500994
30
0.0
41
1.0
10
12.3243492626509
20
-0.06692404380624
30
0.0
41
1.0
10
12.8187146208398
20
-0.12270037502795
30
0.0
41
1.0
10
13.0660613768893
20
-0.14808079333895
30
0.0
41
1.0
10
13.8085804501383
20
-0.21693304288455
30
0.0
41
1.0
10
14.3042316122603
20
-0.25311726984674
30
0.0
41
1.0
10
15.0486211607964
20
-0.29358103540464
30
0.0
41
1.0
10
15.2969028536174
20
-0.30477072569555
30
0.0
41
1.0
10
15.7937665204684
20
-0.32261353672995
30
0.0
41
1.0
10
16.0423495519479
20
-0.32925068498085
30
0.0
41
1.0
10
16.2910897725476
20
-0.33351572079114
30
0.0
0
MTEXT
5
F3
330
1F
100
AcDbEntity
67
0
8
SK6
62
256
6
ByLayer
370
-1
48
1.0
60
0
100
AcDbMText
10
-32.4570458688446
20
-17.0361040010253
30
0.0
210
0.0
220
0.0
230
1.0
1
\fMonospac821 BT|b0|i0;\W1.1080;N5TS-7H7-EB45
40
3.5
41
0.0
44
1.072372
50
0.0
71
7
72
5
7
STANDARD 3.5
0
DIMENSION
5
FB
330
1F
100
AcDbEntity
67
0
8
2
62
256
6
ByLayer
370
-1
48
1.0
60
0
100
AcDbDimension
2
_U0
10
2.00000013115542
20
44.9874449989748
30
0.0
11
17.5000001311554
21
44.9874449989748
31
0.0
70
32
71
1
72
1
41
1.0
210
0.0
220
0.0
230
1.0
3
NewStyle
100
AcDbAlignedDimension
13
33.0000001311554
23
-0.50000000102524
33
0.0
14
2.00000013115542
24
-0.50000000102524
34
0.0
50
0.0
100
AcDbRotatedDimension
1001
ACAD
1000
DSTYLE
1002
{
1070
371
1070
13
1070
372
1070
13
1070
144
1040
1.0
1070
277
1070
2
1070
278
1070
44
1070
345
1005
16
1070
347
1005
16
1070
346
1005
16
1070
344
1005
0
1070
343
1005
0
1070
76
1070
0
1070
75
1070
0
1070
340
1005
11
1070
271
1070
3
1070
177
1070
7
1070
176
1070
7
1070
178
1070
7
1070
41
1040
2.5
1070
147
1040
1.75
1070
42
1040
0.0
1070
44
1040
2.0
1070
140
1040
3.5
1070
281
1070
0
1070
282
1070
0
1070
173
1070
1
1070
78
1070
8
1002
}
1001
ACAD_DSTYLE_DIM_LINETYPE
1070
380
1005
16
1001
ACAD_DSTYLE_DIM_EXT1_LINETYPE
1070
381
1005
16
1001
ACAD_DSTYLE_DIM_EXT2_LINETYPE
1070
382
1005
16
0
DIMENSION
5
116
330
1F
100
AcDbEntity
67
0
8
2
62
256
6
ByLayer
370
-1
48
1.0
60
0
100
AcDbDimension
2
_U1
10
17.0000001311554
20
29.9874449989748
30
0.0
11
25.0000001311554
21
29.9874449989748
31
0.0
70
32
71
1
72
1
41
1.0
210
0.0
220
0.0
230
1.0
3
NewStyle
100
AcDbAlignedDimension
13
33.0000001311554
23
-0.00000000102524
33
0.0
14
17.0000001311554
24
1.75149999897475
34
0.0
50
0.0
100
AcDbRotatedDimension
1001
ACAD
1000
DSTYLE
1002
{
1070
371
1070
13
1070
372
1070
13
1070
144
1040
1.0
1070
277
1070
2
1070
278
1070
44
1070
345
1005
16
1070
347
1005
16
1070
346
1005
16
1070
344
1005
0
1070
343
1005
0
1070
76
1070
0
1070
75
1070
0
1070
340
1005
11
1070
271
1070
3
1070
177
1070
7
1070
176
1070
7
1070
178
1070
7
1070
41
1040
2.5
1070
147
1040
1.75
1070
42
1040
0.0
1070
44
1040
2.0
1070
140
1040
3.5
1070
281
1070
0
1070
282
1070
0
1070
173
1070
1
1070
78
1070
8
1002
}
1001
ACAD_DSTYLE_DIM_LINETYPE
1070
380
1005
16
1001
ACAD_DSTYLE_DIM_EXT1_LINETYPE
1070
381
1005
16
1001
ACAD_DSTYLE_DIM_EXT2_LINETYPE
1070
382
1005
16
0
DIMENSION
5
130
330
1F
100
AcDbEntity
67
0
8
2
62
256
6
ByLayer
370
-1
48
1.0
60
0
100
AcDbDimension
2
_U2
10
60.0099251311554
20
-3.50250000102524
30
0.0
11
60.0099251311554
21
29.9999999989748
31
0.0
70
32
71
1
72
1
41
1.0
210
0.0
220
0.0
230
1.0
3
NewStyle
100
AcDbAlignedDimension
13
31.3409511311554
23
3.50249999897476
33
0.0
14
31.5000001311554
24
-3.50250000102524
34
0.0
50
270.0
100
AcDbRotatedDimension
1001
ACAD
1000
DSTYLE
1002
{
1070
371
1070
13
1070
372
1070
13
1070
144
1040
1.0
1070
277
1070
2
1070
278
1070
44
1070
345
1005
16
1070
347
1005
16
1070
346
1005
16
1070
344
1005
0
1070
343
1005
0
1070
76
1070
0
1070
75
1070
0
1070
340
1005
11
1070
271
1070
3
1070
177
1070
7
1070
176
1070
7
1070
178
1070
7
1070
41
1040
2.5
1070
147
1040
1.75
1070
42
1040
0.0
1070
44
1040
2.0
1070
140
1040
3.5
1070
281
1070
0
1070
282
1070
0
1070
173
1070
1
1070
3
1000
%%c<>
1070
78
1070
8
1002
}
1001
ACAD_DSTYLE_DIM_LINETYPE
1070
380
1005
16
1001
ACAD_DSTYLE_DIM_EXT1_LINETYPE
1070
381
1005
16
1001
ACAD_DSTYLE_DIM_EXT2_LINETYPE
1070
382
1005
16
0
DIMENSION
5
14D
330
1F
100
AcDbEntity
67
0
8
SK2
62
256
6
ByLayer
370
-1
48
1.0
60
0
100
AcDbDimension
2
_U3
10
-59.9900748688446
20
3.99999999897476
30
0.0
11
-59.9900748688446
21
29.9999999989748
31
0.0
70
32
71
1
72
1
41
1.0
210
0.0
220
0.0
230
1.0
3
NewStyle
100
AcDbAlignedDimension
13
-31.3019358688446
23
-4.00000000102524
33
0.0
14
-31.4999998688446
24
3.99999999897476
34
0.0
50
90.0
100
AcDbRotatedDimension
1001
ACAD
1000
DSTYLE
1002
{
1070
371
1070
13
1070
372
1070
13
1070
144
1040
1.0
1070
277
1070
2
1070
278
1070
44
1070
345
1005
16
1070
347
1005
16
1070
346
1005
16
1070
344
1005
0
1070
343
1005
0
1070
76
1070
0
1070
75
1070
0
1070
340
1005
11
1070
271
1070
3
1070
177
1070
7
1070
176
1070
7
1070
178
1070
7
1070
41
1040
2.5
1070
147
1040
1.75
1070
42
1040
0.0
1070
44
1040
2.0
1070
140
1040
3.5
1070
281
1070
0
1070
282
1070
0
1070
173
1070
1
1070
3
1000
%%c<>
1070
78
1070
8
1002
}
1001
ACAD_DSTYLE_DIM_LINETYPE
1070
380
1005
16
1001
ACAD_DSTYLE_DIM_EXT1_LINETYPE
1070
381
1005
16
1001
ACAD_DSTYLE_DIM_EXT2_LINETYPE
1070
382
1005
16
0
DIMENSION
5
16A
330
1F
100
AcDbEntity
67
0
8
SK2
62
256
6
ByLayer
370
-1
48
1.0
60
0
100
AcDbDimension
2
_U4
10
33.0000001311554
20
74.9874449989748
30
0.0
11
0.50000013115542
21
74.9874449989748
31
0.0
70
32
71
1
72
1
41
1.0
210
0.0
220
0.0
230
1.0
3
NewStyle
100
AcDbAlignedDimension
13
-31.9999998688446
23
-1.88961700102524
33
0.0
14
33.0000001311554
24
-0.00000000102524
34
0.0
50
180.0
100
AcDbRotatedDimension
1001
ACAD
1000
DSTYLE
1002
{
1070
371
1070
13
1070
372
1070
13
1070
144
1040
1.0
1070
277
1070
2
1070
278
1070
44
1070
345
1005
16
1070
347
1005
16
1070
346
1005
16
1070
344
1005
0
1070
343
1005
0
1070
76
1070
0
1070
75
1070
0
1070
340
1005
11
1070
271
1070
3
1070
177
1070
7
1070
176
1070
7
1070
178
1070
7
1070
41
1040
2.5
1070
147
1040
1.75
1070
42
1040
0.0
1070
44
1040
2.0
1070
140
1040
3.5
1070
281
1070
0
1070
282
1070
0
1070
173
1070
1
1070
78
1070
8
1002
}
1001
ACAD_DSTYLE_DIM_LINETYPE
1070
380
1005
16
1001
ACAD_DSTYLE_DIM_EXT1_LINETYPE
1070
381
1005
16
1001
ACAD_DSTYLE_DIM_EXT2_LINETYPE
1070
382
1005
16
0
DIMENSION
5
183
330
1F
100
AcDbEntity
67
0
8
2
62
256
6
ByLayer
370
-1
48
1.0
60
0
100
AcDbDimension
2
_U5
10
0.00000013115542
20
59.9874449989748
30
0.0
11
16.5000001311554
21
59.9874449989748
31
0.0
70
32
71
1
72
1
41
1.0
210
0.0
220
0.0
230
1.0
3
NewStyle
100
AcDbAlignedDimension
13
33.0000001311554
23
0.09773099897475
33
0.0
14
0.00000013115542
24
-0.00000000102524
34
0.0
50
0.0
100
AcDbRotatedDimension
1001
ACAD
1000
DSTYLE
1002
{
1070
371
1070
13
1070
372
1070
13
1070
144
1040
1.0
1070
277
1070
2
1070
278
1070
44
1070
345
1005
16
1070
347
1005
16
1070
346
1005
16
1070
344
1005
0
1070
343
1005
0
1070
76
1070
0
1070
75
1070
0
1070
340
1005
11
1070
271
1070
3
1070
177
1070
7
1070
176
1070
7
1070
178
1070
7
1070
41
1040
2.5
1070
147
1040
1.75
1070
42
1040
0.0
1070
44
1040
2.0
1070
140
1040
3.5
1070
281
1070
0
1070
282
1070
0
1070
173
1070
1
1070
78
1070
8
1002
}
1001
ACAD_DSTYLE_DIM_LINETYPE
1070
380
1005
16
1001
ACAD_DSTYLE_DIM_EXT1_LINETYPE
1070
381
1005
16
1001
ACAD_DSTYLE_DIM_EXT2_LINETYPE
1070
382
1005
16
0
ENDSEC
0
SECTION
2
OBJECTS
0
DICTIONARY
5
202
330
0
100
AcDbDictionary
280
0
281
1
3
ACAD_GROUP
350
203
3
ACAD_LAYOUT
350
204
3
ACAD_MLINESTYLE
350
208
0
DICTIONARY
5
203
330
202
100
AcDbDictionary
280
0
281
1
0
DICTIONARY
5
204
330
202
100
AcDbDictionary
280
0
281
1
3
Layout1
350
1E
3
Layout2
350
26
3
Model
350
22
0
DICTIONARY
5
208
330
202
100
AcDbDictionary
280
0
281
1
3
Standard
350
18
0
LAYOUT
5
1E
330
204
100
AcDbPlotSettings
1

2
none_device
4

6

40
0.0
41
0.0
42
0.0
43
0.0
44
0.0
45
0.0
46
0.0
47
0.0
48
0.0
49
0.0
140
0.0
141
0.0
142
1.0
143
1.0
70
688
72
0
73
0
74
5
7

75
16
147
1.0
148
0.0
149
0.0
100
AcDbLayout
1
Layout1
70
1
71
1
10
-0.5
20
-7.5
11
5.0
21
5.0
12
0.0
22
0.0
32
0.0
14
-0.5
24
-0.5
34
-0.5
15
5.0
25
5.0
35
5.0
146
0.0
13
0.0
23
0.0
33
0.0
16
1.0
26
0.0
36
0.0
17
0.0
27
1.0
37
0.0
76
0
330
1B
0
LAYOUT
5
26
330
204
100
AcDbPlotSettings
1

2
none_device
4

6

40
0.0
41
0.0
42
0.0
43
0.0
44
0.0
45
0.0
46
0.0
47
0.0
48
0.0
49
0.0
140
0.0
141
0.0
142
1.0
143
1.0
70
688
72
0
73
0
74
5
7

75
16
147
1.0
148
0.0
149
0.0
100
AcDbLayout
1
Layout2
70
1
71
2
10
0.0
20
-7.5
11
0.0
21
0.0
12
0.0
22
0.0
32
0.0
14
0.0
24
0.0
34
0.0
15
0.0
25
0.0
35
0.0
146
0.0
13
0.0
23
0.0
33
0.0
16
1.0
26
0.0
36
0.0
17
0.0
27
1.0
37
0.0
76
0
330
23
0
LAYOUT
5
22
330
204
100
AcDbPlotSettings
1

2
none_device
4
Letter_(8.50_x_11.00_Inches)
6

40
6.35
41
6.35
42
6.350005
43
6.350005
44
215.9
45
279.4
46
0.0
47
0.0
48
0.0
49
0.0
140
0.0
141
0.0
142
1.0
143
1.0
70
1712
72
0
73
0
74
5
7

75
16
147
1.0
148
0.0
149
0.0
100
AcDbLayout
1
Model
70
1
71
3
10
-0.5
20
-7.5
11
5.0
21
5.0
12
0.0
22
0.0
32
0.0
14
-0.5
24
-0.5
34
-0.5
15
5.0
25
5.0
35
5.0
146
0.0
13
0.0
23
0.0
33
0.0
16
1.0
26
0.0
36
0.0
17
0.0
27
1.0
37
0.0
76
0
330
1F
0
MLINESTYLE
5
18
330
208
100
AcDbMlineStyle
2
Standard
70
0
3

62
256
51
90.0
52
90.0
71
2
49
-0.5
62
256
6
ByLayer
49
0.5
62
256
6
ByLayer
0
ENDSEC
0
EOF
