  0
SECTION
  2
HEADER
  9
$ACADVER
  1
AC1015
  9
$ACADMAINTVER
 70
    18
  9
$DWGCODEPAGE
  3
ANSI_1252
  9
$INSBASE
 10
0.0
 20
0.0
 30
0.0
  9
$EXTMIN
 10
-81.025892
 20
-19.431762
 30
-0.001526
  9
$EXTMAX
 10
77.041658
 20
80.988618
 30
0.0
  9
$LIMMIN
 10
-170.0
 20
-170.0
  9
$LIMMAX
 10
519.0
 20
260.0
  9
$ORTHOMODE
 70
     1
  9
$REGENMODE
 70
     1
  9
$FILLMODE
 70
     1
  9
$QTEXTMODE
 70
     0
  9
$MIRRTEXT
 70
     0
  9
$LTSCALE
 40
1.0
  9
$ATTMODE
 70
     1
  9
$TEXTSIZE
 40
5.0
  9
$TRACEWID
 40
1.0
  9
$TEXTSTYLE
  7
USER1
  9
$CLAYER
  8
1
  9
$CELTYPE
  6
BYLAYER
  9
$CECOLOR
 62
   256
  9
$CELTSCALE
 40
1.0
  9
$DISPSILH
 70
     0
  9
$DIMSCALE
 40
1.0
  9
$DIMASZ
 40
2.5
  9
$DIMEXO
 40
1.0
  9
$DIMDLI
 40
15.0
  9
$DIMRND
 40
0.0
  9
$DIMDLE
 40
0.0
  9
$DIMEXE
 40
2.0
  9
$DIMTP
 40
0.0
  9
$DIMTM
 40
0.0
  9
$DIMTXT
 40
3.5
  9
$DIMCEN
 40
0.09
  9
$DIMTSZ
 40
0.0
  9
$DIMTOL
 70
     0
  9
$DIMLIM
 70
     0
  9
$DIMTIH
 70
     0
  9
$DIMTOH
 70
     0
  9
$DIMSE1
 70
     0
  9
$DIMSE2
 70
     0
  9
$DIMTAD
 70
     1
  9
$DIMZIN
 70
     8
  9
$DIMBLK
  1

  9
$DIMASO
 70
     1
  9
$DIMSHO
 70
     1
  9
$DIMPOST
  1

  9
$DIMAPOST
  1

  9
$DIMALT
 70
     0
  9
$DIMALTD
 70
     3
  9
$DIMALTF
 40
0.03937
  9
$DIMLFAC
 40
1.0
  9
$DIMTOFL
 70
     1
  9
$DIMTVP
 40
0.0
  9
$DIMTIX
 70
     0
  9
$DIMSOXD
 70
     0
  9
$DIMSAH
 70
     0
  9
$DIMBLK1
  1

  9
$DIMBLK2
  1

  9
$DIMSTYLE
  2
AM_DIN
  9
$DIMCLRD
 70
     0
  9
$DIMCLRE
 70
     0
  9
$DIMCLRT
 70
     0
  9
$DIMTFAC
 40
0.707107
  9
$DIMGAP
 40
1.0
  9
$DIMJUST
 70
     0
  9
$DIMSD1
 70
     0
  9
$DIMSD2
 70
     0
  9
$DIMTOLJ
 70
     1
  9
$DIMTZIN
 70
     8
  9
$DIMALTZ
 70
    11
  9
$DIMALTTZ
 70
     8
  9
$DIMUPT
 70
     0
  9
$DIMDEC
 70
     2
  9
$DIMTDEC
 70
     2
  9
$DIMALTU
 70
     3
  9
$DIMALTTD
 70
     3
  9
$DIMTXSTY
  7
STANDARD 3.5 mm
  9
$DIMAUNIT
 70
     0
  9
$DIMADEC
 70
     0
  9
$DIMALTRND
 40
0.0
  9
$DIMAZIN
 70
     2
  9
$DIMDSEP
 70
    46
  9
$DIMATFIT
 70
     3
  9
$DIMFRAC
 70
     0
  9
$DIMLDRBLK
  1

  9
$DIMLUNIT
 70
     2
  9
$DIMLWD
 70
    -1
  9
$DIMLWE
 70
    -1
  9
$DIMTMOVE
 70
     0
  9
$LUNITS
 70
     2
  9
$LUPREC
 70
     3
  9
$SKETCHINC
 40
1.0
  9
$FILLETRAD
 40
1.0
  9
$AUNITS
 70
     0
  9
$AUPREC
 70
     0
  9
$MENU
  1
c:\tdm21\cad\caduti13\tdm13
  9
$ELEVATION
 40
0.0
  9
$PELEVATION
 40
0.0
  9
$THICKNESS
 40
0.0
  9
$LIMCHECK
 70
     0
  9
$CHAMFERA
 40
0.0
  9
$CHAMFERB
 40
0.0
  9
$CHAMFERC
 40
0.0
  9
$CHAMFERD
 40
0.0
  9
$SKPOLY
 70
     0
  9
$TDCREATE
 40
2460440.352766204
  9
$TDUCREATE
 40
2460440.123599537
  9
$TDUPDATE
 40
2460440.356377315
  9
$TDUUPDATE
 40
2460440.127210648
  9
$TDINDWG
 40
0.0036342593
  9
$TDUSRTIMER
 40
0.0036342593
  9
$USRTIMER
 70
     1
  9
$ANGBASE
 50
0.0
  9
$ANGDIR
 70
     0
  9
$PDMODE
 70
     1
  9
$PDSIZE
 40
0.0
  9
$PLINEWID
 40
0.0
  9
$SPLFRAME
 70
     0
  9
$SPLINETYPE
 70
     6
  9
$SPLINESEGS
 70
     8
  9
$HANDSEED
  5
1A29
  9
$SURFTAB1
 70
     6
  9
$SURFTAB2
 70
     6
  9
$SURFTYPE
 70
     6
  9
$SURFU
 70
     6
  9
$SURFV
 70
     6
  9
$UCSBASE
  2

  9
$UCSNAME
  2

  9
$UCSORG
 10
0.0
 20
0.0
 30
0.0
  9
$UCSXDIR
 10
1.0
 20
0.0
 30
0.0
  9
$UCSYDIR
 10
0.0
 20
1.0
 30
0.0
  9
$UCSORTHOREF
  2

  9
$UCSORTHOVIEW
 70
     0
  9
$UCSORGTOP
 10
0.0
 20
0.0
 30
0.0
  9
$UCSORGBOTTOM
 10
0.0
 20
0.0
 30
0.0
  9
$UCSORGLEFT
 10
0.0
 20
0.0
 30
0.0
  9
$UCSORGRIGHT
 10
0.0
 20
0.0
 30
0.0
  9
$UCSORGFRONT
 10
0.0
 20
0.0
 30
0.0
  9
$UCSORGBACK
 10
0.0
 20
0.0
 30
0.0
  9
$PUCSBASE
  2

  9
$PUCSNAME
  2

  9
$PUCSORG
 10
0.0
 20
0.0
 30
0.0
  9
$PUCSXDIR
 10
1.0
 20
0.0
 30
0.0
  9
$PUCSYDIR
 10
0.0
 20
1.0
 30
0.0
  9
$PUCSORTHOREF
  2

  9
$PUCSORTHOVIEW
 70
     0
  9
$PUCSORGTOP
 10
0.0
 20
0.0
 30
0.0
  9
$PUCSORGBOTTOM
 10
0.0
 20
0.0
 30
0.0
  9
$PUCSORGLEFT
 10
0.0
 20
0.0
 30
0.0
  9
$PUCSORGRIGHT
 10
0.0
 20
0.0
 30
0.0
  9
$PUCSORGFRONT
 10
0.0
 20
0.0
 30
0.0
  9
$PUCSORGBACK
 10
0.0
 20
0.0
 30
0.0
  9
$USERI1
 70
     0
  9
$USERI2
 70
     0
  9
$USERI3
 70
     0
  9
$USERI4
 70
     0
  9
$USERI5
 70
     0
  9
$USERR1
 40
0.0
  9
$USERR2
 40
0.0
  9
$USERR3
 40
0.0
  9
$USERR4
 40
0.0
  9
$USERR5
 40
0.0
  9
$WORLDVIEW
 70
     1
  9
$SHADEDGE
 70
     3
  9
$SHADEDIF
 70
    70
  9
$TILEMODE
 70
     1
  9
$MAXACTVP
 70
    64
  9
$PINSBASE
 10
0.0
 20
0.0
 30
0.0
  9
$PLIMCHECK
 70
     0
  9
$PEXTMIN
 10
1.000000E+20
 20
1.000000E+20
 30
1.000000E+20
  9
$PEXTMAX
 10
-1.000000E+20
 20
-1.000000E+20
 30
-1.000000E+20
  9
$PLIMMIN
 10
0.0
 20
0.0
  9
$PLIMMAX
 10
297.0
 20
210.0
  9
$UNITMODE
 70
     0
  9
$VISRETAIN
 70
     0
  9
$PLINEGEN
 70
     0
  9
$PSLTSCALE
 70
     1
  9
$TREEDEPTH
 70
  3020
  9
$CMLSTYLE
  2
STANDARD
  9
$CMLJUST
 70
     0
  9
$CMLSCALE
 40
20.0
  9
$PROXYGRAPHICS
 70
     1
  9
$MEASUREMENT
 70
     1
  9
$CELWEIGHT
370
    -1
  9
$ENDCAPS
280
     0
  9
$JOINSTYLE
280
     0
  9
$LWDISPLAY
290
     0
  9
$INSUNITS
 70
     4
  9
$HYPERLINKBASE
  1
HTTP://WWW.SECOTOOLS.COM/
  9
$STYLESHEET
  1
MONOCHROME.CTB
  9
$XEDIT
290
     1
  9
$CEPSNTYPE
380
     0
  9
$PSTYLEMODE
290
     1
  9
$FINGERPRINTGUID
  2
{8D919C87-82A8-544E-B946-8FD0F26A622D}
  9
$VERSIONGUID
  2
{A4BA01F2-B552-6E43-82F9-9B1CC1DE2B29}
  9
$EXTNAMES
290
     1
  9
$PSVPSCALE
 40
0.0
  9
$OLESTARTUP
290
     0
  0
ENDSEC
  0
SECTION
  2
CLASSES
  0
CLASS
  1
ACDBDICTIONARYWDFLT
  2
AcDbDictionaryWithDefault
  3
ObjectDBX Classes
 90
        0
280
     0
281
     0
  0
CLASS
  1
ACDBPLACEHOLDER
  2
AcDbPlaceHolder
  3
ObjectDBX Classes
 90
        0
280
     0
281
     0
  0
CLASS
  1
LAYOUT
  2
AcDbLayout
  3
ObjectDBX Classes
 90
        0
280
     0
281
     0
  0
CLASS
  1
DICTIONARYVAR
  2
AcDbDictionaryVar
  3
ObjectDBX Classes
 90
        0
280
     0
281
     0
  0
CLASS
  1
TABLESTYLE
  2
AcDbTableStyle
  3
ObjectDBX Classes
 90
     4095
280
     0
281
     0
  0
CLASS
  1
MATERIAL
  2
AcDbMaterial
  3
ObjectDBX Classes
 90
     1153
280
     0
281
     0
  0
CLASS
  1
VISUALSTYLE
  2
AcDbVisualStyle
  3
ObjectDBX Classes
 90
     4095
280
     0
281
     0
  0
CLASS
  1
SCALE
  2
AcDbScale
  3
ObjectDBX Classes
 90
     1153
280
     0
281
     0
  0
CLASS
  1
MLEADERSTYLE
  2
AcDbMLeaderStyle
  3
ACDB_MLEADERSTYLE_CLASS
 90
     4095
280
     0
281
     0
  0
CLASS
  1
ACME_DOCUMENT
  2
AcMeDbDoc
  3
AcMeServices
 90
    33792
280
     0
281
     0
  0
CLASS
  1
AMGSETTINGSOBJ
  2
AmgSettingsObj
  3
"AcadM|Product Description: AutoCAD Mechanical|Company: Autodesk, Inc."
 90
     1024
280
     0
281
     0
  0
CLASS
  1
ACMESCOPE
  2
AcMeScope
  3
AcMeServices
 90
     1024
280
     0
281
     0
  0
CLASS
  1
ACMECOMMANDHISTORY
  2
AcMeCommandHistory
  3
AcMeServices
 90
     1024
280
     0
281
     0
  0
CLASS
  1
ACIMSYSVARMAN
  2
AcImSysVarManager
  3
AcMeServices
 90
     1024
280
     0
281
     0
  0
CLASS
  1
ACIMINTSYSVAR
  2
AcImIntSysVar
  3
AcMeServices
 90
     1024
280
     0
281
     0
  0
CLASS
  1
ACMEDRAWINGMAN
  2
AcMeDrawingMan
  3
AcMeServices
 90
    33792
280
     0
281
     0
  0
CLASS
  1
ACMEVIEW
  2
AcMeView
  3
AcMeServices
 90
    33792
280
     0
281
     0
  0
CLASS
  1
ACDBENTITYCACHE
  2
AcMeEntityCache
  3
AcMeServices
 90
    33792
280
     0
281
     0
  0
CLASS
  1
GSMANAGER
  2
AcMeGSManager
  3
AcMeServices
 90
    33792
280
     0
281
     0
  0
CLASS
  1
AMDTINTERNALREACTOR
  2
AmdtInternalReactor
  3
AcMeServices
 90
    33792
280
     0
281
     0
  0
CLASS
  1
ACMESTATEMGR
  2
AcMeStateMgr
  3
AcMeServices
 90
     1024
280
     0
281
     0
  0
CLASS
  1
ACGREFMASTER
  2
AcGrefMaster
  3
AcAttribServices
 90
     1024
280
     0
281
     0
  0
CLASS
  1
AM_DRAWING_MGR
  2
AcDmDwgMgr
  3
AcMechDwgViewMgmt
 90
     1024
280
     0
281
     0
  0
CLASS
  1
AM_DWG_DOCUMENT
  2
AcDmDwgDocument
  3
AcMechDwgViewMgmt
 90
     1024
280
     0
281
     0
  0
CLASS
  1
AM_DWG_SHEET
  2
AcDmSheet
  3
AcMechDwgViewMgmt
 90
     1024
280
     0
281
     0
  0
CLASS
  1
AM_VIEWDIMPARMAP
  2
AcDmViewDimParMap
  3
AcMechDwgViewMgmt
 90
     1024
280
     0
281
     0
  0
CLASS
  1
ACIMREALSYSVAR
  2
AcImRealSysVar
  3
AcMeServices
 90
     1024
280
     0
281
     0
  0
CLASS
  1
AM_DWGMGR_NAME
  2
AcDmDwgMgrName
  3
AcMechDwgViewMgmt
 90
     1024
280
     0
281
     0
  0
CLASS
  1
ACME_DATABASE
  2
AcMeDbDatabase
  3
AcMeServices
 90
    33792
280
     0
281
     0
  0
CLASS
  1
ACRFINSADJUSTERMGR
  2
AcRfInsAdjusterMgr
  3
AcMeServices
 90
    33792
280
     0
281
     0
  0
CLASS
  1
ACGREFACADMASTER
  2
AcGrefacadMaster
  3
AcGrefServices
 90
     1024
280
     0
281
     0
  0
CLASS
  1
AMDTMENUSTATEMGR
  2
AmdtMenuStateMgr
  3
McadcomServices
 90
    33792
280
     0
281
     0
  0
CLASS
  1
AMDTMCOMMENUSTATE
  2
AmdtMcomMenuState
  3
McadcomServices
 90
    33792
280
     0
281
     0
  0
CLASS
  1
AMIMASTER
  2
AmiMaster
  3
AmiServices
 90
     1024
280
     0
281
     0
  0
CLASS
  1
MAPIAMMOUDLE
  2
MApiAmModule
  3
MApiAmServices
 90
     1024
280
     0
281
     0
  0
CLASS
  1
ACIMSTRSYSVAR
  2
AcImStrSysVar
  3
AcMeServices
 90
     1024
280
     0
281
     0
  0
CLASS
  1
AMDTADMENUSTATE
  2
AmdtAdMenuState
  3
DesignerServices
 90
    33792
280
     0
281
     0
  0
CLASS
  1
ADAPPL
  2
AcAdAppl
  3
DesignerAssemblies
 90
    33792
280
     0
281
     0
  0
CLASS
  1
DEPMGR
  2
AcAdDepMgr
  3
DesignerAssemblies
 90
    33792
280
     0
281
     0
  0
CLASS
  1
PARAMMGR
  2
AcAdParamMgr
  3
DesignerAssemblies
 90
    33792
280
     0
281
     0
  0
CLASS
  1
PARAMSCOPE
  2
AcAdParamScope
  3
DesignerAssemblies
 90
    33792
280
     0
281
     0
  0
CLASS
  1
NAMEDAPPL
  2
AcAdNamedAppl
  3
DesignerAssemblies
 90
    33792
280
     0
281
     0
  0
CLASS
  1
AMDTDMMENUSTATE
  2
AmdtDmMenuState
  3
AcMechDwgViewMgmt
 90
    33792
280
     0
281
     0
  0
CLASS
  1
AMDTAMMENUSTATE
  2
AmdtAmMenuState
  3
DesignerAssemblies_arx
 90
    33792
280
     0
281
     0
  0
CLASS
  1
ACAMPROJECT
  2
AcAmProject
  3
DesignerAssemblies
 90
     1024
280
     0
281
     0
  0
CLASS
  1
ACAMGRCOMPDEF
  2
AcAmGrCompDef
  3
DesignerAssemblies
 90
     1024
280
     0
281
     0
  0
CLASS
  1
ACCMCONTEXT
  2
AcCmContext
  3
DesignerAssemblies
 90
     1024
280
     0
281
     0
  0
CLASS
  1
ACAMCOMPDEF
  2
AcAmCompDef
  3
DesignerAssemblies
 90
     1024
280
     0
281
     0
  0
CLASS
  1
ACAMCOMPDEFMGR
  2
AcAmCompDefMgr
  3
DesignerAssemblies
 90
     1024
280
     0
281
     0
  0
CLASS
  1
AMCONTEXTMGR
  2
AcAmContextMgr
  3
DesignerAssemblies
 90
     1024
280
     0
281
     0
  0
CLASS
  1
ACAMCONTEXTMODELER
  2
AcAmContextModeler
  3
DesignerAssemblies
 90
     1024
280
     0
281
     0
  0
CLASS
  1
ACMDATADICTIONARY
  2
AcmDataDictionary
  3
"AcmSymBB|Product Description: AutoCAD Mechanical|Company: Autodesk, Inc."
 90
     1024
280
     0
281
     0
  0
CLASS
  1
CATALOGSTATE
  2
AcAmCatalogState
  3
DesignerAssemblies_arx
 90
    33792
280
     0
281
     0
  0
CLASS
  1
ACAMGRCOMPDEFSET
  2
AcAmGrCompDefSet
  3
DesignerAssemblies
 90
    33792
280
     0
281
     0
  0
CLASS
  1
AMDTBROWSERDBTAB
  2
AmdtBrowserDbTab
  3
McadcomServices
 90
    33792
280
     0
281
     0
  0
CLASS
  1
CBROWSERAPPOBJECT
  2
CBrowserAppObject
  3
McadcomServices
 90
    33792
280
     0
281
     0
  0
CLASS
  1
DM_PLACEHOLDER
  2
AcDmSelsetPlaceholder
  3
McadcomServices
 90
    33792
280
     0
281
     0
  0
CLASS
  1
ACMSTANDARDDIN
  2
AcmStandardDIN
  3
"Amdt_StdImp|Product Description: AutoCAD Mechanical|Company: Autodesk, Inc."
 90
     1024
280
     0
281
     0
  0
CLASS
  1
AMGOBJPROPCFG
  2
AmgObjPropCfg
  3
"AmgLay|Product Description: AutoCAD Mechanical|Company: Autodesk, Inc."
 90
     1024
280
     0
281
     0
  0
CLASS
  1
AMDTEDGESTANDARDDIN13715
  2
AmdtEdgeStdDIN13715
  3
"Amdt_StdImp|Product Description: AutoCAD Mechanical|Company: Autodesk, Inc."
 90
     1024
280
     0
281
     0
  0
CLASS
  1
ACMSURFSTANDARDDIN2002
  2
AcmSurfTextStdDIN2002
  3
"Amdt_StdImp|Product Description: AutoCAD Mechanical|Company: Autodesk, Inc."
 90
     1024
280
     0
281
     0
  0
CLASS
  1
ACMFCFSTANDARDDIN
  2
AcmFCFStdDIN
  3
"Amdt_StdImp|Product Description: AutoCAD Mechanical|Company: Autodesk, Inc."
 90
     1024
280
     0
281
     0
  0
CLASS
  1
ACMWELDSTANDARDDIN
  2
AcmWeldingStdDIN
  3
"Amdt_StdImp|Product Description: AutoCAD Mechanical|Company: Autodesk, Inc."
 90
     1024
280
     0
281
     0
  0
CLASS
  1
ACMIDSTANDARDDIN
  2
AcmIdStdDIN
  3
"Amdt_StdImp|Product Description: AutoCAD Mechanical|Company: Autodesk, Inc."
 90
     1024
280
     0
281
     0
  0
CLASS
  1
ACMDATUMSTANDARDDIN
  2
AcmDatumStdDIN
  3
"Amdt_StdImp|Product Description: AutoCAD Mechanical|Company: Autodesk, Inc."
 90
     1024
280
     0
281
     0
  0
CLASS
  1
ACMBOMSTANDARDDIN
  2
AcmBOMStdDIN
  3
"Amdt_StdImp|Product Description: AutoCAD Mechanical|Company: Autodesk, Inc."
 90
     1024
280
     0
281
     0
  0
CLASS
  1
ACMDETAILSTANDARDDIN
  2
AmdtDetailSymStdDIN
  3
"Amdt_StdImp|Product Description: AutoCAD Mechanical|Company: Autodesk, Inc."
 90
     1024
280
     0
281
     0
  0
CLASS
  1
ACMSECTIONSTANDARDDIN
  2
AmdtSectionSymStdDIN
  3
"Amdt_StdImp|Product Description: AutoCAD Mechanical|Company: Autodesk, Inc."
 90
     1024
280
     0
281
     0
  0
CLASS
  1
ACMCENTERLINESTANDARDDIN
  2
AmdtCenterLineStdDIN
  3
"Amdt_StdImp|Product Description: AutoCAD Mechanical|Company: Autodesk, Inc."
 90
     1024
280
     0
281
     0
  0
CLASS
  1
ACMTHREADLINESTANDARDDIN
  2
AmdtThreadLineStdDIN
  3
"Amdt_StdImp|Product Description: AutoCAD Mechanical|Company: Autodesk, Inc."
 90
     1024
280
     0
281
     0
  0
CLASS
  1
ACMNOTESTANDARDDIN
  2
AmdtNoteStdDIN
  3
"Amdt_StdImp|Product Description: AutoCAD Mechanical|Company: Autodesk, Inc."
 90
     1024
280
     0
281
     0
  0
CLASS
  1
ACMTAPERSTANDARDDIN
  2
AcmTaperStdDIN
  3
"Amdt_StdImp|Product Description: AutoCAD Mechanical|Company: Autodesk, Inc."
 90
     1024
280
     0
281
     0
  0
CLASS
  1
ACMANOOTATIONVIEWSTANDARDDIN
  2
AmdtAnViewStdDIN
  3
"Amdt_StdImp|Product Description: AutoCAD Mechanical|Company: Autodesk, Inc."
 90
     1024
280
     0
281
     0
  0
CLASS
  1
AMDTNOTETEMPLATEDB
  2
AmdtNoteTemplateDB
  3
"AcmSymBB" "Product Description: AutoCAD Mechanical|Company: Autodesk, Inc."
 90
     1024
280
     0
281
     0
  0
CLASS
  1
ACAMGLAYSTD
  2
AcAmgLayStd
  3
"AmgLay|Product Description: AutoCAD Mechanical|Company: Autodesk, Inc."
 90
     1024
280
     0
281
     0
  0
CLASS
  1
ACAMGDIMSTD
  2
AcAmgDimStd
  3
"AmgDim|Product Description: AutoCAD Mechanical|Company: Autodesk, Inc."
 90
     1024
280
     0
281
     0
  0
CLASS
  1
ACAMGHOLECHARTSTDDIN
  2
AcAmgHoleChartStdDIN
  3
"AmgDim" "Product Description: AutoCAD Mechanical|Company: Autodesk, Inc."
 90
     1024
280
     0
281
     0
  0
CLASS
  1
ACAMGTITLESTD
  2
AcAmgTitleStd
  3
"AmgTitle|Product Description: AutoCAD Mechanical|Company: Autodesk, Inc."
 90
     1024
280
     0
281
     0
  0
CLASS
  1
ACAMGFILTERDAT
  2
AcAmgFilterDat
  3
"AcadM|Product Description: AutoCAD Mechanical|Company: Autodesk, Inc."
 90
     1024
280
     0
281
     0
  0
CLASS
  1
CAMSSTRUCTBTNSTATE
  2
StructBtnState
  3
DesignerAssemblies_arx
 90
     1024
280
     0
281
     0
  0
CLASS
  1
CELLSTYLEMAP
  2
AcDbCellStyleMap
  3
ObjectDBX Classes
 90
     1152
280
     0
281
     0
  0
CLASS
  1
SORTENTSTABLE
  2
AcDbSortentsTable
  3
ObjectDBX Classes
 90
        0
280
     0
281
     0
  0
CLASS
  1
PLOTSETTINGS
  2
AcDbPlotSettings
  3
ObjectDBX Classes
 90
        0
280
     0
281
     0
  0
CLASS
  1
SOLID_BACKGROUND
  2
AcDbSolidBackground
  3
SCENEOE
 90
    36863
280
     0
281
     0
  0
CLASS
  1
NPOCOLLECTION
  2
AcDbImpNonPersistentObjectsCollection
  3
ObjectDBX Classes
 90
    33921
280
     0
281
     0
  0
CLASS
  1
ACDBSECTIONVIEWSTYLE
  2
AcDbSectionViewStyle
  3
ObjectDBX Classes
 90
     1025
280
     0
281
     0
  0
CLASS
  1
ACDBDETAILVIEWSTYLE
  2
AcDbDetailViewStyle
  3
ObjectDBX Classes
 90
     1025
280
     0
281
     0
  0
CLASS
  1
ACMSECTIONSTANDARDCUSTOM
  2
AmdtSectionSymStdCustom
  3
"Amdt_StdImp|Product Description: AutoCAD Mechanical|Company: Autodesk, Inc."
 90
     1024
280
     0
281
     0
  0
CLASS
  1
ACMDETAILTANDARDCUSTOM
  2
AmdtDetailSymStdCustom
  3
"Amdt_StdImp|Product Description: AutoCAD Mechanical|Company: Autodesk, Inc."
 90
     1024
280
     0
281
     0
  0
CLASS
  1
FIELD
  2
AcDbField
  3
ObjectDBX Classes
 90
     1152
280
     0
281
     0
  0
CLASS
  1
FIELDLIST
  2
AcDbFieldList
  3
ObjectDBX Classes
 90
     1152
280
     0
281
     0
  0
CLASS
  1
DIMASSOC
  2
AcDbDimAssoc
  3
"AcDbDimAssoc|Product Desc:     AcDim ARX App For Dimension|Company:          Autodesk, Inc.|WEB Address:      www.autodesk.com"
 90
    32768
280
     0
281
     0
  0
CLASS
  1
ACDBASSOCNETWORK
  2
AcDbAssocNetwork
  3
ObjectDBX Classes
 90
    33793
280
     0
281
     0
  0
CLASS
  1
ACDBASSOC2DCONSTRAINTGROUP
  2
AcDbAssoc2dConstraintGroup
  3
ObjectDBX Classes
 90
    33793
280
     0
281
     0
  0
CLASS
  1
ACDBASSOCGEOMDEPENDENCY
  2
AcDbAssocGeomDependency
  3
ObjectDBX Classes
 90
    33793
280
     0
281
     0
  0
CLASS
  1
AC_AM_2D_XREF_MGR
  2
AcAmXrefMgr2d
  3
DesignerAssemblies
 90
     1024
280
     0
281
     0
  0
ENDSEC
  0
SECTION
  2
TABLES
  0
TABLE
  2
VPORT
  5
8
102
{ACAD_XDICTIONARY
360
A45
102
}
330
0
100
AcDbSymbolTable
 70
     1
  0
VPORT
  5
AD1
330
8
100
AcDbSymbolTableRecord
100
AcDbViewportTableRecord
  2
*Active
 70
     0
 10
0.0
 20
0.0
 11
1.0
 21
1.0
 12
-1.992117
 22
30.778428
 13
0.0
 23
0.0
 14
5.0
 24
5.0
 15
5.0
 25
5.0
 16
0.0
 26
0.0
 36
1.0
 17
0.0
 27
0.0
 37
0.0
 40
101.202876
 41
1.897269
 42
50.0
 43
0.0
 44
0.0
 50
0.0
 51
0.0
 71
     0
 72
  2000
 73
     1
 74
     3
 75
     0
 76
     0
 77
     0
 78
     0
281
     0
 65
     1
110
0.0
120
0.0
130
0.0
111
1.0
121
0.0
131
0.0
112
0.0
122
1.0
132
0.0
 79
     0
146
0.0
1001
ACAD_NAV_VCDISPLAY
1070
     3
  0
ENDTAB
  0
TABLE
  2
LTYPE
  5
5
330
0
100
AcDbSymbolTable
 70
     9
  0
LTYPE
  5
12
330
5
100
AcDbSymbolTableRecord
100
AcDbLinetypeTableRecord
  2
BYBLOCK
 70
     0
  3

 72
    65
 73
     0
 40
0.0
  0
LTYPE
  5
13
330
5
100
AcDbSymbolTableRecord
100
AcDbLinetypeTableRecord
  2
BYLAYER
 70
     0
  3

 72
    65
 73
     0
 40
0.0
  0
LTYPE
  5
17C0
330
5
100
AcDbSymbolTableRecord
100
AcDbLinetypeTableRecord
  2
Continuous
 70
     0
  3
Solid line
 72
    65
 73
     0
 40
0.0
  0
LTYPE
  5
4EF
330
5
100
AcDbSymbolTableRecord
100
AcDbLinetypeTableRecord
  2
ACDINWELD
 70
     0
  3
_ _ _ _ _
 72
    65
 73
     2
 40
2.0
 49
2.0
 74
     0
 49
-1.0
 74
     0
  0
LTYPE
  5
4F0
330
5
100
AcDbSymbolTableRecord
100
AcDbLinetypeTableRecord
  2
ACDINTGB
 70
     0
  3
__ . . __ . .
 72
    65
 73
     6
 40
9.0
 49
4.0
 74
     0
 49
-1.0
 74
     0
 49
1.0
 74
     0
 49
-1.0
 74
     0
 49
1.0
 74
     0
 49
-1.0
 74
     0
  0
LTYPE
  5
4F1
330
5
100
AcDbSymbolTableRecord
100
AcDbLinetypeTableRecord
  2
ACDINTGL
 70
     0
  3
_ _ _ _ _
 72
    65
 73
     2
 40
3.0
 49
2.0
 74
     0
 49
-1.0
 74
     0
  0
LTYPE
  5
916
330
5
100
AcDbSymbolTableRecord
100
AcDbLinetypeTableRecord
  2
LONGDASH_DASH
 70
     0
  3
ISO center line ____ _ ____ _ ____ _ ____ _ ___ _ ___
 72
    65
 73
     4
 40
10.5
 49
6.0
 74
     0
 49
-0.75
 74
     0
 49
3.0
 74
     0
 49
-0.75
 74
     0
  0
LTYPE
  5
917
330
5
100
AcDbSymbolTableRecord
100
AcDbLinetypeTableRecord
  2
DASH
 70
     0
  3
ISO hidden line __ __ __ __ __ __ __ __ __ __ __ __ __
 72
    65
 73
     2
 40
3.75
 49
3.0
 74
     0
 49
-0.75
 74
     0
  0
LTYPE
  5
CFA
330
5
100
AcDbSymbolTableRecord
100
AcDbLinetypeTableRecord
  2
HIDDEN
 70
     0
  3
Hidden __ __ __ __ __ __ __ __ __ __ __ __ __ _
 72
    65
 73
     2
 40
9.525
 49
6.35
 74
     0
 49
-3.175
 74
     0
  0
LTYPE
  5
CFB
330
5
100
AcDbSymbolTableRecord
100
AcDbLinetypeTableRecord
  2
PHANTOM2
 70
     0
  3
Phantom (.5x) ___ _ _ ___ _ _ ___ _ _ ___ _ _
 72
    65
 73
     6
 40
31.75
 49
15.875
 74
     0
 49
-3.175
 74
     0
 49
3.175
 74
     0
 49
-3.175
 74
     0
 49
3.175
 74
     0
 49
-3.175
 74
     0
  0
LTYPE
  5
CFC
330
5
100
AcDbSymbolTableRecord
100
AcDbLinetypeTableRecord
  2
CENTER
 70
     0
  3
Center ____ _ ____ _ ____ _ ____ _ ____ _ ____
 72
    65
 73
     4
 40
50.8
 49
31.75
 74
     0
 49
-6.35
 74
     0
 49
6.35
 74
     0
 49
-6.35
 74
     0
  0
ENDTAB
  0
TABLE
  2
LAYER
  5
2
102
{ACAD_XDICTIONARY
360
43C
102
}
330
0
100
AcDbSymbolTable
 70
    11
  0
LAYER
  5
F
102
{ACAD_XDICTIONARY
360
52D
102
}
330
2
100
AcDbSymbolTableRecord
100
AcDbLayerTableRecord
  2
0
 70
     0
 62
     7
  6
Continuous
290
     0
370
    -3
390
300
  0
LAYER
  5
24
102
{ACAD_XDICTIONARY
360
531
102
}
330
2
100
AcDbSymbolTableRecord
100
AcDbLayerTableRecord
  2
SK1
 70
     0
 62
     4
  6
Continuous
370
    50
390
300
  0
LAYER
  5
25
102
{ACAD_XDICTIONARY
360
533
102
}
330
2
100
AcDbSymbolTableRecord
100
AcDbLayerTableRecord
  2
2
 70
     0
 62
     7
  6
Continuous
370
    25
390
300
  0
LAYER
  5
27
102
{ACAD_XDICTIONARY
360
537
102
}
330
2
100
AcDbSymbolTableRecord
100
AcDbLayerTableRecord
  2
SK2
 70
     0
 62
     7
  6
Continuous
370
    25
390
300
  0
LAYER
  5
2A
102
{ACAD_XDICTIONARY
360
53D
102
}
330
2
100
AcDbSymbolTableRecord
100
AcDbLayerTableRecord
  2
4
 70
     0
 62
     2
  6
LONGDASH_DASH
370
    25
390
300
  0
LAYER
  5
2B
102
{ACAD_XDICTIONARY
360
53F
102
}
330
2
100
AcDbSymbolTableRecord
100
AcDbLayerTableRecord
  2
SK4
 70
     0
 62
     2
  6
LONGDASH_DASH
370
    25
390
300
  0
LAYER
  5
2E
102
{ACAD_XDICTIONARY
360
545
102
}
330
2
100
AcDbSymbolTableRecord
100
AcDbLayerTableRecord
  2
SK6
 70
     0
 62
     5
  6
Continuous
370
    35
390
300
  0
LAYER
  5
EB5
102
{ACAD_XDICTIONARY
360
16F6
102
}
330
2
100
AcDbSymbolTableRecord
100
AcDbLayerTableRecord
  2
NOCUT
 70
     0
 62
     7
  6
Continuous
290
     0
370
    25
390
300
1001
AcAecLayerStandard
1000

1000

1001
ACCMTRANSPARENCY
1071
        0
  0
LAYER
  5
EB7
102
{ACAD_XDICTIONARY
360
16F8
102
}
330
2
100
AcDbSymbolTableRecord
100
AcDbLayerTableRecord
  2
CUT
 70
     0
 62
     1
  6
Continuous
290
     0
370
    25
390
300
1001
AcAecLayerStandard
1000

1000

1001
ACCMTRANSPARENCY
1071
        0
  0
LAYER
  5
EB8
102
{ACAD_XDICTIONARY
360
16FA
102
}
330
2
100
AcDbSymbolTableRecord
100
AcDbLayerTableRecord
  2
1
 70
     0
 62
     4
  6
Continuous
290
     0
370
    50
390
300
1001
AcAecLayerStandard
1000

1000

1001
ACCMTRANSPARENCY
1071
        0
  0
LAYER
  5
1039
330
2
100
AcDbSymbolTableRecord
100
AcDbLayerTableRecord
  2
Defpoints
 70
     0
 62
     7
  6
Continuous
290
     0
370
    -3
390
300
  0
ENDTAB
  0
TABLE
  2
STYLE
  5
3
330
0
100
AcDbSymbolTable
 70
     8
  0
STYLE
  5
10
330
3
100
AcDbSymbolTableRecord
100
AcDbTextStyleTableRecord
  2
STANDARD
 70
     0
 40
0.0
 41
1.0
 50
0.0
 71
     0
 42
5.0
  3
monos.ttf
  4

1001
ACAD
1000
Monospac821 BT
1071
       49
  0
STYLE
  5
1E
330
3
100
AcDbSymbolTableRecord
100
AcDbTextStyleTableRecord
  2
STANDARD 5 mm
 70
     0
 40
5.0
 41
1.0
 50
0.0
 71
     0
 42
3.5
  3
monos.ttf
  4

1001
ACAD
1000
Monospac821 BT
1071
       49
  0
STYLE
  5
4DF
330
3
100
AcDbSymbolTableRecord
100
AcDbTextStyleTableRecord
  2
ACDINTS
 70
     0
 40
1.0
 41
1.0
 50
0.0
 71
     0
 42
3.5
  3
monos.ttf
  4

1001
ACAD
1000
Monospac821 BT
1071
       49
  0
STYLE
  5
4EE
330
3
100
AcDbSymbolTableRecord
100
AcDbTextStyleTableRecord
  2
ACDINGDT
 70
     0
 40
0.0
 41
1.0
 50
0.0
 71
     0
 42
3.5
  3
monos.ttf
  4

1001
ACAD
1000
Monospac821 BT
1071
       49
  0
STYLE
  5
7DE
330
3
100
AcDbSymbolTableRecord
100
AcDbTextStyleTableRecord
  2
STANDARD 3.5 mm
 70
     0
 40
3.5
 41
1.0
 50
0.0
 71
     0
 42
3.5
  3
monos.ttf
  4

1001
ACAD
1000
Monospac821 BT
1071
       49
  0
STYLE
  5
E90
330
3
100
AcDbSymbolTableRecord
100
AcDbTextStyleTableRecord
  2
USER1
 70
     0
 40
0.0
 41
1.0
 50
0.0
 71
     0
 42
5.0
  3
TXT.SHX
  4

  0
STYLE
  5
13B1
330
3
100
AcDbSymbolTableRecord
100
AcDbTextStyleTableRecord
  2
Monospac821 BT
 70
     0
 40
0.0
 41
1.0
 50
0.0
 71
     0
 42
0.0
  3
monos.ttf
  4

1001
ACAD
1000
Monospac821 BT
1071
        0
  0
STYLE
  5
13B2
330
3
100
AcDbSymbolTableRecord
100
AcDbTextStyleTableRecord
  2
STANDARD 3.5
 70
     0
 40
3.5
 41
1.0
 50
0.0
 71
     0
 42
3.5
  3
monos.ttf
  4

1001
ACAD
1000
Monospac821 BT
1071
       49
  0
ENDTAB
  0
TABLE
  2
VIEW
  5
6
330
0
100
AcDbSymbolTable
 70
     6
  0
VIEW
  5
758
330
6
100
AcDbSymbolTableRecord
100
AcDbViewTableRecord
  2
AM_VIEW1
 70
     1
 40
148.526505
 10
121.031836
 20
219.614757
 41
248.413648
 11
0.0
 21
0.0
 31
1.0
 12
0.0
 22
0.0
 32
0.0
 42
50.0
 43
0.0
 44
0.0
 50
0.0
 71
     0
281
     0
 72
     0
  0
VIEW
  5
759
330
6
100
AcDbSymbolTableRecord
100
AcDbViewTableRecord
  2
AM_VIEW2
 70
     1
 40
148.526505
 10
292.43786
 20
219.614757
 41
248.413648
 11
0.0
 21
0.0
 31
1.0
 12
0.0
 22
0.0
 32
0.0
 42
50.0
 43
0.0
 44
0.0
 50
0.0
 71
     0
281
     0
 72
     0
  0
VIEW
  5
75A
330
6
100
AcDbSymbolTableRecord
100
AcDbViewTableRecord
  2
AM_VIEW3
 70
     1
 40
148.526505
 10
121.031836
 20
71.088252
 41
248.413648
 11
0.0
 21
0.0
 31
1.0
 12
0.0
 22
0.0
 32
0.0
 42
50.0
 43
0.0
 44
0.0
 50
0.0
 71
     0
281
     0
 72
     0
  0
VIEW
  5
75B
330
6
100
AcDbSymbolTableRecord
100
AcDbViewTableRecord
  2
AM_VIEW4
 70
     1
 40
148.526505
 10
292.43786
 20
71.088252
 41
248.413648
 11
0.0
 21
0.0
 31
1.0
 12
0.0
 22
0.0
 32
0.0
 42
50.0
 43
0.0
 44
0.0
 50
0.0
 71
     0
281
     0
 72
     0
  0
VIEW
  5
75C
330
6
100
AcDbSymbolTableRecord
100
AcDbViewTableRecord
  2
AM_VIEW5
 70
     1
 40
148.526505
 10
206.734848
 20
145.351505
 41
248.413648
 11
0.0
 21
0.0
 31
1.0
 12
0.0
 22
0.0
 32
0.0
 42
50.0
 43
0.0
 44
0.0
 50
0.0
 71
     0
281
     0
 72
     0
  0
VIEW
  5
75D
330
6
100
AcDbSymbolTableRecord
100
AcDbViewTableRecord
  2
AM_VIEW6
 70
     1
 40
297.050039
 10
206.734848
 20
145.351505
 41
496.822327
 11
0.0
 21
0.0
 31
1.0
 12
0.0
 22
0.0
 32
0.0
 42
50.0
 43
0.0
 44
0.0
 50
0.0
 71
     0
281
     0
 72
     0
  0
ENDTAB
  0
TABLE
  2
UCS
  5
7
330
0
100
AcDbSymbolTable
 70
     0
  0
ENDTAB
  0
TABLE
  2
APPID
  5
9
330
0
100
AcDbSymbolTable
 70
    43
  0
APPID
  5
11
330
9
100
AcDbSymbolTableRecord
100
AcDbRegAppTableRecord
  2
ACAD
 70
     0
  0
APPID
  5
3A6
330
9
100
AcDbSymbolTableRecord
100
AcDbRegAppTableRecord
  2
ACAD_PSEXT
 70
     0
  0
APPID
  5
3A8
330
9
100
AcDbSymbolTableRecord
100
AcDbRegAppTableRecord
  2
ACAD_EXEMPT_FROM_CAD_STANDARDS
 70
     0
  0
APPID
  5
433
330
9
100
AcDbSymbolTableRecord
100
AcDbRegAppTableRecord
  2
AcAecLayerStandard
 70
     0
  0
APPID
  5
471
330
9
100
AcDbSymbolTableRecord
100
AcDbRegAppTableRecord
  2
ACAD_MLEADERVER
 70
     0
  0
APPID
  5
47D
330
9
100
AcDbSymbolTableRecord
100
AcDbRegAppTableRecord
  2
MCAD_NO_VIS
 70
     0
  0
APPID
  5
47E
330
9
100
AcDbSymbolTableRecord
100
AcDbRegAppTableRecord
  2
ACAD_TEMP_GRAPHIC
 70
     0
  0
APPID
  5
4AC
330
9
100
AcDbSymbolTableRecord
100
AcDbRegAppTableRecord
  2
AD_DRAW
 70
     0
  0
APPID
  5
4AF
330
9
100
AcDbSymbolTableRecord
100
AcDbRegAppTableRecord
  2
ACATTRIBSERVICES
 70
     0
  0
APPID
  5
4D0
330
9
100
AcDbSymbolTableRecord
100
AcDbRegAppTableRecord
  2
DESIGNERASSEMBLIES
 70
     0
  0
APPID
  5
4D6
330
9
100
AcDbSymbolTableRecord
100
AcDbRegAppTableRecord
  2
ACADM_DIM_EDIT
 70
     0
  0
APPID
  5
4D7
330
9
100
AcDbSymbolTableRecord
100
AcDbRegAppTableRecord
  2
AMDT_DM_ADJ
 70
     0
  0
APPID
  5
5CD
330
9
100
AcDbSymbolTableRecord
100
AcDbRegAppTableRecord
  2
AcDbAttr
 70
     0
  0
APPID
  5
5CE
330
9
100
AcDbSymbolTableRecord
100
AcDbRegAppTableRecord
  2
ACAUTHENVIRON
 70
     0
  0
APPID
  5
5CF
330
9
100
AcDbSymbolTableRecord
100
AcDbRegAppTableRecord
  2
AcDbDynamicBlockTrueName
 70
     0
  0
APPID
  5
5D0
330
9
100
AcDbSymbolTableRecord
100
AcDbRegAppTableRecord
  2
ACDBBLOCKREPETAG
 70
     0
  0
APPID
  5
723
330
9
100
AcDbSymbolTableRecord
100
AcDbRegAppTableRecord
  2
GENIUS_GENTRA_14
 70
     0
  0
APPID
  5
752
330
9
100
AcDbSymbolTableRecord
100
AcDbRegAppTableRecord
  2
GENIUS_GENOENT_13
 70
     0
  0
APPID
  5
753
330
9
100
AcDbSymbolTableRecord
100
AcDbRegAppTableRecord
  2
GENIUS_GENOBJ-N-TIT_13
 70
     0
  0
APPID
  5
754
330
9
100
AcDbSymbolTableRecord
100
AcDbRegAppTableRecord
  2
GENIUS_GENODEF_13
 70
     0
  0
APPID
  5
755
330
9
100
AcDbSymbolTableRecord
100
AcDbRegAppTableRecord
  2
GENIUS_GENOLIS_13
 70
     0
  0
APPID
  5
756
330
9
100
AcDbSymbolTableRecord
100
AcDbRegAppTableRecord
  2
GENIUS_GENTITLE_13
 70
     0
  0
APPID
  5
757
330
9
100
AcDbSymbolTableRecord
100
AcDbRegAppTableRecord
  2
GENIUS_GENOREF_13
 70
     0
  0
APPID
  5
75E
330
9
100
AcDbSymbolTableRecord
100
AcDbRegAppTableRecord
  2
GENIUS_GENSCREG_15
 70
     0
  0
APPID
  5
75F
330
9
100
AcDbSymbolTableRecord
100
AcDbRegAppTableRecord
  2
GENIUS_GENOBJ-N-SDF_13
 70
     0
  0
APPID
  5
7BE
330
9
100
AcDbSymbolTableRecord
100
AcDbRegAppTableRecord
  2
AcadAnnoPO
 70
     0
  0
APPID
  5
7BF
330
9
100
AcDbSymbolTableRecord
100
AcDbRegAppTableRecord
  2
ACAD_DSTYLE_DIMJAG
 70
     0
  0
APPID
  5
7C0
330
9
100
AcDbSymbolTableRecord
100
AcDbRegAppTableRecord
  2
ACAD_DSTYLE_DIMTALN
 70
     0
  0
APPID
  5
A53
330
9
100
AcDbSymbolTableRecord
100
AcDbRegAppTableRecord
  2
ACAD_DSTYLE_DIMARC_LENGTH_SYMBOL
 70
     0
  0
APPID
  5
A65
330
9
100
AcDbSymbolTableRecord
100
AcDbRegAppTableRecord
  2
ACAD_DSTYLE_DIMJOGGED_JOGANGLE_SYMBOL
 70
     0
  0
APPID
  5
CCE
330
9
100
AcDbSymbolTableRecord
100
AcDbRegAppTableRecord
  2
ACAD_DSTYLE_DIMBREAK
 70
     0
  0
APPID
  5
D24
330
9
100
AcDbSymbolTableRecord
100
AcDbRegAppTableRecord
  2
ACAD_NAV_VCDISPLAY
 70
     0
  0
APPID
  5
D4A
330
9
100
AcDbSymbolTableRecord
100
AcDbRegAppTableRecord
  2
GENIUS_GENREC_14
 70
     0
  0
APPID
  5
D4B
330
9
100
AcDbSymbolTableRecord
100
AcDbRegAppTableRecord
  2
GENIUS_GENOBJ-N-REC_13
 70
     0
  0
APPID
  5
DC9
330
9
100
AcDbSymbolTableRecord
100
AcDbRegAppTableRecord
  2
ACAD_DSTYLE_DIMRADIAL_EXTENSION
 70
     0
  0
APPID
  5
EB6
330
9
100
AcDbSymbolTableRecord
100
AcDbRegAppTableRecord
  2
ACCMTRANSPARENCY
 70
     0
  0
APPID
  5
1051
330
9
100
AcDbSymbolTableRecord
100
AcDbRegAppTableRecord
  2
GENIUS_GENDTOL_13
 70
     0
  0
APPID
  5
1052
330
9
100
AcDbSymbolTableRecord
100
AcDbRegAppTableRecord
  2
ACAD_DSTYLE_DIMINSPECT
 70
     0
  0
APPID
  5
1065
330
9
100
AcDbSymbolTableRecord
100
AcDbRegAppTableRecord
  2
AcadAnnoMonitorAlertIconDisabled
 70
     0
  0
APPID
  5
13B4
330
9
100
AcDbSymbolTableRecord
100
AcDbRegAppTableRecord
  2
ACAD_DSTYLE_DIM_LINETYPE
 70
     0
  0
APPID
  5
13B5
330
9
100
AcDbSymbolTableRecord
100
AcDbRegAppTableRecord
  2
ACAD_DSTYLE_DIM_EXT1_LINETYPE
 70
     0
  0
APPID
  5
13B6
330
9
100
AcDbSymbolTableRecord
100
AcDbRegAppTableRecord
  2
ACAD_DSTYLE_DIM_EXT2_LINETYPE
 70
     0
  0
APPID
  5
17B6
330
9
100
AcDbSymbolTableRecord
100
AcDbRegAppTableRecord
  2
ACAD_DSTYLE_DIMFLIPARROW_WHICH_SYMBOL
 70
     0
  0
ENDTAB
  0
TABLE
  2
DIMSTYLE
  5
A
330
0
100
AcDbSymbolTable
 70
    10
100
AcDbDimStyleTable
 71
     4
340
4FC
340
3F
340
501
340
506
  0
DIMSTYLE
105
3F
330
A
100
AcDbSymbolTableRecord
100
AcDbDimStyleTableRecord
  2
STANDARD
 70
     0
 41
5.0
 42
1.0
 43
15.0
 44
2.0
 48
0.0
 73
     0
 74
     0
 77
     1
 78
     9
 79
     2
140
3.5
143
0.03937
147
2.3
171
     3
172
     1
271
     2
272
     2
273
     3
274
     3
284
     8
285
    11
286
     8
340
7DE
1001
ACAD_DSTYLE_DIMJAG
1070
   388
1040
1.5
1001
ACAD_DSTYLE_DIMTALN
1070
   392
1070
     0
1001
ACAD_DSTYLE_DIMARC_LENGTH_SYMBOL
1070
   379
1070
     1
1001
ACAD_DSTYLE_DIMJOGGED_JOGANGLE_SYMBOL
1070
   384
1040
1.570796
  0
DIMSTYLE
105
4FC
102
{ACAD_REACTORS
330
141A
330
1417
330
141D
330
141C
330
141B
330
1419
330
1418
330
1416
102
}
330
A
100
AcDbSymbolTableRecord
100
AcDbDimStyleTableRecord
  2
AM_DIN
 70
     0
 41
2.5
 42
1.0
 43
15.0
 44
2.0
 48
0.0
 73
     0
 74
     0
 77
     1
 78
     8
 79
     2
140
3.5
143
0.03937
146
0.707107
147
1.0
171
     3
172
     1
271
     2
272
     2
273
     3
274
     3
284
     8
285
    11
286
     8
340
7DE
371
    -1
372
    -1
1001
ACAD_DSTYLE_DIMJAG
1070
   388
1040
1.5
1001
ACAD_DSTYLE_DIMTALN
1070
   392
1070
     0
1001
ACAD_DSTYLE_DIMARC_LENGTH_SYMBOL
1070
   379
1070
     1
1001
ACAD_DSTYLE_DIMJOGGED_JOGANGLE_SYMBOL
1070
   384
1040
1.570796
  0
DIMSTYLE
105
4FD
330
A
100
AcDbSymbolTableRecord
100
AcDbDimStyleTableRecord
  2
AM_DIN$3
 70
     0
 41
2.5
 42
1.0
 43
10.0
 44
2.0
 48
0.0
 73
     0
 77
     1
 78
     8
 79
     2
140
3.5
143
0.03937
146
0.707107
147
1.0
171
     3
271
     2
272
     3
273
     3
274
     4
284
     8
285
    11
286
     8
288
     1
289
     0
340
7DE
371
    -1
372
    -1
1001
ACAD_DSTYLE_DIMBREAK
1070
   391
1040
3.75
1001
ACAD_DSTYLE_DIMJAG
1070
   388
1040
1.5
1001
ACAD_DSTYLE_DIMTALN
1070
   392
1070
     0
1001
ACAD_DSTYLE_DIMARC_LENGTH_SYMBOL
1070
   379
1070
     1
1001
ACAD_DSTYLE_DIMJOGGED_JOGANGLE_SYMBOL
1070
   384
1040
1.570796
  0
DIMSTYLE
105
4FE
330
A
100
AcDbSymbolTableRecord
100
AcDbDimStyleTableRecord
  2
AM_DIN$4
 70
     0
 41
2.5
 42
1.0
 43
10.0
 44
2.0
 48
0.0
 73
     0
 77
     1
 78
     8
 79
     2
140
3.5
143
0.03937
146
0.707107
147
1.0
171
     3
271
     2
272
     3
273
     3
274
     4
284
     8
285
    11
286
     8
288
     1
289
     0
340
7DE
371
    -1
372
    -1
1001
ACAD_DSTYLE_DIMBREAK
1070
   391
1040
3.75
1001
ACAD_DSTYLE_DIMJAG
1070
   388
1040
1.5
1001
ACAD_DSTYLE_DIMTALN
1070
   392
1070
     0
1001
ACAD_DSTYLE_DIMARC_LENGTH_SYMBOL
1070
   379
1070
     1
1001
ACAD_DSTYLE_DIMJOGGED_JOGANGLE_SYMBOL
1070
   384
1040
1.570796
  0
DIMSTYLE
105
4FF
330
A
100
AcDbSymbolTableRecord
100
AcDbDimStyleTableRecord
  2
AM_DIN$6
 70
     0
 41
2.5
 42
1.0
 43
10.0
 44
2.0
 48
0.0
 73
     0
 74
     0
 78
     8
 79
     2
140
3.5
143
0.03937
146
0.707107
147
1.0
171
     3
172
     1
271
     2
272
     2
273
     3
274
     3
284
     8
285
    11
286
     8
340
7DE
371
    -1
372
    -1
1001
ACAD_DSTYLE_DIMBREAK
1070
   391
1040
3.75
1001
ACAD_DSTYLE_DIMJAG
1070
   388
1040
1.5
1001
ACAD_DSTYLE_DIMTALN
1070
   392
1070
     0
1001
ACAD_DSTYLE_DIMARC_LENGTH_SYMBOL
1070
   379
1070
     1
1001
ACAD_DSTYLE_DIMJOGGED_JOGANGLE_SYMBOL
1070
   384
1040
1.570796
  0
DIMSTYLE
105
500
330
A
100
AcDbSymbolTableRecord
100
AcDbDimStyleTableRecord
  2
AM_DIN$7
 70
     0
 41
2.5
 42
1.0
 43
10.0
 44
2.0
 48
0.0
 73
     0
 74
     0
 77
     1
 78
     8
 79
     2
140
5.0
143
0.03937
146
0.707107
147
1.0
171
     3
172
     1
271
     2
272
     3
273
     3
274
     4
284
     8
285
    11
286
     8
340
7DE
371
    -1
372
    -1
1001
ACAD_DSTYLE_DIMBREAK
1070
   391
1040
3.75
1001
ACAD_DSTYLE_DIMJAG
1070
   388
1040
1.5
1001
ACAD_DSTYLE_DIMTALN
1070
   392
1070
     0
1001
ACAD_DSTYLE_DIMARC_LENGTH_SYMBOL
1070
   379
1070
     1
1001
ACAD_DSTYLE_DIMJOGGED_JOGANGLE_SYMBOL
1070
   384
1040
1.570796
  0
DIMSTYLE
105
501
330
A
100
AcDbSymbolTableRecord
100
AcDbDimStyleTableRecord
  2
AM_DIN$SF
 70
     0
 41
2.5
 42
1.0
 43
10.0
 44
2.0
 48
0.0
 73
     0
 74
     0
 75
     1
 76
     1
 77
     1
 78
     8
 79
     2
140
3.5
143
0.03937
146
0.707107
147
1.0
171
     3
172
     1
271
     2
272
     2
273
     3
274
     3
284
     8
285
    11
286
     8
340
7DE
371
    -1
372
    -1
1001
ACAD_DSTYLE_DIMBREAK
1070
   391
1040
3.75
1001
ACAD_DSTYLE_DIMJAG
1070
   388
1040
1.5
1001
ACAD_DSTYLE_DIMTALN
1070
   392
1070
     0
1001
ACAD_DSTYLE_DIMARC_LENGTH_SYMBOL
1070
   379
1070
     1
1001
ACAD_DSTYLE_DIMJOGGED_JOGANGLE_SYMBOL
1070
   384
1040
1.570796
  0
DIMSTYLE
105
506
330
A
100
AcDbSymbolTableRecord
100
AcDbDimStyleTableRecord
  2
AM_DIN$SH
 70
     0
 41
2.5
 42
1.0
 43
10.0
 44
2.0
 48
0.0
 73
     0
 74
     0
 75
     1
 76
     1
 77
     1
 78
     8
 79
     2
140
3.5
143
0.03937
144
2.0
146
0.707107
147
1.0
171
     3
172
     1
271
     2
272
     2
273
     3
274
     3
284
     8
285
    11
286
     8
340
7DE
371
    -1
372
    -1
1001
ACAD_DSTYLE_DIMBREAK
1070
   391
1040
3.75
1001
ACAD_DSTYLE_DIMJAG
1070
   388
1040
1.5
1001
ACAD_DSTYLE_DIMTALN
1070
   392
1070
     0
1001
ACAD_DSTYLE_DIMARC_LENGTH_SYMBOL
1070
   379
1070
     1
1001
ACAD_DSTYLE_DIMJOGGED_JOGANGLE_SYMBOL
1070
   384
1040
1.570796
  0
DIMSTYLE
105
1035
330
A
100
AcDbSymbolTableRecord
100
AcDbDimStyleTableRecord
  2
AM_DIN$0
 70
     0
 41
2.5
 42
1.0
 43
15.0
 44
2.0
 48
0.0
 73
     0
 74
     0
 77
     1
 78
     8
 79
     2
140
3.5
143
0.03937
146
0.707107
147
1.0
171
     3
172
     1
271
     2
272
     2
273
     3
274
     3
284
     8
285
    11
286
     8
340
7DE
371
    -1
372
    -1
1001
ACAD_DSTYLE_DIMBREAK
1070
   391
1040
3.75
1001
ACAD_DSTYLE_DIMJAG
1070
   388
1040
1.5
1001
ACAD_DSTYLE_DIMARC_LENGTH_SYMBOL
1070
   379
1070
     1
1001
ACAD_DSTYLE_DIMJOGGED_JOGANGLE_SYMBOL
1070
   384
1040
1.570796
  0
DIMSTYLE
105
13B3
330
A
100
AcDbSymbolTableRecord
100
AcDbDimStyleTableRecord
  2
NewStyle
 70
     0
  3
<>
  4
[]
 41
3.5
 73
     0
 74
     0
 79
     3
140
3.5
340
13B2
1001
ACAD_DSTYLE_DIMBREAK
1070
   391
1040
6.35
1001
ACAD_DSTYLE_DIM_LINETYPE
1070
   380
1005
12
1001
ACAD_DSTYLE_DIM_EXT1_LINETYPE
1070
   381
1005
12
1001
ACAD_DSTYLE_DIM_EXT2_LINETYPE
1070
   382
1005
12
  0
ENDTAB
  0
TABLE
  2
BLOCK_RECORD
  5
1
330
0
100
AcDbSymbolTable
 70
    17
  0
BLOCK_RECORD
  5
18
102
{ACAD_XDICTIONARY
360
DB1
102
}
330
1
100
AcDbSymbolTableRecord
100
AcDbBlockTableRecord
  2
*MODEL_SPACE
340
303
  0
BLOCK_RECORD
  5
B56
330
1
100
AcDbSymbolTableRecord
100
AcDbBlockTableRecord
  2
*Paper_Space
340
B57
  0
BLOCK_RECORD
  5
4C7
330
1
100
AcDbSymbolTableRecord
100
AcDbBlockTableRecord
  2
*U0
340
0
  0
BLOCK_RECORD
  5
D0B
330
1
100
AcDbSymbolTableRecord
100
AcDbBlockTableRecord
  2
_ACMFILLED15
340
0
  0
BLOCK_RECORD
  5
D16
330
1
100
AcDbSymbolTableRecord
100
AcDbBlockTableRecord
  2
_ACMFILLED30
340
0
  0
BLOCK_RECORD
  5
102E
330
1
100
AcDbSymbolTableRecord
100
AcDbBlockTableRecord
  2
*U3
340
0
  0
BLOCK_RECORD
  5
1382
330
1
100
AcDbSymbolTableRecord
100
AcDbBlockTableRecord
  2
AUDIT_I_240604100142-0
340
0
  0
BLOCK_RECORD
  5
138C
330
1
100
AcDbSymbolTableRecord
100
AcDbBlockTableRecord
  2
AUDIT_I_240604100142-1
340
0
  0
BLOCK_RECORD
  5
1396
330
1
100
AcDbSymbolTableRecord
100
AcDbBlockTableRecord
  2
AUDIT_I_240604100142-2
340
0
  0
BLOCK_RECORD
  5
139F
330
1
100
AcDbSymbolTableRecord
100
AcDbBlockTableRecord
  2
AUDIT_I_240604100142-3
340
0
  0
BLOCK_RECORD
  5
13A8
330
1
100
AcDbSymbolTableRecord
100
AcDbBlockTableRecord
  2
AUDIT_I_240604100142-4
340
0
  0
BLOCK_RECORD
  5
141E
330
1
100
AcDbSymbolTableRecord
100
AcDbBlockTableRecord
  2
*D9
340
0
  0
BLOCK_RECORD
  5
142A
330
1
100
AcDbSymbolTableRecord
100
AcDbBlockTableRecord
  2
*D10
340
0
  0
BLOCK_RECORD
  5
1436
330
1
100
AcDbSymbolTableRecord
100
AcDbBlockTableRecord
  2
*D11
340
0
  0
BLOCK_RECORD
  5
1443
330
1
100
AcDbSymbolTableRecord
100
AcDbBlockTableRecord
  2
*D12
340
0
  0
BLOCK_RECORD
  5
144F
330
1
100
AcDbSymbolTableRecord
100
AcDbBlockTableRecord
  2
*D13
340
0
  0
BLOCK_RECORD
  5
145A
330
1
100
AcDbSymbolTableRecord
100
AcDbBlockTableRecord
  2
*D14
340
0
  0
BLOCK_RECORD
  5
1466
330
1
100
AcDbSymbolTableRecord
100
AcDbBlockTableRecord
  2
*D15
340
0
  0
BLOCK_RECORD
  5
1472
330
1
100
AcDbSymbolTableRecord
100
AcDbBlockTableRecord
  2
*D16
340
0
  0
ENDTAB
  0
ENDSEC
  0
SECTION
  2
BLOCKS
  0
BLOCK
  5
32
330
18
100
AcDbEntity
  8
0
100
AcDbBlockBegin
  2
*MODEL_SPACE
 70
     0
 10
0.0
 20
0.0
 30
0.0
  3
*MODEL_SPACE
  1

  0
ENDBLK
  5
33
330
18
100
AcDbEntity
  8
0
100
AcDbBlockEnd
  0
BLOCK
  5
B58
330
B56
100
AcDbEntity
 67
     1
  8
0
100
AcDbBlockBegin
  2
*Paper_Space
 70
     0
 10
0.0
 20
0.0
 30
0.0
  3
*Paper_Space
  1

  0
ENDBLK
  5
B59
330
B56
100
AcDbEntity
 67
     1
  8
0
100
AcDbBlockEnd
  0
BLOCK
  5
4C8
330
4C7
100
AcDbEntity
  8
0
100
AcDbBlockBegin
  2
*U0
 70
     1
 10
0.0
 20
0.0
 30
0.0
  3
*U0
  1

  0
ENDBLK
  5
4C9
330
4C7
100
AcDbEntity
  8
0
100
AcDbBlockEnd
  0
BLOCK
  5
D0D
330
D0B
100
AcDbEntity
  8
0
100
AcDbBlockBegin
  2
_ACMFILLED15
 70
     0
 10
0.0
 20
0.0
 30
0.0
  3
_ACMFILLED15
  1

  0
ENDBLK
  5
D0E
330
D0B
100
AcDbEntity
  8
0
100
AcDbBlockEnd
  0
BLOCK
  5
D18
330
D16
100
AcDbEntity
  8
0
100
AcDbBlockBegin
  2
_ACMFILLED30
 70
     0
 10
0.0
 20
0.0
 30
0.0
  3
_ACMFILLED30
  1

  0
ENDBLK
  5
D19
330
D16
100
AcDbEntity
  8
0
100
AcDbBlockEnd
  0
BLOCK
  5
102F
330
102E
100
AcDbEntity
  8
0
100
AcDbBlockBegin
  2
*U3
 70
     1
 10
0.0
 20
0.0
 30
0.0
  3
*U3
  1

  0
ENDBLK
  5
1030
330
102E
100
AcDbEntity
  8
0
100
AcDbBlockEnd
  0
BLOCK
  5
1383
330
1382
100
AcDbEntity
  8
0
100
AcDbBlockBegin
  2
AUDIT_I_240604100142-0
 70
     0
 10
0.0
 20
0.0
 30
0.0
  3
AUDIT_I_240604100142-0
  1

  0
MTEXT
  5
1384
330
1382
100
AcDbEntity
  8
SK2
  6
Continuous
 62
     7
370
    13
100
AcDbMText
 10
-62.070404
 20
0.072945
 30
0.0
 40
3.5
 41
0.0
 71
     7
 72
     5
  1
\fMonospac821 BT|b0|i0;\W1.0000;16
  7
Monospac821 BT
 11
0.0
 21
1.0
 31
0.0
 73
     2
 44
1.072372
1001
ACAD
1000
MTEXTBEGIN
1070
    73
1070
     2
1070
    44
1040
1.072372
1070
    74
1070
     0
1000
MTEXTEND
  0
MTEXT
  5
1385
330
1382
100
AcDbEntity
  8
SK2
  6
Continuous
 62
     7
370
    13
100
AcDbMText
 10
-62.070404
 20
-5.47842
 30
0.0
 40
3.5
 41
0.0
 71
     7
 72
     5
  1
\fMonospac821 BT|b0|i0;%%c
  7
Monospac821 BT
 11
0.0
 21
1.0
 31
0.0
 73
     2
 44
1.072372
1001
ACAD
1000
MTEXTBEGIN
1070
    73
1070
     2
1070
    44
1040
1.072372
1070
    74
1070
     0
1000
MTEXTEND
  0
LINE
  5
1386
330
1382
100
AcDbEntity
  8
SK2
 62
     7
370
    13
100
AcDbLine
 10
-47.0
 20
8.0
 30
0.0
 11
-62.0
 21
8.0
 31
0.0
  0
LINE
  5
1387
330
1382
100
AcDbEntity
  8
SK2
 62
     7
370
    13
100
AcDbLine
 10
-47.0
 20
-8.0
 30
0.0
 11
-62.0
 21
-8.0
 31
0.0
  0
LINE
  5
1388
330
1382
100
AcDbEntity
  8
SK2
 62
     7
370
    13
100
AcDbLine
 10
-61.0
 20
16.75
 30
0.0
 11
-61.0
 21
-16.75
 31
0.0
  0
SOLID
  5
1389
330
1382
100
AcDbEntity
  8
SK2
 62
     7
370
    18
100
AcDbTrace
 10
-61.0
 20
8.0
 30
0.0
 11
-61.617144
 21
11.499997
 31
0.0
 12
-60.382855
 22
11.500002
 32
0.0
 13
-60.382855
 23
11.500002
 33
0.0
  0
SOLID
  5
138A
330
1382
100
AcDbEntity
  8
SK2
 62
     7
370
    18
100
AcDbTrace
 10
-61.0
 20
-8.0
 30
0.0
 11
-60.382855
 21
-11.499998
 31
0.0
 12
-61.617144
 22
-11.500003
 32
0.0
 13
-61.617144
 23
-11.500003
 33
0.0
  0
ENDBLK
  5
138B
330
1382
100
AcDbEntity
  8
0
100
AcDbBlockEnd
  0
BLOCK
  5
138D
330
138C
100
AcDbEntity
  8
0
100
AcDbBlockBegin
  2
AUDIT_I_240604100142-1
 70
     0
 10
0.0
 20
0.0
 30
0.0
  3
AUDIT_I_240604100142-1
  1

  0
MTEXT
  5
138E
330
138C
100
AcDbEntity
  8
2
  6
Continuous
 62
     7
370
    13
100
AcDbMText
 10
74.529596
 20
0.072945
 30
0.0
 40
3.5
 41
0.0
 71
     7
 72
     5
  1
\fMonospac821 BT|b0|i0;\W1.0000;16
  7
Monospac821 BT
 11
0.0
 21
1.0
 31
0.0
 73
     2
 44
1.072372
1001
ACAD
1000
MTEXTBEGIN
1070
    73
1070
     2
1070
    44
1040
1.072372
1070
    74
1070
     0
1000
MTEXTEND
  0
MTEXT
  5
138F
330
138C
100
AcDbEntity
  8
2
  6
Continuous
 62
     7
370
    13
100
AcDbMText
 10
74.529596
 20
-5.47842
 30
0.0
 40
3.5
 41
0.0
 71
     7
 72
     5
  1
\fMonospac821 BT|b0|i0;%%c
  7
Monospac821 BT
 11
0.0
 21
1.0
 31
0.0
 73
     2
 44
1.072372
1001
ACAD
1000
MTEXTBEGIN
1070
    73
1070
     2
1070
    44
1040
1.072372
1070
    74
1070
     0
1000
MTEXTEND
  0
LINE
  5
1390
330
138C
100
AcDbEntity
  8
2
 62
     7
370
    13
100
AcDbLine
 10
51.0
 20
8.0
 30
0.0
 11
76.6
 21
8.0
 31
0.0
  0
LINE
  5
1391
330
138C
100
AcDbEntity
  8
2
 62
     7
370
    13
100
AcDbLine
 10
51.0
 20
-8.0
 30
0.0
 11
76.6
 21
-8.0
 31
0.0
  0
LINE
  5
1392
330
138C
100
AcDbEntity
  8
2
 62
     7
370
    13
100
AcDbLine
 10
75.6
 20
16.75
 30
0.0
 11
75.6
 21
-16.75
 31
0.0
  0
SOLID
  5
1393
330
138C
100
AcDbEntity
  8
2
 62
     7
370
    18
100
AcDbTrace
 10
75.6
 20
8.0
 30
0.0
 11
74.982856
 21
11.499997
 31
0.0
 12
76.217145
 22
11.500002
 32
0.0
 13
76.217145
 23
11.500002
 33
0.0
  0
SOLID
  5
1394
330
138C
100
AcDbEntity
  8
2
 62
     7
370
    18
100
AcDbTrace
 10
75.6
 20
-8.0
 30
0.0
 11
76.217145
 21
-11.499998
 31
0.0
 12
74.982856
 22
-11.500003
 32
0.0
 13
74.982856
 23
-11.500003
 33
0.0
  0
ENDBLK
  5
1395
330
138C
100
AcDbEntity
  8
0
100
AcDbBlockEnd
  0
BLOCK
  5
1397
330
1396
100
AcDbEntity
  8
0
100
AcDbBlockBegin
  2
AUDIT_I_240604100142-2
 70
     0
 10
0.0
 20
0.0
 30
0.0
  3
AUDIT_I_240604100142-2
  1

  0
MTEXT
  5
1398
330
1396
100
AcDbEntity
  8
2
  6
Continuous
 62
     7
370
    13
100
AcDbMText
 10
8.891129
 20
22.808864
 30
0.0
 40
3.5
 41
0.0
 71
     7
 72
     5
  1
\fMonospac821 BT|b0|i0;\W1.0000;15.2
  7
Monospac821 BT
 11
0.0
 21
1.0
 31
0.0
 73
     2
 44
1.072372
1001
ACAD
1000
MTEXTBEGIN
1070
    73
1070
     2
1070
    44
1040
1.072372
1070
    74
1070
     0
1000
MTEXTEND
  0
MTEXT
  5
1399
330
1396
100
AcDbEntity
  8
2
  6
Continuous
 62
     7
370
    13
100
AcDbMText
 10
8.891129
 20
17.2575
 30
0.0
 40
3.5
 41
0.0
 71
     7
 72
     5
  1
\fMonospac821 BT|b0|i0;%%c
  7
Monospac821 BT
 11
0.0
 21
1.0
 31
0.0
 73
     2
 44
1.072372
1001
ACAD
1000
MTEXTBEGIN
1070
    73
1070
     2
1070
    44
1040
1.072372
1070
    74
1070
     0
1000
MTEXTEND
  0
LINE
  5
139A
330
1396
100
AcDbEntity
  8
2
 62
     7
370
    13
100
AcDbLine
 10
10.0
 20
7.6
 30
0.0
 11
10.961533
 21
7.6
 31
0.0
  0
LINE
  5
139B
330
1396
100
AcDbEntity
  8
2
 62
     7
370
    13
100
AcDbLine
 10
9.961533
 20
-7.6
 30
0.0
 11
9.961533
 21
34.442313
 31
0.0
  0
SOLID
  5
139C
330
1396
100
AcDbEntity
  8
2
 62
     7
370
    18
100
AcDbTrace
 10
9.961533
 20
7.6
 30
0.0
 11
10.578678
 21
4.100002
 31
0.0
 12
9.344389
 22
4.099997
 32
0.0
 13
9.344389
 23
4.099997
 33
0.0
  0
SOLID
  5
139D
330
1396
100
AcDbEntity
  8
2
 62
     7
370
    18
100
AcDbTrace
 10
9.961533
 20
-7.6
 30
0.0
 11
9.344389
 21
-4.100003
 31
0.0
 12
10.578678
 22
-4.099998
 32
0.0
 13
10.578678
 23
-4.099998
 33
0.0
  0
ENDBLK
  5
139E
330
1396
100
AcDbEntity
  8
0
100
AcDbBlockEnd
  0
BLOCK
  5
13A0
330
139F
100
AcDbEntity
  8
0
100
AcDbBlockBegin
  2
AUDIT_I_240604100142-3
 70
     0
 10
0.0
 20
0.0
 30
0.0
  3
AUDIT_I_240604100142-3
  1

  0
MTEXT
  5
13A1
330
139F
100
AcDbEntity
  8
2
  6
Continuous
 62
     7
370
    13
100
AcDbMText
 10
33.325263
 20
31.718676
 30
0.0
 40
3.5
 41
0.0
 71
     7
 72
     5
  1
\fMonospac821 BT|b0|i0;\W1.0000;32
  7
Monospac821 BT
 73
     2
 44
1.072372
1001
ACAD
1000
MTEXTBEGIN
1070
    73
1070
     2
1070
    44
1040
1.072372
1070
    74
1070
     0
1000
MTEXTEND
  0
LINE
  5
13A2
330
139F
100
AcDbEntity
  8
2
 62
     7
370
    13
100
AcDbLine
 10
52.0
 20
7.0
 30
0.0
 11
52.0
 21
32.000061
 31
0.0
  0
LINE
  5
13A3
330
139F
100
AcDbEntity
  8
2
 62
     7
370
    13
100
AcDbLine
 10
20.0
 20
7.997294
 30
0.0
 11
20.0
 21
32.000061
 31
0.0
  0
LINE
  5
13A4
330
139F
100
AcDbEntity
  8
2
 62
     7
370
    13
100
AcDbLine
 10
52.0
 20
31.000061
 30
0.0
 11
20.0
 21
31.000061
 31
0.0
  0
SOLID
  5
13A5
330
139F
100
AcDbEntity
  8
2
 62
     7
370
    18
100
AcDbTrace
 10
52.0
 20
31.000061
 30
0.0
 11
48.500003
 21
30.382917
 31
0.0
 12
48.499998
 22
31.617205
 32
0.0
 13
48.499998
 23
31.617205
 33
0.0
  0
SOLID
  5
13A6
330
139F
100
AcDbEntity
  8
2
 62
     7
370
    18
100
AcDbTrace
 10
20.0
 20
31.000061
 30
0.0
 11
23.499998
 21
31.617205
 31
0.0
 12
23.500003
 22
30.382917
 32
0.0
 13
23.500003
 23
30.382917
 33
0.0
  0
ENDBLK
  5
13A7
330
139F
100
AcDbEntity
  8
0
100
AcDbBlockEnd
  0
BLOCK
  5
13A9
330
13A8
100
AcDbEntity
  8
0
100
AcDbBlockBegin
  2
AUDIT_I_240604100142-4
 70
     0
 10
0.0
 20
0.0
 30
0.0
  3
AUDIT_I_240604100142-4
  1

  0
MTEXT
  5
13AA
330
13A8
100
AcDbEntity
  8
SK2
  6
Continuous
 62
     7
370
    13
100
AcDbMText
 10
-2.192355
 20
61.718676
 30
0.0
 40
3.5
 41
0.0
 71
     7
 72
     5
  1
\fMonospac821 BT|b0|i0;\W1.0000;100
  7
Monospac821 BT
 73
     2
 44
1.072372
1001
ACAD
1000
MTEXTBEGIN
1070
    73
1070
     2
1070
    44
1040
1.072372
1070
    74
1070
     0
1000
MTEXTEND
  0
LINE
  5
13AB
330
13A8
100
AcDbEntity
  8
SK2
 62
     7
370
    13
100
AcDbLine
 10
52.0
 20
7.0
 30
0.0
 11
52.0
 21
62.000061
 31
0.0
  0
LINE
  5
13AC
330
13A8
100
AcDbEntity
  8
SK2
 62
     7
370
    13
100
AcDbLine
 10
-48.0
 20
7.0
 30
0.0
 11
-48.0
 21
62.000061
 31
0.0
  0
LINE
  5
13AD
330
13A8
100
AcDbEntity
  8
SK2
 62
     7
370
    13
100
AcDbLine
 10
52.0
 20
61.000061
 30
0.0
 11
-48.0
 21
61.000061
 31
0.0
  0
SOLID
  5
13AE
330
13A8
100
AcDbEntity
  8
SK2
 62
     7
370
    18
100
AcDbTrace
 10
52.0
 20
61.000061
 30
0.0
 11
48.500003
 21
60.382917
 31
0.0
 12
48.499998
 22
61.617205
 32
0.0
 13
48.499998
 23
61.617205
 33
0.0
  0
SOLID
  5
13AF
330
13A8
100
AcDbEntity
  8
SK2
 62
     7
370
    18
100
AcDbTrace
 10
-48.0
 20
61.000061
 30
0.0
 11
-44.500002
 21
61.617205
 31
0.0
 12
-44.499997
 22
60.382917
 32
0.0
 13
-44.499997
 23
60.382917
 33
0.0
  0
ENDBLK
  5
13B0
330
13A8
100
AcDbEntity
  8
0
100
AcDbBlockEnd
  0
BLOCK
  5
141F
330
141E
100
AcDbEntity
  8
0
100
AcDbBlockBegin
  2
*D9
 70
     1
 10
0.0
 20
0.0
 30
0.0
  3
*D9
  1

  0
LINE
  5
1987
330
141E
100
AcDbEntity
  8
SK2
 62
     0
100
AcDbLine
 10
-48.0
 20
-8.0
 30
0.0
 11
-77.0
 21
-8.0
 31
0.0
  0
LINE
  5
1988
330
141E
100
AcDbEntity
  8
SK2
 62
     0
100
AcDbLine
 10
-48.0
 20
8.0
 30
0.0
 11
-77.0
 21
8.0
 31
0.0
  0
LINE
  5
1989
330
141E
100
AcDbEntity
  8
SK2
 62
     0
100
AcDbLine
 10
-75.0
 20
-5.5
 30
0.0
 11
-75.0
 21
5.5
 31
0.0
  0
SOLID
  5
198A
330
141E
100
AcDbEntity
  8
SK2
 62
     0
100
AcDbTrace
 10
-75.416667
 20
-5.5
 30
0.0
 11
-74.583333
 21
-5.5
 31
0.0
 12
-75.0
 22
-8.0
 32
0.0
 13
-75.0
 23
-8.0
 33
0.0
  0
SOLID
  5
198B
330
141E
100
AcDbEntity
  8
SK2
 62
     0
100
AcDbTrace
 10
-75.416667
 20
5.5
 30
0.0
 11
-74.583333
 21
5.5
 31
0.0
 12
-75.0
 22
8.0
 32
0.0
 13
-75.0
 23
8.0
 33
0.0
  0
MTEXT
  5
198C
330
141E
100
AcDbEntity
  8
SK2
 62
     0
100
AcDbMText
 10
-77.863141
 20
0.0
 30
0.0
 40
3.5
 41
0.0
 71
     5
 72
     1
  1
\A1;%%C16
  7
STANDARD 3.5 mm
 11
0.0
 21
1.0
 31
0.0
 73
     1
 44
1.0
1001
ACAD
1000
MTEXTBEGIN
1070
    73
1070
     1
1070
    44
1040
1.0
1070
    74
1070
     0
1000
MTEXTEND
  0
POINT
  5
198D
330
141E
100
AcDbEntity
  8
Defpoints
 62
     0
100
AcDbPoint
 10
-47.0
 20
-8.0
 30
0.0
  0
POINT
  5
198E
330
141E
100
AcDbEntity
  8
Defpoints
 62
     0
100
AcDbPoint
 10
-47.0
 20
8.0
 30
0.0
  0
POINT
  5
198F
330
141E
100
AcDbEntity
  8
Defpoints
 62
     0
100
AcDbPoint
 10
-75.0
 20
8.0
 30
0.0
  0
ENDBLK
  5
1420
330
141E
100
AcDbEntity
  8
0
100
AcDbBlockEnd
  0
BLOCK
  5
142B
330
142A
100
AcDbEntity
  8
0
100
AcDbBlockBegin
  2
*D10
 70
     1
 10
0.0
 20
0.0
 30
0.0
  3
*D10
  1

  0
LINE
  5
1990
330
142A
100
AcDbEntity
  8
2
 62
     0
100
AcDbLine
 10
52.0
 20
8.0
 30
0.0
 11
77.0
 21
8.0
 31
0.0
  0
LINE
  5
1991
330
142A
100
AcDbEntity
  8
2
 62
     0
100
AcDbLine
 10
52.0
 20
-8.0
 30
0.0
 11
77.0
 21
-8.0
 31
0.0
  0
LINE
  5
1992
330
142A
100
AcDbEntity
  8
2
 62
     0
100
AcDbLine
 10
75.0
 20
5.5
 30
0.0
 11
75.0
 21
-5.5
 31
0.0
  0
SOLID
  5
1993
330
142A
100
AcDbEntity
  8
2
 62
     0
100
AcDbTrace
 10
74.583333
 20
5.5
 30
0.0
 11
75.416667
 21
5.5
 31
0.0
 12
75.0
 22
8.0
 32
0.0
 13
75.0
 23
8.0
 33
0.0
  0
SOLID
  5
1994
330
142A
100
AcDbEntity
  8
2
 62
     0
100
AcDbTrace
 10
74.583333
 20
-5.5
 30
0.0
 11
75.416667
 21
-5.5
 31
0.0
 12
75.0
 22
-8.0
 32
0.0
 13
75.0
 23
-8.0
 33
0.0
  0
MTEXT
  5
1995
330
142A
100
AcDbEntity
  8
2
 62
     0
100
AcDbMText
 10
72.136859
 20
0.0
 30
0.0
 40
3.5
 41
0.0
 71
     5
 72
     1
  1
\A1;%%C16
  7
STANDARD 3.5 mm
 11
0.0
 21
1.0
 31
0.0
 73
     1
 44
1.0
1001
ACAD
1000
MTEXTBEGIN
1070
    73
1070
     1
1070
    44
1040
1.0
1070
    74
1070
     0
1000
MTEXTEND
  0
POINT
  5
1996
330
142A
100
AcDbEntity
  8
Defpoints
 62
     0
100
AcDbPoint
 10
51.0
 20
8.0
 30
0.0
  0
POINT
  5
1997
330
142A
100
AcDbEntity
  8
Defpoints
 62
     0
100
AcDbPoint
 10
51.0
 20
-8.0
 30
0.0
  0
POINT
  5
1998
330
142A
100
AcDbEntity
  8
Defpoints
 62
     0
100
AcDbPoint
 10
75.0
 20
-8.0
 30
0.0
  0
ENDBLK
  5
142C
330
142A
100
AcDbEntity
  8
0
100
AcDbBlockEnd
  0
BLOCK
  5
1437
330
1436
100
AcDbEntity
  8
0
100
AcDbBlockBegin
  2
*D11
 70
     1
 10
0.0
 20
0.0
 30
0.0
  3
*D11
  1

  0
LINE
  5
1999
330
1436
100
AcDbEntity
  8
2
 62
     0
100
AcDbLine
 10
10.975328
 20
-7.6
 30
0.0
 11
14.554992
 21
-7.6
 31
0.0
  0
LINE
  5
199A
330
1436
100
AcDbEntity
  8
2
 62
     0
100
AcDbLine
 10
10.977414
 20
7.6
 30
0.0
 11
14.554992
 21
7.6
 31
0.0
  0
LINE
  5
199B
330
1436
100
AcDbEntity
  8
2
 62
     0
100
AcDbLine
 10
12.554992
 20
-5.1
 30
0.0
 11
12.554992
 21
5.1
 31
0.0
  0
LINE
  5
199C
330
1436
100
AcDbEntity
  8
2
 62
     0
100
AcDbLine
 10
12.554992
 20
7.6
 30
0.0
 11
12.554992
 21
26.786226
 31
0.0
  0
SOLID
  5
199D
330
1436
100
AcDbEntity
  8
2
 62
     0
100
AcDbTrace
 10
12.138325
 20
-5.1
 30
0.0
 11
12.971659
 21
-5.1
 31
0.0
 12
12.554992
 22
-7.6
 32
0.0
 13
12.554992
 23
-7.6
 33
0.0
  0
SOLID
  5
199E
330
1436
100
AcDbEntity
  8
2
 62
     0
100
AcDbTrace
 10
12.138325
 20
5.1
 30
0.0
 11
12.971659
 21
5.1
 31
0.0
 12
12.554992
 22
7.6
 32
0.0
 13
12.554992
 23
7.6
 33
0.0
  0
MTEXT
  5
199F
330
1436
100
AcDbEntity
  8
2
 62
     0
100
AcDbMText
 10
9.691851
 20
18.443113
 30
0.0
 40
3.5
 41
0.0
 71
     5
 72
     1
  1
\A1;%%C15.2
  7
STANDARD 3.5 mm
 11
0.0
 21
1.0
 31
0.0
 73
     1
 44
1.0
1001
ACAD
1000
MTEXTBEGIN
1070
    73
1070
     1
1070
    44
1040
1.0
1070
    74
1070
     0
1000
MTEXTEND
  0
POINT
  5
19A0
330
1436
100
AcDbEntity
  8
Defpoints
 62
     0
100
AcDbPoint
 10
9.975328
 20
-7.6
 30
0.0
  0
POINT
  5
19A1
330
1436
100
AcDbEntity
  8
Defpoints
 62
     0
100
AcDbPoint
 10
9.977414
 20
7.6
 30
0.0
  0
POINT
  5
19A2
330
1436
100
AcDbEntity
  8
Defpoints
 62
     0
100
AcDbPoint
 10
12.554992
 20
7.6
 30
0.0
  0
ENDBLK
  5
1438
330
1436
100
AcDbEntity
  8
0
100
AcDbBlockEnd
  0
BLOCK
  5
1444
330
1443
100
AcDbEntity
  8
0
100
AcDbBlockBegin
  2
*D12
 70
     1
 10
0.0
 20
0.0
 30
0.0
  3
*D12
  1

  0
LINE
  5
19A3
330
1443
100
AcDbEntity
  8
2
 62
     0
100
AcDbLine
 10
0.0
 20
9.1
 30
0.0
 11
0.0
 21
62.0
 31
0.0
  0
LINE
  5
19A4
330
1443
100
AcDbEntity
  8
2
 62
     0
100
AcDbLine
 10
52.0
 20
8.0
 30
0.0
 11
52.0
 21
62.0
 31
0.0
  0
LINE
  5
19A5
330
1443
100
AcDbEntity
  8
2
 62
     0
100
AcDbLine
 10
2.5
 20
60.0
 30
0.0
 11
49.5
 21
60.0
 31
0.0
  0
SOLID
  5
19A6
330
1443
100
AcDbEntity
  8
2
 62
     0
100
AcDbTrace
 10
2.5
 20
60.416667
 30
0.0
 11
2.5
 21
59.583333
 31
0.0
 12
0.0
 22
60.0
 32
0.0
 13
0.0
 23
60.0
 33
0.0
  0
SOLID
  5
19A7
330
1443
100
AcDbEntity
  8
2
 62
     0
100
AcDbTrace
 10
49.5
 20
60.416667
 30
0.0
 11
49.5
 21
59.583333
 31
0.0
 12
52.0
 22
60.0
 32
0.0
 13
52.0
 23
60.0
 33
0.0
  0
MTEXT
  5
19A8
330
1443
100
AcDbEntity
  8
2
 62
     0
100
AcDbMText
 10
26.0
 20
62.81149
 30
0.0
 40
3.5
 41
0.0
 71
     5
 72
     1
  1
\A1;52
  7
STANDARD 3.5 mm
 73
     1
 44
1.0
1001
ACAD
1000
MTEXTBEGIN
1070
    73
1070
     1
1070
    44
1040
1.0
1070
    74
1070
     0
1000
MTEXTEND
  0
POINT
  5
19A9
330
1443
100
AcDbEntity
  8
Defpoints
 62
     0
100
AcDbPoint
 10
0.0
 20
8.1
 30
0.0
  0
POINT
  5
19AA
330
1443
100
AcDbEntity
  8
Defpoints
 62
     0
100
AcDbPoint
 10
52.0
 20
7.0
 30
0.0
  0
POINT
  5
19AB
330
1443
100
AcDbEntity
  8
Defpoints
 62
     0
100
AcDbPoint
 10
52.0
 20
60.0
 30
0.0
  0
ENDBLK
  5
1445
330
1443
100
AcDbEntity
  8
0
100
AcDbBlockEnd
  0
BLOCK
  5
1450
330
144F
100
AcDbEntity
  8
0
100
AcDbBlockBegin
  2
*D13
 70
     1
 10
0.0
 20
0.0
 30
0.0
  3
*D13
  1

  0
LINE
  5
1A22
330
144F
100
AcDbEntity
  8
2
 62
     0
100
AcDbLine
 10
60.153058
 20
15.547036
 30
0.0
 11
53.558111
 21
9.388739
 31
0.0
  0
MTEXT
  5
1A23
330
144F
100
AcDbEntity
  8
2
 62
     0
100
AcDbMText
 10
55.884775
 20
15.339042
 30
0.0
 40
3.5
 41
0.0
 71
     5
 72
     1
  1
\A1;R1
  7
STANDARD 3.5 mm
 11
0.730889
 21
0.682497
 31
0.0
 73
     1
 44
1.0
  0
LINE
  5
1A24
330
144F
100
AcDbEntity
  8
2
 62
     0
100
AcDbLine
 10
51.0
 20
7.0
 30
0.0
 11
51.730889
 21
7.682497
 31
0.0
  0
SOLID
  5
1A25
330
144F
100
AcDbEntity
  8
2
 62
     0
100
AcDbTrace
 10
53.273737
 20
9.693276
 30
0.0
 11
53.842484
 21
9.084202
 31
0.0
 12
51.730889
 22
7.682497
 32
0.0
 13
51.730889
 23
7.682497
 33
0.0
  0
ARC
  5
1A26
330
144F
100
AcDbEntity
  8
2
 62
     0
100
AcDbCircle
 10
51.0
 20
7.0
 30
0.0
 40
1.000000442664855
100
AcDbArc
 50
43.039053
 51
43.0391
  0
POINT
  5
1A27
330
144F
100
AcDbEntity
  8
Defpoints
 62
     0
100
AcDbPoint
 10
51.730889
 20
7.682497
 30
0.0
  0
POINT
  5
1A28
330
144F
100
AcDbEntity
  8
Defpoints
 62
     0
100
AcDbPoint
 10
51.0
 20
7.0
 30
0.0
  0
ENDBLK
  5
1451
330
144F
100
AcDbEntity
  8
0
100
AcDbBlockEnd
  0
BLOCK
  5
145B
330
145A
100
AcDbEntity
  8
0
100
AcDbBlockBegin
  2
*D14
 70
     1
 10
0.0
 20
0.0
 30
0.0
  3
*D14
  1

  0
LINE
  5
19B3
330
145A
100
AcDbEntity
  8
2
 62
     0
100
AcDbLine
 10
4.0
 20
8.6
 30
0.0
 11
4.0
 21
47.0
 31
0.0
  0
LINE
  5
19B4
330
145A
100
AcDbEntity
  8
2
 62
     0
100
AcDbLine
 10
52.0
 20
8.0
 30
0.0
 11
52.0
 21
47.0
 31
0.0
  0
LINE
  5
19B5
330
145A
100
AcDbEntity
  8
2
 62
     0
100
AcDbLine
 10
6.5
 20
45.0
 30
0.0
 11
49.5
 21
45.0
 31
0.0
  0
SOLID
  5
19B6
330
145A
100
AcDbEntity
  8
2
 62
     0
100
AcDbTrace
 10
6.5
 20
45.416667
 30
0.0
 11
6.5
 21
44.583333
 31
0.0
 12
4.0
 22
45.0
 32
0.0
 13
4.0
 23
45.0
 33
0.0
  0
SOLID
  5
19B7
330
145A
100
AcDbEntity
  8
2
 62
     0
100
AcDbTrace
 10
49.5
 20
45.416667
 30
0.0
 11
49.5
 21
44.583333
 31
0.0
 12
52.0
 22
45.0
 32
0.0
 13
52.0
 23
45.0
 33
0.0
  0
MTEXT
  5
19B8
330
145A
100
AcDbEntity
  8
2
 62
     0
100
AcDbMText
 10
28.0
 20
47.81149
 30
0.0
 40
3.5
 41
0.0
 71
     5
 72
     1
  1
\A1;48
  7
STANDARD 3.5 mm
 73
     1
 44
1.0
1001
ACAD
1000
MTEXTBEGIN
1070
    73
1070
     1
1070
    44
1040
1.0
1070
    74
1070
     0
1000
MTEXTEND
  0
POINT
  5
19B9
330
145A
100
AcDbEntity
  8
Defpoints
 62
     0
100
AcDbPoint
 10
4.0
 20
7.6
 30
0.0
  0
POINT
  5
19BA
330
145A
100
AcDbEntity
  8
Defpoints
 62
     0
100
AcDbPoint
 10
52.0
 20
7.0
 30
0.0
  0
POINT
  5
19BB
330
145A
100
AcDbEntity
  8
Defpoints
 62
     0
100
AcDbPoint
 10
52.0
 20
45.0
 30
0.0
  0
ENDBLK
  5
145C
330
145A
100
AcDbEntity
  8
0
100
AcDbBlockEnd
  0
BLOCK
  5
1467
330
1466
100
AcDbEntity
  8
0
100
AcDbBlockBegin
  2
*D15
 70
     1
 10
0.0
 20
0.0
 30
0.0
  3
*D15
  1

  0
LINE
  5
19BC
330
1466
100
AcDbEntity
  8
2
 62
     0
100
AcDbLine
 10
20.0
 20
8.997294
 30
0.0
 11
20.0
 21
32.0
 31
0.0
  0
LINE
  5
19BD
330
1466
100
AcDbEntity
  8
2
 62
     0
100
AcDbLine
 10
52.0
 20
8.0
 30
0.0
 11
52.0
 21
32.0
 31
0.0
  0
LINE
  5
19BE
330
1466
100
AcDbEntity
  8
2
 62
     0
100
AcDbLine
 10
22.5
 20
30.0
 30
0.0
 11
49.5
 21
30.0
 31
0.0
  0
SOLID
  5
19BF
330
1466
100
AcDbEntity
  8
2
 62
     0
100
AcDbTrace
 10
22.5
 20
30.416667
 30
0.0
 11
22.5
 21
29.583333
 31
0.0
 12
20.0
 22
30.0
 32
0.0
 13
20.0
 23
30.0
 33
0.0
  0
SOLID
  5
19C0
330
1466
100
AcDbEntity
  8
2
 62
     0
100
AcDbTrace
 10
49.5
 20
30.416667
 30
0.0
 11
49.5
 21
29.583333
 31
0.0
 12
52.0
 22
30.0
 32
0.0
 13
52.0
 23
30.0
 33
0.0
  0
MTEXT
  5
19C1
330
1466
100
AcDbEntity
  8
2
 62
     0
100
AcDbMText
 10
36.0
 20
32.81149
 30
0.0
 40
3.5
 41
0.0
 71
     5
 72
     1
  1
\A1;32
  7
STANDARD 3.5 mm
 73
     1
 44
1.0
1001
ACAD
1000
MTEXTBEGIN
1070
    73
1070
     1
1070
    44
1040
1.0
1070
    74
1070
     0
1000
MTEXTEND
  0
POINT
  5
19C2
330
1466
100
AcDbEntity
  8
Defpoints
 62
     0
100
AcDbPoint
 10
20.0
 20
7.997294
 30
0.0
  0
POINT
  5
19C3
330
1466
100
AcDbEntity
  8
Defpoints
 62
     0
100
AcDbPoint
 10
52.0
 20
7.0
 30
0.0
  0
POINT
  5
19C4
330
1466
100
AcDbEntity
  8
Defpoints
 62
     0
100
AcDbPoint
 10
52.0
 20
30.0
 30
0.0
  0
ENDBLK
  5
1468
330
1466
100
AcDbEntity
  8
0
100
AcDbBlockEnd
  0
BLOCK
  5
1473
330
1472
100
AcDbEntity
  8
0
100
AcDbBlockBegin
  2
*D16
 70
     1
 10
0.0
 20
0.0
 30
0.0
  3
*D16
  1

  0
LINE
  5
19C5
330
1472
100
AcDbEntity
  8
SK2
 62
     0
100
AcDbLine
 10
-48.0
 20
8.0
 30
0.0
 11
-48.0
 21
77.0
 31
0.0
  0
LINE
  5
19C6
330
1472
100
AcDbEntity
  8
SK2
 62
     0
100
AcDbLine
 10
52.0
 20
8.0
 30
0.0
 11
52.0
 21
77.0
 31
0.0
  0
LINE
  5
19C7
330
1472
100
AcDbEntity
  8
SK2
 62
     0
100
AcDbLine
 10
-45.5
 20
75.0
 30
0.0
 11
49.5
 21
75.0
 31
0.0
  0
SOLID
  5
19C8
330
1472
100
AcDbEntity
  8
SK2
 62
     0
100
AcDbTrace
 10
-45.5
 20
75.416667
 30
0.0
 11
-45.5
 21
74.583333
 31
0.0
 12
-48.0
 22
75.0
 32
0.0
 13
-48.0
 23
75.0
 33
0.0
  0
SOLID
  5
19C9
330
1472
100
AcDbEntity
  8
SK2
 62
     0
100
AcDbTrace
 10
49.5
 20
75.416667
 30
0.0
 11
49.5
 21
74.583333
 31
0.0
 12
52.0
 22
75.0
 32
0.0
 13
52.0
 23
75.0
 33
0.0
  0
MTEXT
  5
19CA
330
1472
100
AcDbEntity
  8
SK2
 62
     0
100
AcDbMText
 10
2.0
 20
77.81149
 30
0.0
 40
3.5
 41
0.0
 71
     5
 72
     1
  1
\A1;100
  7
STANDARD 3.5 mm
 73
     1
 44
1.0
1001
ACAD
1000
MTEXTBEGIN
1070
    73
1070
     1
1070
    44
1040
1.0
1070
    74
1070
     0
1000
MTEXTEND
  0
POINT
  5
19CB
330
1472
100
AcDbEntity
  8
Defpoints
 62
     0
100
AcDbPoint
 10
-48.0
 20
7.0
 30
0.0
  0
POINT
  5
19CC
330
1472
100
AcDbEntity
  8
Defpoints
 62
     0
100
AcDbPoint
 10
52.0
 20
7.0
 30
0.0
  0
POINT
  5
19CD
330
1472
100
AcDbEntity
  8
Defpoints
 62
     0
100
AcDbPoint
 10
52.0
 20
75.0
 30
0.0
  0
ENDBLK
  5
1474
330
1472
100
AcDbEntity
  8
0
100
AcDbBlockEnd
  0
ENDSEC
  0
SECTION
  2
ENTITIES
  0
POINT
  5
13EE
330
18
100
AcDbEntity
  8
1
100
AcDbPoint
 10
112.585018
 20
60.62683
 30
0.0
 50
360.0
  0
POINT
  5
13EF
330
18
100
AcDbEntity
  8
1
100
AcDbPoint
 10
164.585018
 20
52.62683
 30
0.0
 50
360.0
  0
POINT
  5
13F0
330
18
100
AcDbEntity
  8
1
100
AcDbPoint
 10
64.585018
 20
60.62683
 30
0.0
 50
360.0
  0
POINT
  5
13F1
330
18
100
AcDbEntity
  8
1
100
AcDbPoint
 10
164.585018
 20
60.62683
 30
0.0
 50
360.0
  0
LINE
  5
13F2
330
18
100
AcDbEntity
  8
1
100
AcDbLine
 10
20.0
 20
-7.997295
 30
0.0
 11
20.0
 21
7.997294
 31
0.0
  0
LINE
  5
13F3
330
18
100
AcDbEntity
  8
1
100
AcDbLine
 10
52.0
 20
-7.0
 30
0.0
 11
52.0
 21
7.0
 31
0.0
  0
LINE
  5
13F4
330
18
100
AcDbEntity
  8
1
100
AcDbLine
 10
4.0
 20
-7.6
 30
0.0
 11
4.0
 21
7.6
 31
0.0
  0
LINE
  5
13F5
330
18
100
AcDbEntity
  8
1
100
AcDbLine
 10
18.262387
 20
-7.6
 30
0.0
 11
18.262387
 21
7.6
 31
0.0
  0
LINE
  5
13F6
330
18
100
AcDbEntity
  8
1
100
AcDbLine
 10
2.040409
 20
-8.0
 30
0.0
 11
2.040409
 21
8.0
 31
0.0
  0
LINE
  5
13F7
330
18
100
AcDbEntity
  8
1
100
AcDbLine
 10
50.999913
 20
-8.0
 30
0.0
 11
50.999913
 21
8.0
 31
0.0
  0
LINE
  5
13F8
330
18
100
AcDbEntity
  8
SK1
100
AcDbLine
 10
-47.0
 20
-8.0
 30
0.0
 11
-47.0
 21
8.0
 31
0.0
  0
LINE
  5
13FD
330
18
100
AcDbEntity
  8
SK1
100
AcDbLine
 10
-48.0
 20
-7.0
 30
0.0
 11
-48.0
 21
7.0
 31
0.0
  0
LINE
  5
13FE
330
18
100
AcDbEntity
  8
SK1
100
AcDbLine
 10
-48.0
 20
-7.0
 30
0.0
 11
-47.0
 21
-8.0
 31
0.0
  0
LINE
  5
13FF
330
18
100
AcDbEntity
  8
SK1
100
AcDbLine
 10
-47.0
 20
8.0
 30
0.0
 11
-48.0
 21
7.0
 31
0.0
  0
LINE
  5
1400
330
18
100
AcDbEntity
  8
1
100
AcDbLine
 10
4.0
 20
-7.6
 30
0.0
 11
18.262387
 21
-7.6
 31
0.0
  0
LINE
  5
1401
330
18
100
AcDbEntity
  8
1
100
AcDbLine
 10
18.262387
 20
7.6
 30
0.0
 11
4.0
 21
7.6
 31
0.0
  0
LINE
  5
1402
330
18
100
AcDbEntity
  8
1
100
AcDbLine
 10
20.0
 20
-7.997295
 30
0.0
 11
50.999913
 21
-8.0
 31
0.0
  0
LINE
  5
1403
330
18
100
AcDbEntity
  8
1
100
AcDbLine
 10
50.999913
 20
8.0
 30
0.0
 11
20.0
 21
7.997294
 31
0.0
  0
LINE
  5
1404
330
18
100
AcDbEntity
  8
1
100
AcDbLine
 10
0.0
 20
-8.0
 30
0.0
 11
2.040409
 21
-8.0
 31
0.0
  0
LINE
  5
1405
330
18
100
AcDbEntity
  8
1
100
AcDbLine
 10
2.040409
 20
8.0
 30
0.0
 11
0.0
 21
8.0
 31
0.0
  0
LINE
  5
1406
330
18
100
AcDbEntity
  8
4
100
AcDbLine
 10
0.0
 20
0.0
 30
0.0
 11
52.0
 21
0.0
 31
0.0
  0
LINE
  5
1407
330
18
100
AcDbEntity
  8
SK1
100
AcDbLine
 10
-47.0
 20
-8.0
 30
0.0
 11
0.0
 21
-8.0
 31
0.0
  0
LINE
  5
1408
330
18
100
AcDbEntity
  8
SK1
100
AcDbLine
 10
0.0
 20
8.0
 30
0.0
 11
-47.0
 21
8.0
 31
0.0
  0
LINE
  5
1409
330
18
100
AcDbEntity
  8
SK4
100
AcDbLine
 10
-48.8
 20
0.0
 30
0.0
 11
52.8
 21
0.0
 31
0.0
  0
ARC
  5
140A
330
18
100
AcDbEntity
  8
1
100
AcDbCircle
 10
51.0
 20
-7.0
 30
0.0
 40
1.000000000000009
100
AcDbArc
 50
269.995
 51
0.0
  0
ARC
  5
140B
330
18
100
AcDbEntity
  8
1
100
AcDbCircle
 10
51.0
 20
7.0
 30
0.0
 40
1.000000000000009
100
AcDbArc
 50
0.0
 51
90.005
  0
ARC
  5
140E
330
18
100
AcDbEntity
  8
1
100
AcDbCircle
 10
20.000349
 20
-3.997295
 30
0.0
 40
4.0
100
AcDbArc
 50
244.247108
 51
269.995
  0
ARC
  5
140F
330
18
100
AcDbEntity
  8
1
100
AcDbCircle
 10
20.000349
 20
3.997294
 30
0.0
 40
4.0
100
AcDbArc
 50
90.005
 51
115.752892
  0
ARC
  5
1410
330
18
100
AcDbEntity
  8
1
100
AcDbCircle
 10
4.0
 20
-12.6
 30
0.0
 40
5.0
100
AcDbArc
 50
90.0
 51
113.073918
  0
ARC
  5
1411
330
18
100
AcDbEntity
  8
1
100
AcDbCircle
 10
4.0
 20
12.6
 30
0.0
 40
5.0
100
AcDbArc
 50
246.926082
 51
270.0
  0
MTEXT
  5
1414
330
18
100
AcDbEntity
  8
SK6
100
AcDbMText
 10
-48.0
 20
-19.405746
 30
0.0
 40
3.5
 41
0.0
 71
     7
 72
     5
  1
S4521-160E2R100.0Z2
  7
STANDARD 3.5
 73
     2
 44
1.072372
1001
ACAD
1000
MTEXTBEGIN
1070
    73
1070
     2
1070
    44
1040
1.072372
1070
    74
1070
     0
1000
MTEXTEND
  0
HATCH
  5
1415
330
18
100
AcDbEntity
  8
1
100
AcDbHatch
 10
0.0
 20
0.0
 30
0.0
210
0.0
220
0.0
230
1.0
  2
STEEL
 70
     0
 71
     0
 91
        1
 92
        5
 93
        7
 72
     1
 10
52.00000038481399
 20
-7.000000286783205
 11
52.00000038481399
 21
-0.0000002867832016
 72
     1
 10
52.00000038481399
 20
-0.0000002867832052
 11
52.00000038481399
 21
6.999999713216791
 72
     2
 10
51.00000038481379
 20
6.999999713217192
 40
1.0
 50
0.0
 51
90.00499999999991
 73
     1
 72
     1
 10
50.9999131183516
 20
7.999999709409079
 11
20.000000384814
 21
7.997294456677081
 72
     1
 10
20.000000384814
 20
7.997294456677081
 11
20.000000384814
 21
-7.997295030243408
 72
     1
 10
20.000000384814
 20
-7.997295030243407
 11
50.9999131183515
 21
-8.000000282975516
 72
     2
 10
51.00000038481379
 20
-7.000000286782807
 40
1.0
 50
269.995
 51
360.0
 73
     1
 97
        0
 75
     0
 76
     1
 52
104.946769
 41
1.5
 77
     0
 78
     2
 53
149.946769
 43
-112.5850176017309
 44
-60.62683045734782
 45
-2.385080813938976
 46
-4.122231890733488
 79
     0
 53
149.946769
 43
-114.8857000721186
 44
-61.24100611052129
 45
-2.385080813938976
 46
-4.122231890733488
 79
     0
 47
0.0
 98
        1
 10
0.0000003848140011
 20
-0.0000002867831483
1001
ACAD
1010
0.0
1020
0.0
1030
0.0
  0
DIMENSION
  5
1416
330
18
100
AcDbEntity
  8
SK2
100
AcDbDimension
  2
*D9
 10
-75.0
 20
8.0
 30
0.0
 11
-75.0
 21
0.0
 31
0.0
 70
   160
  1
%%C<>
 71
     5
 42
16.0
  3
AM_DIN
100
AcDbAlignedDimension
 13
-47.0
 23
-8.0
 33
0.0
 14
-47.0
 24
8.0
 34
0.0
 50
90.0
100
AcDbRotatedDimension
1001
ACAD_DSTYLE_DIM_LINETYPE
1070
   380
1005
0
1001
ACAD_DSTYLE_DIM_EXT1_LINETYPE
1070
   381
1005
0
1001
ACAD_DSTYLE_DIM_EXT2_LINETYPE
1070
   382
1005
0
  0
DIMENSION
  5
1417
330
18
100
AcDbEntity
  8
2
100
AcDbDimension
  2
*D10
 10
75.0
 20
-8.0
 30
0.0
 11
75.0
 21
0.0
 31
0.0
 70
   160
  1
%%C<>
 71
     5
 42
16.0
  3
AM_DIN
100
AcDbAlignedDimension
 13
51.0
 23
8.0
 33
0.0
 14
51.0
 24
-8.0
 34
0.0
 50
270.0
100
AcDbRotatedDimension
1001
ACAD_DSTYLE_DIM_LINETYPE
1070
   380
1005
0
1001
ACAD_DSTYLE_DIM_EXT1_LINETYPE
1070
   381
1005
0
1001
ACAD_DSTYLE_DIM_EXT2_LINETYPE
1070
   382
1005
0
  0
DIMENSION
  5
1418
330
18
100
AcDbEntity
  8
2
100
AcDbDimension
  2
*D11
 10
12.554992
 20
7.6
 30
0.0
 11
12.554992
 21
18.443113
 31
0.0
 70
   160
  1
%%C<>
 71
     5
 42
15.2
  3
AM_DIN
100
AcDbAlignedDimension
 13
9.975328
 23
-7.6
 33
0.0
 14
9.977414
 24
7.6
 34
0.0
 50
90.0
100
AcDbRotatedDimension
1001
ACAD_DSTYLE_DIM_LINETYPE
1070
   380
1005
0
1001
ACAD_DSTYLE_DIM_EXT1_LINETYPE
1070
   381
1005
0
1001
ACAD_DSTYLE_DIM_EXT2_LINETYPE
1070
   382
1005
0
  0
DIMENSION
  5
1419
330
18
100
AcDbEntity
  8
2
100
AcDbDimension
  2
*D12
 10
52.0
 20
60.0
 30
0.0
 11
26.0
 21
60.0
 31
0.0
 70
   160
 71
     5
 42
52.0
  3
AM_DIN
100
AcDbAlignedDimension
 13
0.0
 23
8.1
 33
0.0
 14
52.0
 24
7.0
 34
0.0
100
AcDbRotatedDimension
1001
ACAD_DSTYLE_DIM_LINETYPE
1070
   380
1005
0
1001
ACAD_DSTYLE_DIM_EXT1_LINETYPE
1070
   381
1005
0
1001
ACAD_DSTYLE_DIM_EXT2_LINETYPE
1070
   382
1005
0
1001
ACAD
1000
DSTYLE
1002
{
1070
   279
1070
     0
1002
}
  0
DIMENSION
  5
141A
330
18
100
AcDbEntity
  8
2
100
AcDbDimension
  2
*D13
 10
51.0
 20
7.0
 30
0.0
 11
55.884775
 21
15.339042
 31
0.0
 70
    36
 71
     5
 42
1.0
  3
AM_DIN
100
AcDbRadialDimension
 15
51.730889
 25
7.682497
 35
0.0
 40
0.0
1001
ACAD_DSTYLE_DIMRADIAL_EXTENSION
1070
   387
1070
     1
1070
   388
1040
0.751174
1070
   390
1040
4.712389
1001
ACAD_DSTYLE_DIM_LINETYPE
1070
   380
1005
0
1001
ACAD_DSTYLE_DIM_EXT1_LINETYPE
1070
   381
1005
0
1001
ACAD_DSTYLE_DIM_EXT2_LINETYPE
1070
   382
1005
0
1001
ACAD_DSTYLE_DIMFLIPARROW_WHICH_SYMBOL
1070
   386
1070
     1
  0
DIMENSION
  5
141B
330
18
100
AcDbEntity
  8
2
100
AcDbDimension
  2
*D14
 10
52.0
 20
45.0
 30
0.0
 11
28.0
 21
45.0
 31
0.0
 70
   160
 71
     5
 42
48.0
  3
AM_DIN
100
AcDbAlignedDimension
 13
4.0
 23
7.6
 33
0.0
 14
52.0
 24
7.0
 34
0.0
100
AcDbRotatedDimension
1001
ACAD_DSTYLE_DIM_LINETYPE
1070
   380
1005
0
1001
ACAD_DSTYLE_DIM_EXT1_LINETYPE
1070
   381
1005
0
1001
ACAD_DSTYLE_DIM_EXT2_LINETYPE
1070
   382
1005
0
1001
ACAD
1000
DSTYLE
1002
{
1070
   279
1070
     0
1002
}
  0
DIMENSION
  5
141C
330
18
100
AcDbEntity
  8
2
100
AcDbDimension
  2
*D15
 10
52.0
 20
30.0
 30
0.0
 11
36.0
 21
30.0
 31
0.0
 70
   160
 71
     5
 42
32.0
  3
AM_DIN
100
AcDbAlignedDimension
 13
20.0
 23
7.997294
 33
0.0
 14
52.0
 24
7.0
 34
0.0
100
AcDbRotatedDimension
1001
ACAD_DSTYLE_DIM_LINETYPE
1070
   380
1005
0
1001
ACAD_DSTYLE_DIM_EXT1_LINETYPE
1070
   381
1005
0
1001
ACAD_DSTYLE_DIM_EXT2_LINETYPE
1070
   382
1005
0
1001
ACAD
1000
DSTYLE
1002
{
1070
   279
1070
     0
1002
}
  0
DIMENSION
  5
141D
330
18
100
AcDbEntity
  8
SK2
100
AcDbDimension
  2
*D16
 10
52.0
 20
75.0
 30
0.0
 11
2.0
 21
75.0
 31
0.0
 70
   160
 71
     5
 42
100.0
  3
AM_DIN
100
AcDbAlignedDimension
 13
-48.0
 23
7.0
 33
0.0
 14
52.0
 24
7.0
 34
0.0
100
AcDbRotatedDimension
1001
ACAD_DSTYLE_DIM_LINETYPE
1070
   380
1005
0
1001
ACAD_DSTYLE_DIM_EXT1_LINETYPE
1070
   381
1005
0
1001
ACAD_DSTYLE_DIM_EXT2_LINETYPE
1070
   382
1005
0
1001
ACAD
1000
DSTYLE
1002
{
1070
   279
1070
     0
1002
}
  0
LWPOLYLINE
  5
16A1
330
18
100
AcDbEntity
  8
CUT
100
AcDbPolyline
 90
        9
 70
     1
 43
0.0
 10
20.0
 20
7.997294
 10
20.0
 20
0.0
 10
20.0
 20
0.0
 10
52.0
 20
0.0
 10
52.0
 20
0.0
 10
52.0
 20
7.0
 10
52.0
 20
7.0
 42
0.414239
 10
50.999913
 20
8.0
 10
50.999913
 20
8.0
  0
LWPOLYLINE
  5
16A6
330
18
100
AcDbEntity
  8
NOCUT
100
AcDbPolyline
 90
       13
 70
     1
 43
0.0
 10
4.0
 20
7.6
 42
-0.101021
 10
2.040408
 20
8.0
 10
2.040408
 20
8.0
 10
0.0
 20
8.0
 10
0.0
 20
8.0
 10
0.0
 20
0.0
 10
0.0
 20
0.0
 10
20.0
 20
0.0
 10
20.0
 20
0.0
 10
20.0
 20
7.997294
 10
20.0
 20
7.997294
 42
0.112821
 10
18.262388
 20
7.6
 10
18.262388
 20
7.6
  0
VIEWPORT
  5
B5D
102
{ACAD_XDICTIONARY
360
B5E
102
}
330
B56
100
AcDbEntity
 67
     1
  8
0
100
AcDbViewport
 10
148.488673
 20
114.739148
 30
0.0
 40
360.579931
 41
235.187948
 68
     1
 69
     1
 12
148.488673
 22
114.739148
 13
0.0
 23
0.0
 14
10.0
 24
10.0
 15
10.0
 25
10.0
 16
0.0
 26
0.0
 36
1.0
 17
0.0
 27
0.0
 37
0.0
 42
50.0
 43
0.0
 44
0.0
 45
235.187948
 50
0.0
 51
0.0
 72
  2000
 90
   819232
  1

281
     0
 71
     1
 74
     0
110
0.0
120
0.0
130
0.0
111
1.0
121
0.0
131
0.0
112
0.0
122
1.0
132
0.0
 79
     0
146
0.0
  0
ENDSEC
  0
SECTION
  2
OBJECTS
  0
DICTIONARY
  5
C
330
0
100
AcDbDictionary
281
     1
  3
ACAD_2007HEADERVARS_RT
350
19D6
  3
ACAD_BACKGROUND
350
B0F
  3
ACAD_CIP_PREVIOUS_PRODUCT_INFO
350
CF7
  3
ACAD_COLOR
350
387
  3
ACAD_DETAILVIEWSTYLE
350
CEF
  3
ACAD_FIELDLIST
350
D13
  3
ACAD_GROUP
350
D
  3
ACAD_IMAGE_DICT
350
13EA
  3
ACAD_LAYOUT
350
301
  3
ACAD_MATERIAL
350
386
  3
ACAD_MLEADERSTYLE
350
46F
  3
ACAD_MLINESTYLE
350
E
  3
ACAD_PLOTSETTINGS
350
302
  3
ACAD_PLOTSTYLENAME
350
2FF
  3
ACAD_SCALELIST
350
44D
  3
ACAD_SECTIONVIEWSTYLE
350
CED
  3
ACAD_TABLESTYLE
350
388
  3
ACAD_VISUALSTYLE
350
3F2
  3
ACDB_RECOMPOSE_DATA
350
19D4
  3
AcDbVariableDictionary
350
357
  3
ACDMSYSVARMGR
350
48F
  3
ACGREF_MASTER
350
489
  3
ACGREFACAD_MASTER
350
4B0
  3
AcmDictionary
350
4D1
  3
ACME_COMMAND_HISTORY
350
480
  3
ACME_SCOPE_NAME
350
47F
  3
ACMESTATEMGR
350
488
  3
AcmeSysVarManager
350
481
  3
AcmSystemVariableManager
350
4B5
  3
ADSYSVARMGR
350
4BC
  3
AmdtNamedDwgMgr
350
4AB
  3
AMG
350
478
  3
AMGSNAPSETTINGS
350
51E
  3
AMI_MASTER
350
4B3
  3
AUTOCAD_ASSEMBLIES_PROJECT
350
4C6
  3
Designer_Assemblies_SysVars
350
4C0
  3
DWGPROPS
350
19D5
  3
GREFAM_MODULE
350
4B4
  3
StructToggleButtonState
350
55B
  0
DICTIONARY
  5
A45
330
8
100
AcDbDictionary
280
     1
281
     1
  0
DICTIONARY
  5
43C
330
2
100
AcDbDictionary
280
     1
281
     1
  3
ACAD_LAYERFILTERS
360
B21
  3
ACAD_LAYERSTATES
360
567
  3
ACLYDICTIONARY
360
B20
  3
AMLAYER_GROUPCOLORS
360
E31
  0
DICTIONARY
  5
52D
330
F
100
AcDbDictionary
280
     1
281
     1
  3
ADSK_XREC_LAYER_RECONCILED
360
16EF
  0
DICTIONARY
  5
531
330
24
100
AcDbDictionary
280
     1
281
     1
  3
ADSK_XREC_LAYER_RECONCILED
360
16F0
  0
DICTIONARY
  5
533
330
25
100
AcDbDictionary
280
     1
281
     1
  3
ADSK_XREC_LAYER_RECONCILED
360
16F1
  0
DICTIONARY
  5
537
330
27
100
AcDbDictionary
280
     1
281
     1
  3
ADSK_XREC_LAYER_RECONCILED
360
16F2
  0
DICTIONARY
  5
53D
330
2A
100
AcDbDictionary
280
     1
281
     1
  3
ADSK_XREC_LAYER_RECONCILED
360
16F3
  0
DICTIONARY
  5
53F
330
2B
100
AcDbDictionary
280
     1
281
     1
  3
ADSK_XREC_LAYER_RECONCILED
360
16F4
  0
DICTIONARY
  5
545
330
2E
100
AcDbDictionary
280
     1
281
     1
  3
ADSK_XREC_LAYER_RECONCILED
360
16F5
  0
DICTIONARY
  5
16F6
330
EB5
100
AcDbDictionary
280
     1
281
     1
  3
ADSK_XREC_LAYER_RECONCILED
360
16F7
  0
DICTIONARY
  5
16F8
330
EB7
100
AcDbDictionary
280
     1
281
     1
  3
ADSK_XREC_LAYER_RECONCILED
360
16F9
  0
DICTIONARY
  5
16FA
330
EB8
100
AcDbDictionary
280
     1
281
     1
  3
ADSK_XREC_LAYER_RECONCILED
360
16FB
  0
DICTIONARY
  5
DB1
330
18
100
AcDbDictionary
280
     1
281
     1
  3
ACAD_SORTENTS
360
DB2
  0
DICTIONARY
  5
B5E
330
B5D
100
AcDbDictionary
280
     1
281
     1
  3
ACAD_XREC_ROUNDTRIP
360
1A07
  3
ASDK_XREC_ANNOTATION_SCALE_INFO
360
B5F
  0
DICTIONARY
  5
19D6
102
{ACAD_REACTORS
330
C
102
}
330
C
100
AcDbDictionary
281
     1
  3
DIMARCSYM
350
19D7
  3
DIMJOGANG
350
19D8
  3
DIMLTEX1
350
19DA
  3
DIMLTEX2
350
19DB
  3
DIMLTYPE
350
19D9
  0
DICTIONARY
  5
B0F
102
{ACAD_REACTORS
330
C
102
}
330
C
100
AcDbDictionary
281
     1
  0
XRECORD
  5
CF7
102
{ACAD_REACTORS
330
C
102
}
330
C
100
AcDbXrecord
280
     1
300
AMECH_PP
300
2020
300
87229AMECH_PP_2020_0F
  0
DICTIONARY
  5
387
102
{ACAD_REACTORS
330
C
102
}
330
C
100
AcDbDictionary
281
     1
  0
DICTIONARY
  5
CEF
102
{ACAD_REACTORS
330
C
102
}
330
C
100
AcDbDictionary
281
     1
  3
DIN 6
350
D06
  3
Metric50
350
CF0
  0
FIELDLIST
  5
D13
102
{ACAD_REACTORS
330
C
102
}
330
C
100
AcDbIdSet
 90
        6
330
D1C
330
D1D
330
D1E
330
D11
330
D12
330
D14
100
AcDbFieldList
  0
DICTIONARY
  5
D
102
{ACAD_REACTORS
330
C
102
}
330
C
100
AcDbDictionary
281
     1
  0
DICTIONARY
  5
13EA
102
{ACAD_REACTORS
330
C
102
}
330
C
100
AcDbDictionary
280
     1
281
     1
  0
DICTIONARY
  5
301
102
{ACAD_REACTORS
330
C
102
}
330
C
100
AcDbDictionary
281
     1
  3
Layout1
350
B57
  3
Model
350
303
  0
DICTIONARY
  5
386
102
{ACAD_REACTORS
330
C
102
}
330
C
100
AcDbDictionary
281
     1
  3
ByBlock
350
3F0
  3
ByLayer
350
3EF
  3
Global
350
3F1
  0
DICTIONARY
  5
46F
102
{ACAD_REACTORS
330
C
102
}
330
C
100
AcDbDictionary
281
     1
  3
Standard
350
470
  0
DICTIONARY
  5
E
102
{ACAD_REACTORS
330
C
102
}
330
C
100
AcDbDictionary
281
     1
  3
STANDARD
350
1B
  0
DICTIONARY
  5
302
102
{ACAD_REACTORS
330
C
102
}
330
C
100
AcDbDictionary
281
     1
  3
DWG To PDF A4 - landscape
350
7EF
  3
DWG To PDF A4 - portrait
350
7F8
  0
ACDBDICTIONARYWDFLT
  5
2FF
102
{ACAD_REACTORS
330
C
102
}
330
C
100
AcDbDictionary
281
     1
  3
Normal
350
300
100
AcDbDictionaryWithDefault
340
300
  0
DICTIONARY
  5
44D
102
{ACAD_REACTORS
330
C
102
}
330
C
100
AcDbDictionary
281
     1
  3
A0
350
BFC
  3
A1
350
BFD
  3
A2
350
BFE
  3
A3
350
BFF
  3
A4
350
C00
  3
A5
350
C01
  3
A6
350
44E
  3
A7
350
C02
  3
A8
350
C03
  3
A9
350
C04
  3
B0
350
C05
  3
B1
350
C06
  3
B2
350
C07
  0
DICTIONARY
  5
CED
102
{ACAD_REACTORS
330
C
102
}
330
C
100
AcDbDictionary
281
     1
  3
DIN ISO 128-40_2002-05
350
D15
  3
Metric50
350
CEE
  0
DICTIONARY
  5
388
102
{ACAD_REACTORS
330
C
102
}
330
C
100
AcDbDictionary
281
     1
  3
Standard
350
389
  0
DICTIONARY
  5
3F2
102
{ACAD_REACTORS
330
C
102
}
330
C
100
AcDbDictionary
281
     1
  3
2dWireframe
350
3F8
  3
3D Hidden
350
3FA
  3
3dWireframe
350
3F9
  3
Basic
350
3F7
  3
Brighten
350
3FE
  3
ColorChange
350
402
  3
Conceptual
350
3FB
  3
Dim
350
3FD
  3
EdgeColorOff
350
BDF
  3
Facepattern
350
401
  3
Flat
350
3F3
  3
FlatWithEdges
350
3F4
  3
Gouraud
350
3F5
  3
GouraudWithEdges
350
3F6
  3
Hidden
350
CE7
  3
JitterOff
350
BDD
  3
Linepattern
350
400
  3
OverhangOff
350
BDE
  3
Realistic
350
3FC
  3
Shaded
350
CEC
  3
Shaded with edges
350
CEB
  3
Shades of Gray
350
CE8
  3
Sketchy
350
CE9
  3
Thicken
350
3FF
  3
Wireframe
350
CE6
  3
X-Ray
350
CEA
  0
XRECORD
  5
19D4
102
{ACAD_REACTORS
330
C
102
}
330
C
100
AcDbXrecord
280
     1
 90
        1
330
389
  0
DICTIONARY
  5
357
102
{ACAD_REACTORS
330
C
102
}
330
C
100
AcDbDictionary
281
     1
  3
CANNOSCALE
350
57C
  3
CMLEADERSTYLE
350
57A
  3
CTABLESTYLE
350
38E
  3
CVIEWDETAILSTYLE
350
D2C
  3
CVIEWSECTIONSTYLE
350
D2D
  3
DIMASSOC
350
359
  3
HIDETEXT
350
358
  3
INDEXCTL
350
ACC
  3
LAYEREVAL
350
BF1
  3
LAYERNOTIFY
350
BF2
  3
LIGHTINGUNITS
350
57D
  3
MSLTSCALE
350
57B
  3
SOLIDHIST
350
16FD
  3
SORTENTS
350
ACB
  3
XCLIPFRAME
350
19D2
  0
ACAD_PROXY_OBJECT
  5
48F
102
{ACAD_REACTORS
330
C
102
}
330
C
100
AcDbProxyObject
 90
      499
 91
      513
 95
 10158113
 70
     0
 93
      241
310
4C51A47A00000000000000000000000000000000000000000000000000004C
330
490
330
491
330
492
330
493
330
494
330
495
330
496
330
497
330
498
330
499
330
49A
330
49B
330
49C
330
49D
330
49E
330
49F
330
4A0
330
4A1
330
4A2
330
4A3
330
4A4
330
4A5
330
4A6
330
4A7
330
4A8
330
4A9
 94
        0
1001
ACAD
1000
AcRTDxfName
1000
ACIMSYSVARMAN
1000
AcRTDxfName
1000
ACIMSYSVARMAN
1000
AcRTDxfName
1000
ACIMSYSVARMAN
1000
AcRTDxfName
1000
ACIMSYSVARMAN
  0
ACAD_PROXY_OBJECT
  5
489
102
{ACAD_REACTORS
330
C
102
}
330
C
100
AcDbProxyObject
 90
      499
 91
      521
 95
 10158113
 70
     0
 93
       35
310
0C000042CC
 94
        0
1001
ACAD
1000
AcRTDxfName
1000
ACGREFMASTER
1000
AcRTDxfName
1000
ACGREFMASTER
1000
AcRTDxfName
1000
ACGREFMASTER
1000
AcRTDxfName
1000
ACGREFMASTER
  0
ACAD_PROXY_OBJECT
  5
4B0
102
{ACAD_REACTORS
330
C
102
}
330
C
100
AcDbProxyObject
 90
      499
 91
      530
 95
 10158113
 70
     0
 93
      115
310
04000041C08000000000000000000C
 94
        0
1001
ACAD
1000
AcRTDxfName
1000
ACGREFACADMASTER
1000
AcRTDxfName
1000
ACGREFACADMASTER
1000
AcRTDxfName
1000
ACGREFACADMASTER
1000
AcRTDxfName
1000
ACGREFACADMASTER
  0
DICTIONARY
  5
4D1
102
{ACAD_REACTORS
330
C
102
}
330
C
100
AcDbDictionary
281
     1
  3
AcmBOMDATA
350
4D2
  3
AcmStdDictionary
350
4DC
  3
AMDTSECTSYM_ARROWCOLOR
350
4F3
  0
ACAD_PROXY_OBJECT
  5
480
102
{ACAD_REACTORS
330
C
102
}
330
C
100
AcDbProxyObject
 90
      499
 91
      512
 95
 10158113
 70
     0
 93
     4583
310
4780601806018060180601806018060180601806018060180601806018060180601805010101806014040506530045004C004500430054004190C012001040138011C01140106530045004C004500430054004190C012001040138011C011401054C00410059004500520042130012401380114015001640140011401054C0
310
0410059004500520041530010401640114014801084C0049004E004500540059005000450041530010401640114014801054C00410059004500520042130012401380114015001640140011401054C00410059004500520041530010401640114014801084C0049004E0045005400590050004500415300104016401140148
310
01054C00410059004500520042130012401380114015001640140011401054C00410059004500520041530010401640114014801084C0049004E004500540059005000450041530010401640114014801054C0041005900450052004151401480104014C011401045A004F004F004D004194C0114015001580104014801044
310
C0049004E00450046134014C011C008000B40080010C01BC01B401B4018401B801900080010C01040138010C0114013001300114011000B801054500520041005300450041168013C013C013401065300410056004500410053004C534014C011C008000B4008001400140010400E80080008000800190019401CC01AC01D0
310
01BC01C000B8018401C801E00080011801A401B001940158019401C801CC01A401BC01B800E8008000C800D000B800C000B800D400C400B800C000B800C0020042
 94
        0
1001
ACAD
1000
AcRTDxfName
1000
ACMECOMMANDHISTORY
1000
AcRTDxfName
1000
ACMECOMMANDHISTORY
1000
AcRTDxfName
1000
ACMECOMMANDHISTORY
1000
AcRTDxfName
1000
ACMECOMMANDHISTORY
  0
ACAD_PROXY_OBJECT
  5
47F
102
{ACAD_REACTORS
330
C
102
}
330
C
100
AcDbProxyObject
 90
      499
 91
      511
 95
 10158113
 70
     0
 93
      531
310
160000554080000000000000000012D4C6000000000000000000000000000000000000000000000000000000000000000000000000000000000000000000AAA406AA8C
360
482
360
48A
360
48B
360
48C
360
48D
360
490
360
491
360
492
360
493
360
494
360
495
360
496
360
497
360
498
360
499
360
49A
360
49B
360
49C
360
49D
360
49E
360
49F
360
4A0
360
4A1
360
4A2
360
4A3
360
4A4
360
4A5
360
4A6
360
4A7
360
4A8
360
4A9
360
4B6
360
4C1
360
4C2
360
4C3
360
4C4
360
4C5
360
4CA
360
4CB
360
4CC
360
4CD
360
4CE
360
4CF
360
102D
360
1036
 94
        0
1001
ACAD
1000
AcRTDxfName
1000
ACMESCOPE
1000
AcRTDxfName
1000
ACMESCOPE
1000
AcRTDxfName
1000
ACMESCOPE
1000
AcRTDxfName
1000
ACMESCOPE
  0
ACAD_PROXY_OBJECT
  5
488
102
{ACAD_REACTORS
330
C
102
}
330
C
100
AcDbProxyObject
 90
      499
 91
      520
 95
 10158113
 70
     0
 93
       51
310
16000045A4128C
 94
        0
1001
ACAD
1000
AcRTDxfName
1000
ACMESTATEMGR
1000
AcRTDxfName
1000
ACMESTATEMGR
1000
AcRTDxfName
1000
ACMESTATEMGR
1000
AcRTDxfName
1000
ACMESTATEMGR
  0
ACAD_PROXY_OBJECT
  5
481
102
{ACAD_REACTORS
330
C
102
}
330
C
100
AcDbProxyObject
 90
      499
 91
      513
 95
 10158113
 70
     0
 93
       33
310
90140A004C
330
482
 94
        0
1001
ACAD
1000
AcRTDxfName
1000
ACIMSYSVARMAN
1000
AcRTDxfName
1000
ACIMSYSVARMAN
1000
AcRTDxfName
1000
ACIMSYSVARMAN
1000
AcRTDxfName
1000
ACIMSYSVARMAN
  0
ACAD_PROXY_OBJECT
  5
4B5
102
{ACAD_REACTORS
330
C
102
}
330
C
100
AcDbProxyObject
 90
      499
 91
      513
 95
 10158113
 70
     0
 93
       41
310
90240E00004C
330
4B6
330
1036
 94
        0
1001
ACAD
1000
AcRTDxfName
1000
ACIMSYSVARMAN
1000
AcRTDxfName
1000
ACIMSYSVARMAN
1000
AcRTDxfName
1000
ACIMSYSVARMAN
1000
AcRTDxfName
1000
ACIMSYSVARMAN
  0
ACAD_PROXY_OBJECT
  5
4BC
102
{ACAD_REACTORS
330
C
102
}
330
C
100
AcDbProxyObject
 90
      499
 91
      513
 95
 10158113
 70
     0
 93
        9
310
AA4C
 94
        0
1001
ACAD
1000
AcRTDxfName
1000
ACIMSYSVARMAN
1000
AcRTDxfName
1000
ACIMSYSVARMAN
1000
AcRTDxfName
1000
ACIMSYSVARMAN
1000
AcRTDxfName
1000
ACIMSYSVARMAN
  0
ACAD_PROXY_OBJECT
  5
4AB
102
{ACAD_REACTORS
330
C
102
}
330
C
100
AcDbProxyObject
 90
      499
 91
      527
 95
 10158113
 70
     0
 93
       43
310
000100005E8C
330
48A
 94
        0
1001
ACAD
1000
AcRTDxfName
1000
AM_DWGMGR_NAME
1000
AcRTDxfName
1000
AM_DWGMGR_NAME
1000
AcRTDxfName
1000
AM_DWGMGR_NAME
1000
AcRTDxfName
1000
AM_DWGMGR_NAME
  0
DICTIONARY
  5
478
102
{ACAD_REACTORS
330
C
102
}
330
C
100
AcDbDictionary
281
     1
  3
AcMgSettings
350
479
  3
AMGLAYCFG
350
4DE
  0
DICTIONARY
  5
51E
102
{ACAD_REACTORS
330
C
102
}
330
C
100
AcDbDictionary
281
     1
  3
DIMENSION
350
523
  3
FEA
350
522
  3
HATCH (1)
350
51F
  3
HATCH (2)
350
520
  3
SIMPLE WELD
350
524
  3
SYMBOLS
350
521
  0
ACAD_PROXY_OBJECT
  5
4B3
102
{ACAD_REACTORS
330
C
102
}
330
C
100
AcDbProxyObject
 90
      499
 91
      533
 95
 10158113
 70
     0
 93
       35
310
050000428C
 94
        0
1001
ACAD
1000
AcRTDxfName
1000
AMIMASTER
1000
AcRTDxfName
1000
AMIMASTER
1000
AcRTDxfName
1000
AMIMASTER
1000
AcRTDxfName
1000
AMIMASTER
  0
ACAD_PROXY_OBJECT
  5
4C6
102
{ACAD_REACTORS
330
C
102
}
330
C
100
AcDbProxyObject
 90
      499
 91
      544
 95
 10158113
 70
     0
 93
       99
310
0E000053C0000000000000000C
330
4CD
330
0
330
4CE
330
0
330
0
330
102D
330
0
330
0
 94
        0
1001
ACAD
1000
AcRTDxfName
1000
ACAMPROJECT
1000
AcRTDxfName
1000
ACAMPROJECT
1000
AcRTDxfName
1000
ACAMPROJECT
1000
AcRTDxfName
1000
ACAMPROJECT
  0
ACAD_PROXY_OBJECT
  5
4C0
102
{ACAD_REACTORS
330
C
102
}
330
C
100
AcDbProxyObject
 90
      499
 91
      513
 95
 10158113
 70
     0
 93
       65
310
90541A00000000004C
330
4C1
330
4C2
330
4C3
330
4C4
330
4C5
 94
        0
1001
ACAD
1000
AcRTDxfName
1000
ACIMSYSVARMAN
1000
AcRTDxfName
1000
ACIMSYSVARMAN
1000
AcRTDxfName
1000
ACIMSYSVARMAN
1000
AcRTDxfName
1000
ACIMSYSVARMAN
  0
XRECORD
  5
19D5
102
{ACAD_REACTORS
330
C
102
}
330
C
100
AcDbXrecord
280
     1
  1
DWGPROPS COOKIE
  2

  3

  4
Philippe Vogel
  6
Secotools DIN Template metric
  7

  8
inpumpadp
  9

300
=
301
=
302
=
303
=
304
=
305
=
306
=
307
=
308
=
309
=
 40
0.003634
 41
2460440.352766
 42
2460440.356377
  1
HTTP://WWW.SECOTOOLS.COM/
 90
        0
  0
ACAD_PROXY_OBJECT
  5
4B4
102
{ACAD_REACTORS
330
C
102
}
330
C
100
AcDbProxyObject
 90
      499
 91
      534
 95
 10158113
 70
     0
 93
        9
310
054C
 94
        0
1001
ACAD
1000
AcRTDxfName
1000
MAPIAMMOUDLE
1000
AcRTDxfName
1000
MAPIAMMOUDLE
1000
AcRTDxfName
1000
MAPIAMMOUDLE
1000
AcRTDxfName
1000
MAPIAMMOUDLE
  0
ACAD_PROXY_OBJECT
  5
55B
102
{ACAD_REACTORS
330
C
102
}
330
C
100
AcDbProxyObject
 90
      499
 91
      579
 95
 10158113
 70
     0
 93
        2
310
0C
 94
        0
1001
ACAD
1000
AcRTDxfName
1000
CAMSSTRUCTBTNSTATE
1000
AcRTDxfName
1000
CAMSSTRUCTBTNSTATE
1000
AcRTDxfName
1000
CAMSSTRUCTBTNSTATE
1000
AcRTDxfName
1000
CAMSSTRUCTBTNSTATE
  0
DICTIONARY
  5
B21
102
{ACAD_REACTORS
330
43C
102
}
330
43C
100
AcDbDictionary
281
     1
  0
DICTIONARY
  5
567
102
{ACAD_REACTORS
330
43C
102
}
330
43C
100
AcDbDictionary
281
     1
  3
BMG3.0
350
8E9
  0
DICTIONARY
  5
B20
102
{ACAD_REACTORS
330
43C
102
}
330
43C
100
AcDbDictionary
281
     1
1001
ACAD
1000
<All
  0
DICTIONARY
  5
E31
102
{ACAD_REACTORS
330
43C
102
}
330
43C
100
AcDbDictionary
280
     1
281
     1
  0
XRECORD
  5
16EF
102
{ACAD_REACTORS
330
52D
102
}
330
52D
100
AcDbXrecord
280
     1
290
     1
  0
XRECORD
  5
16F0
102
{ACAD_REACTORS
330
531
102
}
330
531
100
AcDbXrecord
280
     1
290
     1
  0
XRECORD
  5
16F1
102
{ACAD_REACTORS
330
533
102
}
330
533
100
AcDbXrecord
280
     1
290
     1
  0
XRECORD
  5
16F2
102
{ACAD_REACTORS
330
537
102
}
330
537
100
AcDbXrecord
280
     1
290
     1
  0
XRECORD
  5
16F3
102
{ACAD_REACTORS
330
53D
102
}
330
53D
100
AcDbXrecord
280
     1
290
     1
  0
XRECORD
  5
16F4
102
{ACAD_REACTORS
330
53F
102
}
330
53F
100
AcDbXrecord
280
     1
290
     1
  0
XRECORD
  5
16F5
102
{ACAD_REACTORS
330
545
102
}
330
545
100
AcDbXrecord
280
     1
290
     1
  0
XRECORD
  5
16F7
102
{ACAD_REACTORS
330
16F6
102
}
330
16F6
100
AcDbXrecord
280
     1
290
     1
  0
XRECORD
  5
16F9
102
{ACAD_REACTORS
330
16F8
102
}
330
16F8
100
AcDbXrecord
280
     1
290
     1
  0
XRECORD
  5
16FB
102
{ACAD_REACTORS
330
16FA
102
}
330
16FA
100
AcDbXrecord
280
     1
290
     1
  0
SORTENTSTABLE
  5
DB2
102
{ACAD_REACTORS
330
DB1
102
}
330
DB1
100
AcDbSortentsTable
330
18
331
140A
  5
140B
331
140B
  5
140C
331
140E
  5
140F
331
140F
  5
1410
331
1410
  5
1411
331
1411
  5
1414
331
1414
  5
1415
331
1415
  5
1416
331
1416
  5
1417
331
1417
  5
1418
331
1418
  5
1419
331
1419
  5
141A
331
141A
  5
141B
331
141B
  5
141C
331
141C
  5
141D
331
141D
  5
167A
331
16A1
  5
16AF
331
16A6
  5
16AE
  0
XRECORD
  5
1A07
102
{ACAD_REACTORS
330
B5E
102
}
330
B5E
100
AcDbXrecord
280
     1
102
SHADEPLOT
 70
     0
  0
XRECORD
  5
B5F
102
{ACAD_REACTORS
330
B5E
102
}
330
B5E
100
AcDbXrecord
280
     1
 90
        1
340
44E
  0
XRECORD
  5
19D7
102
{ACAD_REACTORS
330
19D6
102
}
330
19D6
100
AcDbXrecord
280
     1
 70
     1
  0
XRECORD
  5
19D8
102
{ACAD_REACTORS
330
19D6
102
}
330
19D6
100
AcDbXrecord
280
     1
 40
1.570796
  0
XRECORD
  5
19DA
102
{ACAD_REACTORS
330
19D6
102
}
330
19D6
100
AcDbXrecord
280
     1
340
12
  0
XRECORD
  5
19DB
102
{ACAD_REACTORS
330
19D6
102
}
330
19D6
100
AcDbXrecord
280
     1
340
12
  0
XRECORD
  5
19D9
102
{ACAD_REACTORS
330
19D6
102
}
330
19D6
100
AcDbXrecord
280
     1
340
12
  0
ACDBDETAILVIEWSTYLE
  5
D06
102
{ACAD_XDICTIONARY
360
D0F
102
}
102
{ACAD_REACTORS
330
4E7
330
CEF
102
}
330
CEF
100
AcDbModelDocViewStyle
 70
     0
  3

290
     0
100
AcDbDetailViewStyle
 70
     0
 71
     0
 90
        3
 71
     1
340
4DF
 40
5.0
340
D0B
 40
5.0
300

 40
0.0
280
     0
 71
     2
340
14
 90
       25
 71
     3
340
4DF
 40
5.0
 90
        0
 40
15.0
 90
        1
300
%<\AcVar ViewDetailId>% %<\AcVar ViewScale \f "%sn">%
 71
     4
340
14
 90
       25
340
14
 90
       25
280
     0
  0
ACDBDETAILVIEWSTYLE
  5
CF0
102
{ACAD_XDICTIONARY
360
1A1E
102
}
102
{ACAD_REACTORS
330
CEF
330
D05
102
}
330
CEF
100
AcDbModelDocViewStyle
 70
     0
  3
Metric50
290
     0
100
AcDbDetailViewStyle
 70
     0
 71
     0
 90
        3
 71
     1
340
10
 40
5.0
340
0
 40
5.0
300

 40
0.0
280
     1
 71
     2
340
14
 90
       25
 71
     3
340
10
 40
5.0
 90
        0
 40
15.0
 90
        1
300
%<\AcVar ViewDetailId>% (%<\AcVar ViewScale \f "%sn">%)
 71
     4
340
14
 90
       25
340
14
 90
       25
280
     0
  0
LAYOUT
  5
B57
102
{ACAD_XDICTIONARY
360
1A05
102
}
102
{ACAD_REACTORS
330
301
102
}
330
301
100
AcDbPlotSettings
  1

  2
DWG To PDF.pc3
  4
UserDefinedMetric (297.00 x 210.00mm)
  6

 40
0.0
 41
0.0
 42
0.0
 43
0.0
 44
297.0
 45
210.0
 46
0.0
 47
0.0
 48
0.0
 49
0.0
140
0.0
141
0.0
142
1.0
143
1.0
 70
   688
 72
     1
 73
     0
 74
     5
  7
monochrome.ctb
 75
    16
147
1.0
148
0.0
149
0.0
100
AcDbLayout
  1
Layout1
 70
     1
 71
     1
 10
0.0
 20
0.0
 11
297.0
 21
210.0
 12
0.0
 22
0.0
 32
0.0
 14
1.000000E+20
 24
1.000000E+20
 34
1.000000E+20
 15
-1.000000E+20
 25
-1.000000E+20
 35
-1.000000E+20
146
0.0
 13
0.0
 23
0.0
 33
0.0
 16
1.0
 26
0.0
 36
0.0
 17
0.0
 27
1.0
 37
0.0
 76
     0
330
B56
331
B5D
1001
ACAD_PSEXT
1000
DWG To PDF.pc3
1000
PDF
1000
Datei
1000

1070
     0
  0
LAYOUT
  5
303
102
{ACAD_XDICTIONARY
360
19DC
102
}
102
{ACAD_REACTORS
330
301
102
}
330
301
100
AcDbPlotSettings
  1

  2
Default Windows System Printer.pc3
  4
A4
  6

 40
4.233333
 41
4.995328
 42
4.233322
 43
4.995331
 44
209.973328
 45
296.968323
 46
0.0
 47
97.555562
 48
0.0
 49
0.0
140
0.0
141
0.0
142
1.0
143
6.090554
 70
  3764
 72
     1
 73
     1
 74
     1
  7
monochrome.ctb
 75
     0
147
0.164189
148
197.040221
149
599.055175
100
AcDbLayout
  1
Model
 70
     1
 71
     0
 10
0.0
 20
0.0
 11
12.0
 21
9.0
 12
0.0
 22
0.0
 32
0.0
 14
0.0
 24
0.0
 34
0.0
 15
0.0
 25
0.0
 35
0.0
146
0.0
 13
0.0
 23
0.0
 33
0.0
 16
1.0
 26
0.0
 36
0.0
 17
0.0
 27
1.0
 37
0.0
 76
     0
330
18
331
AD1
1001
ACAD_PSEXT
1000
Default Windows System Printer.pc3
1000
HP LaserJet 5100 PCL 6
1000
HPLaserJet5100Series
1000

1070
     0
  0
MATERIAL
  5
3F0
102
{ACAD_XDICTIONARY
360
1770
102
}
102
{ACAD_REACTORS
330
386
102
}
330
386
100
AcDbMaterial
  1
ByBlock
 73
     1
 78
     1
172
     1
176
     1
270
     1
274
     1
  0
MATERIAL
  5
3EF
102
{ACAD_XDICTIONARY
360
176E
102
}
102
{ACAD_REACTORS
330
386
102
}
330
386
100
AcDbMaterial
  1
ByLayer
 73
     1
 78
     1
172
     1
176
     1
270
     1
274
     1
  0
MATERIAL
  5
3F1
102
{ACAD_XDICTIONARY
360
1772
102
}
102
{ACAD_REACTORS
330
386
102
}
330
386
100
AcDbMaterial
  1
Global
 73
     1
 78
     1
172
     1
176
     1
270
     1
274
     1
  0
MLEADERSTYLE
  5
470
102
{ACAD_XDICTIONARY
360
19FF
102
}
102
{ACAD_REACTORS
330
46F
102
}
330
46F
100
AcDbMLeaderStyle
170
     2
171
     1
172
     0
 90
        2
 40
0.0
 41
0.0
173
     1
 91
-1056964608
340
12
 92
       -2
290
     1
 42
2.0
291
     1
 43
0.36
  3
Standard
 44
5.0
300

342
10
174
     0
178
     6
175
     1
176
     0
 93
-1056964608
 45
3.5
292
     0
297
     0
 46
4.0
 94
-1056964608
 47
1.0
 49
1.0
140
1.0
293
     1
141
0.0
294
     1
177
     0
142
1.0
295
     0
296
     0
143
0.125
1001
ACAD_MLEADERVER
1070
     2
  0
MLINESTYLE
  5
1B
102
{ACAD_REACTORS
330
E
102
}
330
E
100
AcDbMlineStyle
  2
STANDARD
 70
     0
  3

 62
     0
 51
90.0
 52
90.0
 71
     2
 49
0.5
 62
   256
  6
BYLAYER
 49
-0.5
 62
   256
  6
BYLAYER
  0
PLOTSETTINGS
  5
7EF
102
{ACAD_XDICTIONARY
360
1A01
102
}
102
{ACAD_REACTORS
330
302
102
}
330
302
100
AcDbPlotSettings
  1
DWG To PDF A4 - landscape
  2
DWG To PDF.pc3
  4
ISO_expand_A4_(297.00_x_210.00_MM)
  6

 40
5.79375
 41
10.79375
 42
5.793762
 43
10.793747
 44
297.0
 45
210.0
 46
99.757779
 47
0.0
 48
0.0
 49
0.0
140
0.0
141
0.0
142
1.0
143
6.513831
 70
 11956
 72
     1
 73
     0
 74
     1
  7
monochrome.ctb
 75
     0
147
0.153519
148
197.040221
149
599.055175
1001
ACAD_PSEXT
1000
DWG To PDF.pc3
1000
PDF
1000
Datei
1000

1070
     0
  0
PLOTSETTINGS
  5
7F8
102
{ACAD_XDICTIONARY
360
1A03
102
}
102
{ACAD_REACTORS
330
302
102
}
330
302
100
AcDbPlotSettings
  1
DWG To PDF A4 - portrait
  2
DWG To PDF.pc3
  4
ISO_expand_A4_(210.00_x_297.00_MM)
  6

 40
5.79375
 41
10.79375
 42
5.793747
 43
10.793762
 44
210.0
 45
297.0
 46
36.426216
 47
0.0
 48
0.0
 49
0.0
140
0.0
141
0.0
142
1.0
143
4.456179
 70
 11956
 72
     1
 73
     0
 74
     1
  7
monochrome.ctb
 75
     0
147
0.224408
148
197.040221
149
599.055175
1001
ACAD_PSEXT
1000
DWG To PDF.pc3
1000
PDF
1000
Datei
1000

1070
     0
  0
ACDBPLACEHOLDER
  5
300
102
{ACAD_REACTORS
330
2FF
102
}
330
2FF
  0
SCALE
  5
BFC
102
{ACAD_REACTORS
330
44D
102
}
330
44D
100
AcDbScale
 70
     0
300
100:1
140
100.0
141
1.0
290
     0
  0
SCALE
  5
BFD
102
{ACAD_REACTORS
330
44D
102
}
330
44D
100
AcDbScale
 70
     0
300
50:1
140
50.0
141
1.0
290
     0
  0
SCALE
  5
BFE
102
{ACAD_REACTORS
330
44D
102
}
330
44D
100
AcDbScale
 70
     0
300
20:1
140
20.0
141
1.0
290
     0
  0
SCALE
  5
BFF
102
{ACAD_REACTORS
330
44D
102
}
330
44D
100
AcDbScale
 70
     0
300
10:1
140
10.0
141
1.0
290
     0
  0
SCALE
  5
C00
102
{ACAD_REACTORS
330
44D
102
}
330
44D
100
AcDbScale
 70
     0
300
5:1
140
5.0
141
1.0
290
     0
  0
SCALE
  5
C01
102
{ACAD_REACTORS
330
44D
102
}
330
44D
100
AcDbScale
 70
     0
300
2:1
140
2.0
141
1.0
290
     0
  0
SCALE
  5
44E
102
{ACAD_REACTORS
330
44D
102
}
330
44D
100
AcDbScale
 70
     0
300
1:1
140
1.0
141
1.0
290
     1
  0
SCALE
  5
C02
102
{ACAD_REACTORS
330
44D
102
}
330
44D
100
AcDbScale
 70
     0
300
1:2
140
1.0
141
2.0
290
     0
  0
SCALE
  5
C03
102
{ACAD_REACTORS
330
44D
102
}
330
44D
100
AcDbScale
 70
     0
300
1:5
140
1.0
141
5.0
290
     0
  0
SCALE
  5
C04
102
{ACAD_REACTORS
330
44D
102
}
330
44D
100
AcDbScale
 70
     0
300
1:10
140
1.0
141
10.0
290
     0
  0
SCALE
  5
C05
102
{ACAD_REACTORS
330
44D
102
}
330
44D
100
AcDbScale
 70
     0
300
1:20
140
1.0
141
20.0
290
     0
  0
SCALE
  5
C06
102
{ACAD_REACTORS
330
44D
102
}
330
44D
100
AcDbScale
 70
     0
300
1:50
140
1.0
141
50.0
290
     0
  0
SCALE
  5
C07
102
{ACAD_REACTORS
330
44D
102
}
330
44D
100
AcDbScale
 70
     0
300
1:100
140
1.0
141
100.0
290
     0
  0
ACDBSECTIONVIEWSTYLE
  5
D15
102
{ACAD_XDICTIONARY
360
D1A
102
}
102
{ACAD_REACTORS
330
4E8
330
CED
102
}
330
CED
100
AcDbModelDocViewStyle
 70
     0
  3

290
     0
100
AcDbSectionViewStyle
 70
     0
 71
     0
 90
      102
 71
     1
340
4DF
 40
7.0
340
D16
340
D16
 40
5.0
300
I,O,Q,S,X,Z
 40
10.0
 90
        0
 40
3.5
 90
        0
 71
     2
340
14
 90
       -1
340
14
 90
       -1
 40
10.0
 40
5.0
 40
25.0
 71
     3
340
4DF
 40
7.0
 90
        0
 40
5.25
 90
        1
300
%<\AcVar ViewSectionStartId>%-%<\AcVar ViewSectionEndId>%
 71
     4
300
ANSI31
 40
1.0
 90
        0
290
     0
290
     0
 90
        6
 40
0.0
 40
1.570796
 40
0.261799
 40
1.308997
 40
-0.261799
 40
1.832596
  0
ACDBSECTIONVIEWSTYLE
  5
CEE
102
{ACAD_XDICTIONARY
360
1A1C
102
}
102
{ACAD_REACTORS
330
CED
330
D04
102
}
330
CED
100
AcDbModelDocViewStyle
 70
     0
  3
Metric50
290
     0
100
AcDbSectionViewStyle
 70
     0
 71
     0
 90
      102
 71
     1
340
10
 40
5.0
340
0
340
0
 40
5.0
300
I, O, Q, S, X, Z
 40
10.0
 90
        0
 40
2.5
 90
        0
 71
     2
340
14
 90
       25
340
14
 90
       50
 40
5.0
 40
2.5
 40
5.0
 71
     3
340
10
 40
5.0
 90
        0
 40
15.0
 90
        1
300
%<\AcVar ViewSectionStartId>%-%<\AcVar ViewSectionEndId>% (%<\AcVar ViewScale \f "%sn">%)
 71
     4
300
ANSI31
 40
1.0
 90
        0
290
     0
290
     0
 90
        6
 40
0.0
 40
1.570796
 40
0.261799
 40
1.308997
 40
-0.261799
 40
1.832596
  0
TABLESTYLE
  5
389
102
{ACAD_XDICTIONARY
360
577
102
}
102
{ACAD_REACTORS
330
388
102
}
330
388
100
AcDbTableStyle
  3
Standard
 70
     0
 71
     0
 40
1.5
 41
1.5
280
     0
281
     0
  7
STANDARD
140
4.5
170
     2
 62
     0
 63
     7
283
     0
274
    -2
284
     1
 64
     0
275
    -2
285
     1
 65
     0
276
    -2
286
     1
 66
     0
277
    -2
287
     1
 67
     0
278
    -2
288
     1
 68
     0
279
    -2
289
     1
 69
     0
  7
STANDARD 5 mm
140
6.0
170
     5
 62
     0
 63
     7
283
     0
274
    -2
284
     1
 64
     0
275
    -2
285
     1
 65
     0
276
    -2
286
     1
 66
     0
277
    -2
287
     1
 67
     0
278
    -2
288
     1
 68
     0
279
    -2
289
     1
 69
     0
  7
STANDARD
140
4.5
170
     5
 62
     0
 63
     7
283
     0
274
    -2
284
     1
 64
     0
275
    -2
285
     1
 65
     0
276
    -2
286
     1
 66
     0
277
    -2
287
     1
 67
     0
278
    -2
288
     1
 68
     0
279
    -2
289
     1
 69
     0
  0
VISUALSTYLE
  5
3F8
102
{ACAD_XDICTIONARY
360
19E9
102
}
102
{ACAD_REACTORS
330
3F2
102
}
330
3F2
100
AcDbVisualStyle
  2

 70
     4
 71
     0
 72
     2
 73
     0
 90
        0
 40
-0.6
 41
-30.0
 62
     5
 63
     7
 74
     1
 91
        4
 64
     7
 65
   257
 75
     1
175
     1
 42
1.0
 92
        0
 66
   257
 43
1.0
 76
     1
 77
     6
 78
     2
 67
     7
 79
     5
170
     0
171
     0
290
     0
174
     0
 93
        1
 44
0.0
173
     0
291
     0
 45
0.0
1001
ACAD
1000
AcDbSavedByObjectVersion
1070
     0
  0
VISUALSTYLE
  5
3FA
102
{ACAD_XDICTIONARY
360
19ED
102
}
102
{ACAD_REACTORS
330
3F2
102
}
330
3F2
100
AcDbVisualStyle
  2

 70
     6
 71
     1
 72
     2
 73
     2
 90
        0
 40
-0.6
 41
-30.0
 62
     5
 63
     7
 74
     2
 91
        2
 64
     7
 65
   257
 75
     2
175
     1
 42
40.0
 92
        0
 66
   257
 43
1.0
 76
     1
 77
     6
 78
     2
 67
     7
 79
     3
170
     0
171
     0
290
     0
174
     0
 93
        1
 44
0.0
173
     0
291
     0
 45
0.0
1001
ACAD
1000
AcDbSavedByObjectVersion
1070
     0
  0
VISUALSTYLE
  5
3F9
102
{ACAD_XDICTIONARY
360
19EB
102
}
102
{ACAD_REACTORS
330
3F2
102
}
330
3F2
100
AcDbVisualStyle
  2

 70
     5
 71
     0
 72
     2
 73
     0
 90
        0
 40
-0.6
 41
-30.0
 62
     5
 63
     7
 74
     1
 91
        4
 64
     7
 65
   257
 75
     1
175
     1
 42
1.0
 92
        0
 66
   257
 43
1.0
 76
     1
 77
     6
 78
     2
 67
     7
 79
     5
170
     0
171
     0
290
     0
174
     0
 93
        1
 44
0.0
173
     0
291
     0
 45
0.0
1001
ACAD
1000
AcDbSavedByObjectVersion
1070
     0
  0
VISUALSTYLE
  5
3F7
102
{ACAD_XDICTIONARY
360
19E7
102
}
102
{ACAD_REACTORS
330
3F2
102
}
330
3F2
100
AcDbVisualStyle
  2

 70
     7
 71
     1
 72
     0
 73
     1
 90
        0
 40
-0.6
 41
-30.0
 62
     5
 63
     7
 74
     0
 91
        4
 64
     7
 65
   257
 75
     1
175
     1
 42
1.0
 92
        8
 66
     7
 43
1.0
 76
     1
 77
     6
 78
     2
 67
     7
 79
     5
170
     0
171
     0
290
     0
174
     0
 93
        1
 44
0.0
173
     0
291
     1
 45
0.0
1001
ACAD
1000
AcDbSavedByObjectVersion
1070
     0
  0
VISUALSTYLE
  5
3FE
102
{ACAD_XDICTIONARY
360
19F5
102
}
102
{ACAD_REACTORS
330
3F2
102
}
330
3F2
100
AcDbVisualStyle
  2

 70
    12
 71
     2
 72
     2
 73
     0
 90
        0
 40
-0.6
 41
-30.0
 62
     5
 63
     7
 74
     1
 91
        4
 64
     7
 65
   257
 75
     1
175
     1
 42
1.0
 92
        8
 66
     7
 43
1.0
 76
     1
 77
     6
 78
     2
 67
     7
 79
     5
170
     0
171
     0
290
     0
174
     0
 93
        1
 44
50.0
173
     0
291
     1
 45
0.0
1001
ACAD
1000
AcDbSavedByObjectVersion
1070
     0
  0
VISUALSTYLE
  5
402
102
{ACAD_XDICTIONARY
360
19FD
102
}
102
{ACAD_REACTORS
330
3F2
102
}
330
3F2
100
AcDbVisualStyle
  2

 70
    16
 71
     2
 72
     2
 73
     3
 90
        0
 40
-0.6
 41
-30.0
 62
     5
 63
     8
 74
     1
 91
        4
 64
     7
 65
   257
 75
     1
175
     1
 42
1.0
 92
        8
 66
     8
 43
1.0
 76
     1
 77
     6
 78
     2
 67
     7
 79
     5
170
     0
171
     0
290
     0
174
     0
 93
        1
 44
0.0
173
     0
291
     1
 45
0.0
1001
ACAD
1000
AcDbSavedByObjectVersion
1070
     0
  0
VISUALSTYLE
  5
3FB
102
{ACAD_XDICTIONARY
360
19EF
102
}
102
{ACAD_REACTORS
330
3F2
102
}
330
3F2
100
AcDbVisualStyle
  2

 70
     9
 71
     3
 72
     2
 73
     0
 90
        0
 40
-0.6
 41
-30.0
 62
     5
 63
     7
 74
     2
 91
        2
 64
     7
 65
   257
 75
     1
175
     1
 42
40.0
 92
        8
 66
     7
 43
1.0
 76
     1
 77
     6
 78
     2
 67
     7
 79
     3
170
     0
171
     0
290
     0
174
     0
 93
        1
 44
0.0
173
     0
291
     0
 45
0.0
1001
ACAD
1000
AcDbSavedByObjectVersion
1070
     0
  0
VISUALSTYLE
  5
3FD
102
{ACAD_XDICTIONARY
360
19F3
102
}
102
{ACAD_REACTORS
330
3F2
102
}
330
3F2
100
AcDbVisualStyle
  2

 70
    11
 71
     2
 72
     2
 73
     0
 90
        0
 40
-0.6
 41
-30.0
 62
     5
 63
     7
 74
     1
 91
        4
 64
     7
 65
   257
 75
     1
175
     1
 42
1.0
 92
        8
 66
     7
 43
1.0
 76
     1
 77
     6
 78
     2
 67
     7
 79
     5
170
     0
171
     0
290
     0
174
     0
 93
        1
 44
-50.0
173
     0
291
     1
 45
0.0
1001
ACAD
1000
AcDbSavedByObjectVersion
1070
     0
  0
VISUALSTYLE
  5
BDF
102
{ACAD_XDICTIONARY
360
1A0C
102
}
102
{ACAD_REACTORS
330
3F2
102
}
330
3F2
100
AcDbVisualStyle
  2

 70
    22
 71
     2
 72
     2
 73
     0
 90
        0
 40
-0.6
 41
-30.0
 62
     5
 63
     7
 74
     1
 91
        4
 64
     7
 65
   257
 75
     1
175
     1
 42
1.0
 92
        8
 66
     7
 43
1.0
 76
     1
 77
     6
 78
     2
 67
     7
 79
     5
170
     0
171
     0
290
     0
174
     0
 93
        1
 44
0.0
173
     0
291
     1
 45
0.0
1001
ACAD
1000
AcDbSavedByObjectVersion
1070
     0
  0
VISUALSTYLE
  5
401
102
{ACAD_XDICTIONARY
360
19FB
102
}
102
{ACAD_REACTORS
330
3F2
102
}
330
3F2
100
AcDbVisualStyle
  2

 70
    15
 71
     2
 72
     2
 73
     0
 90
        0
 40
-0.6
 41
-30.0
 62
     5
 63
     7
 74
     1
 91
        4
 64
     7
 65
   257
 75
     1
175
     1
 42
1.0
 92
        8
 66
     7
 43
1.0
 76
     1
 77
     6
 78
     2
 67
     7
 79
     5
170
     0
171
     0
290
     0
174
     0
 93
        1
 44
0.0
173
     0
291
     1
 45
0.0
1001
ACAD
1000
AcDbSavedByObjectVersion
1070
     0
  0
VISUALSTYLE
  5
3F3
102
{ACAD_XDICTIONARY
360
19DF
102
}
102
{ACAD_REACTORS
330
3F2
102
}
330
3F2
100
AcDbVisualStyle
  2

 70
     0
 71
     2
 72
     1
 73
     1
 90
        2
 40
-0.6
 41
30.0
 62
     5
 63
     7
 74
     0
 91
        4
 64
     7
 65
   257
 75
     1
175
     1
 42
1.0
 92
        8
 66
     7
 43
1.0
 76
     1
 77
     6
 78
     2
 67
     7
 79
     5
170
     0
171
     0
290
     0
174
     0
 93
       13
 44
0.0
173
     0
291
     1
 45
0.0
1001
ACAD
1000
AcDbSavedByObjectVersion
1070
     0
  0
VISUALSTYLE
  5
3F4
102
{ACAD_XDICTIONARY
360
19E1
102
}
102
{ACAD_REACTORS
330
3F2
102
}
330
3F2
100
AcDbVisualStyle
  2

 70
     1
 71
     2
 72
     1
 73
     1
 90
        2
 40
-0.6
 41
30.0
 62
     5
 63
     7
 74
     1
 91
        4
 64
     7
 65
   257
 75
     1
175
     1
 42
1.0
 92
        0
 66
   257
 43
1.0
 76
     1
 77
     6
 78
     2
 67
     7
 79
     5
170
     0
171
     0
290
     0
174
     0
 93
       13
 44
0.0
173
     0
291
     1
 45
0.0
1001
ACAD
1000
AcDbSavedByObjectVersion
1070
     0
  0
VISUALSTYLE
  5
3F5
102
{ACAD_XDICTIONARY
360
19E3
102
}
102
{ACAD_REACTORS
330
3F2
102
}
330
3F2
100
AcDbVisualStyle
  2

 70
     2
 71
     2
 72
     2
 73
     1
 90
        2
 40
-0.6
 41
30.0
 62
     5
 63
     7
 74
     0
 91
        4
 64
     7
 65
   257
 75
     1
175
     1
 42
1.0
 92
        0
 66
     7
 43
1.0
 76
     1
 77
     6
 78
     2
 67
     7
 79
     5
170
     0
171
     0
290
     0
174
     0
 93
       13
 44
0.0
173
     0
291
     1
 45
0.0
1001
ACAD
1000
AcDbSavedByObjectVersion
1070
     0
  0
VISUALSTYLE
  5
3F6
102
{ACAD_XDICTIONARY
360
19E5
102
}
102
{ACAD_REACTORS
330
3F2
102
}
330
3F2
100
AcDbVisualStyle
  2

 70
     3
 71
     2
 72
     2
 73
     1
 90
        2
 40
-0.6
 41
30.0
 62
     5
 63
     7
 74
     1
 91
        4
 64
     7
 65
   257
 75
     1
175
     1
 42
1.0
 92
        0
 66
   257
 43
1.0
 76
     1
 77
     6
 78
     2
 67
     7
 79
     5
170
     0
171
     0
290
     0
174
     0
 93
       13
 44
0.0
173
     0
291
     1
 45
0.0
1001
ACAD
1000
AcDbSavedByObjectVersion
1070
     0
  0
VISUALSTYLE
  5
CE7
102
{ACAD_XDICTIONARY
360
1A10
102
}
102
{ACAD_REACTORS
330
3F2
102
}
330
3F2
100
AcDbVisualStyle
  2

 70
     6
 71
     1
 72
     2
 73
     2
 90
        0
 40
-0.6
 41
-30.0
 62
     5
 63
     7
 74
     2
 91
        2
 64
     7
 65
   257
 75
     2
175
     1
 42
40.0
 92
        0
 66
   257
 43
1.0
 76
     1
 77
     6
 78
     2
 67
     7
 79
     3
170
     0
171
     0
290
     0
174
     0
 93
        1
 44
0.0
173
     0
291
     0
 45
0.0
1001
ACAD
1000
AcDbSavedByObjectVersion
1070
     0
  0
VISUALSTYLE
  5
BDD
102
{ACAD_XDICTIONARY
360
1A08
102
}
102
{ACAD_REACTORS
330
3F2
102
}
330
3F2
100
AcDbVisualStyle
  2

 70
    20
 71
     2
 72
     2
 73
     0
 90
        0
 40
-0.6
 41
-30.0
 62
     5
 63
     7
 74
     1
 91
        4
 64
     7
 65
   257
 75
     1
175
     1
 42
1.0
 92
       10
 66
     7
 43
1.0
 76
     1
 77
     6
 78
     2
 67
     7
 79
     5
170
     0
171
     0
290
     0
174
     0
 93
        1
 44
0.0
173
     0
291
     1
 45
0.0
1001
ACAD
1000
AcDbSavedByObjectVersion
1070
     0
  0
VISUALSTYLE
  5
400
102
{ACAD_XDICTIONARY
360
19F9
102
}
102
{ACAD_REACTORS
330
3F2
102
}
330
3F2
100
AcDbVisualStyle
  2

 70
    14
 71
     2
 72
     2
 73
     0
 90
        0
 40
-0.6
 41
-30.0
 62
     5
 63
     7
 74
     1
 91
        4
 64
     7
 65
   257
 75
     7
175
     7
 42
1.0
 92
        8
 66
     7
 43
1.0
 76
     1
 77
     6
 78
     2
 67
     7
 79
     5
170
     0
171
     0
290
     0
174
     0
 93
        1
 44
0.0
173
     0
291
     1
 45
0.0
1001
ACAD
1000
AcDbSavedByObjectVersion
1070
     0
  0
VISUALSTYLE
  5
BDE
102
{ACAD_XDICTIONARY
360
1A0A
102
}
102
{ACAD_REACTORS
330
3F2
102
}
330
3F2
100
AcDbVisualStyle
  2

 70
    21
 71
     2
 72
     2
 73
     0
 90
        0
 40
-0.6
 41
-30.0
 62
     5
 63
     7
 74
     1
 91
        4
 64
     7
 65
   257
 75
     1
175
     1
 42
1.0
 92
        9
 66
     7
 43
1.0
 76
     1
 77
     6
 78
     2
 67
     7
 79
     5
170
     0
171
     0
290
     0
174
     0
 93
        1
 44
0.0
173
     0
291
     1
 45
0.0
1001
ACAD
1000
AcDbSavedByObjectVersion
1070
     0
  0
VISUALSTYLE
  5
3FC
102
{ACAD_XDICTIONARY
360
19F1
102
}
102
{ACAD_REACTORS
330
3F2
102
}
330
3F2
100
AcDbVisualStyle
  2

 70
     8
 71
     2
 72
     2
 73
     0
 90
        0
 40
-0.6
 41
-30.0
 62
     5
 63
     7
 74
     1
 91
        0
 64
     7
 65
   257
 75
     1
175
     1
 42
1.0
 92
        8
 66
     8
 43
1.0
 76
     1
 77
     6
 78
     2
 67
     7
 79
     5
170
     0
171
     0
290
     0
174
     0
 93
       13
 44
0.0
173
     0
291
     0
 45
0.0
1001
ACAD
1000
AcDbSavedByObjectVersion
1070
     0
  0
VISUALSTYLE
  5
CEC
102
{ACAD_XDICTIONARY
360
1A1A
102
}
102
{ACAD_REACTORS
330
3F2
102
}
330
3F2
100
AcDbVisualStyle
  2

 70
    27
 71
     2
 72
     2
 73
     1
 90
        2
 40
-0.6
 41
30.0
 62
     5
 63
     7
 74
     0
 91
        4
 64
     7
 65
   257
 75
     1
175
     1
 42
1.0
 92
        8
 66
   257
 43
1.0
 76
     1
 77
     6
 78
     2
 67
     8
 79
     3
170
     0
171
     0
290
     0
174
     0
 93
        5
 44
0.0
173
     0
291
     0
 45
0.0
1001
ACAD
1000
AcDbSavedByObjectVersion
1070
     0
  0
VISUALSTYLE
  5
CEB
102
{ACAD_XDICTIONARY
360
1A18
102
}
102
{ACAD_REACTORS
330
3F2
102
}
330
3F2
100
AcDbVisualStyle
  2

 70
    26
 71
     2
 72
     2
 73
     1
 90
        2
 40
-0.6
 41
30.0
 62
     5
 63
     7
 74
     1
 91
        2
 64
     7
 65
   257
 75
     2
175
     1
 42
1.0
 92
        8
 66
   257
 43
1.0
 76
     1
 77
     6
 78
     2
 67
     7
 79
     3
170
     0
171
     0
290
     0
174
     0
 93
        5
 44
0.0
173
     0
291
     0
 45
0.0
1001
ACAD
1000
AcDbSavedByObjectVersion
1070
     0
  0
VISUALSTYLE
  5
CE8
102
{ACAD_XDICTIONARY
360
1A12
102
}
102
{ACAD_REACTORS
330
3F2
102
}
330
3F2
100
AcDbVisualStyle
  2

 70
    23
 71
     2
 72
     2
 73
     3
 90
        0
 40
-0.6
 41
-30.0
 62
     5
 63
     7
 74
     2
 91
        2
 64
     7
 65
     7
 75
     1
175
     1
 42
40.0
 92
        8
 66
     7
 43
1.0
 76
     1
 77
     6
 78
     2
 67
     7
 79
     3
170
     0
171
     0
290
     0
174
     0
 93
        1
 44
0.0
173
     0
291
     0
 45
0.0
1001
ACAD
1000
AcDbSavedByObjectVersion
1070
     0
  0
VISUALSTYLE
  5
CE9
102
{ACAD_XDICTIONARY
360
1A14
102
}
102
{ACAD_REACTORS
330
3F2
102
}
330
3F2
100
AcDbVisualStyle
  2

 70
    24
 71
     1
 72
     2
 73
     2
 90
        0
 40
-0.6
 41
-30.0
 62
     5
 63
     7
 74
     2
 91
        2
 64
     7
 65
     7
 75
     1
175
     1
 42
40.0
 92
       11
 66
     7
 43
1.0
 76
     1
 77
     6
 78
     2
 67
     7
 79
     6
170
     0
171
     0
290
     0
174
     0
 93
        1
 44
0.0
173
     0
291
     0
 45
0.0
1001
ACAD
1000
AcDbSavedByObjectVersion
1070
     0
  0
VISUALSTYLE
  5
3FF
102
{ACAD_XDICTIONARY
360
19F7
102
}
102
{ACAD_REACTORS
330
3F2
102
}
330
3F2
100
AcDbVisualStyle
  2

 70
    13
 71
     2
 72
     2
 73
     0
 90
        0
 40
-0.6
 41
-30.0
 62
     5
 63
     7
 74
     1
 91
        4
 64
     7
 65
   257
 75
     1
175
     1
 42
1.0
 92
       12
 66
     7
 43
1.0
 76
     1
 77
     6
 78
     2
 67
     7
 79
     5
170
     0
171
     0
290
     0
174
     0
 93
        1
 44
0.0
173
     0
291
     1
 45
0.0
1001
ACAD
1000
AcDbSavedByObjectVersion
1070
     0
  0
VISUALSTYLE
  5
CE6
102
{ACAD_XDICTIONARY
360
1A0E
102
}
102
{ACAD_REACTORS
330
3F2
102
}
330
3F2
100
AcDbVisualStyle
  2

 70
     5
 71
     0
 72
     2
 73
     0
 90
        0
 40
-0.6
 41
-30.0
 62
     5
 63
     7
 74
     1
 91
        4
 64
     7
 65
   257
 75
     1
175
     1
 42
1.0
 92
        0
 66
   257
 43
1.0
 76
     1
 77
     6
 78
     2
 67
     7
 79
     3
170
     0
171
     0
290
     0
174
     0
 93
        1
 44
0.0
173
     0
291
     0
 45
0.0
1001
ACAD
1000
AcDbSavedByObjectVersion
1070
     0
  0
VISUALSTYLE
  5
CEA
102
{ACAD_XDICTIONARY
360
1A16
102
}
102
{ACAD_REACTORS
330
3F2
102
}
330
3F2
100
AcDbVisualStyle
  2

 70
    25
 71
     2
 72
     2
 73
     1
 90
        1
 40
0.5
 41
-30.0
 62
     5
 63
     7
 74
     1
 91
        0
 64
     7
 65
   257
 75
     1
175
     1
 42
1.0
 92
        8
 66
     7
 43
1.0
 76
     1
 77
     6
 78
     2
 67
     7
 79
     3
170
     0
171
     0
290
     0
174
     0
 93
       13
 44
0.0
173
     0
291
     0
 45
0.0
1001
ACAD
1000
AcDbSavedByObjectVersion
1070
     0
  0
DICTIONARYVAR
  5
57C
102
{ACAD_REACTORS
330
357
102
}
330
357
100
DictionaryVariables
280
     0
  1
1:1
  0
DICTIONARYVAR
  5
57A
102
{ACAD_REACTORS
330
357
102
}
330
357
100
DictionaryVariables
280
     0
  1
STANDARD
  0
DICTIONARYVAR
  5
38E
102
{ACAD_REACTORS
330
357
102
}
330
357
100
DictionaryVariables
280
     0
  1
STANDARD
  0
DICTIONARYVAR
  5
D2C
102
{ACAD_REACTORS
330
357
102
}
330
357
100
DictionaryVariables
280
     0
  1
DIN 6
  0
DICTIONARYVAR
  5
D2D
102
{ACAD_REACTORS
330
357
102
}
330
357
100
DictionaryVariables
280
     0
  1
DIN ISO 128-40_2002-05
  0
DICTIONARYVAR
  5
359
102
{ACAD_REACTORS
330
357
102
}
330
357
100
DictionaryVariables
280
     0
  1
2
  0
DICTIONARYVAR
  5
358
102
{ACAD_REACTORS
330
357
102
}
330
357
100
DictionaryVariables
280
     0
  1
1
  0
DICTIONARYVAR
  5
ACC
102
{ACAD_REACTORS
330
357
102
}
330
357
100
DictionaryVariables
280
     0
  1
0
  0
DICTIONARYVAR
  5
BF1
102
{ACAD_REACTORS
330
357
102
}
330
357
100
DictionaryVariables
280
     0
  1
1
  0
DICTIONARYVAR
  5
BF2
102
{ACAD_REACTORS
330
357
102
}
330
357
100
DictionaryVariables
280
     0
  1
15
  0
DICTIONARYVAR
  5
57D
102
{ACAD_REACTORS
330
357
102
}
330
357
100
DictionaryVariables
280
     0
  1
0
  0
DICTIONARYVAR
  5
57B
102
{ACAD_REACTORS
330
357
102
}
330
357
100
DictionaryVariables
280
     0
  1
0
  0
DICTIONARYVAR
  5
16FD
102
{ACAD_REACTORS
330
357
102
}
330
357
100
DictionaryVariables
280
     0
  1
1
  0
DICTIONARYVAR
  5
ACB
102
{ACAD_REACTORS
330
357
102
}
330
357
100
DictionaryVariables
280
     0
  1
127
  0
DICTIONARYVAR
  5
19D2
102
{ACAD_REACTORS
330
357
102
}
330
357
100
DictionaryVariables
280
     0
  1
2
  0
ACAD_PROXY_OBJECT
  5
4D2
102
{ACAD_REACTORS
330
4D1
102
}
330
4D1
100
AcDbProxyObject
 90
      499
 91
      551
 95
 10158113
 70
     0
 93
       85
310
90100057356C1DCF406AA4
 94
        0
1001
ACAD
1000
AcRTDxfName
1000
ACMDATADICTIONARY
1000
AcRTDxfName
1000
ACMDATADICTIONARY
1000
AcRTDxfName
1000
ACMDATADICTIONARY
1000
AcRTDxfName
1000
ACMDATADICTIONARY
  0
DICTIONARY
  5
4DC
102
{ACAD_REACTORS
330
4D1
102
}
330
4D1
100
AcDbDictionary
281
     1
  3
DIN
350
4DD
  0
XRECORD
  5
4F3
102
{ACAD_REACTORS
330
4D1
102
}
330
4D1
100
AcDbXrecord
280
     1
 90
-1023410169
  0
ACAD_PROXY_OBJECT
  5
482
330
0
100
AcDbProxyObject
 90
      499
 91
      514
 95
 10158113
 70
     0
 93
      285
310
0001014210E410043004D004500530059004D0042004F004C00530049005A004500EA00C
330
47F
 94
        0
1001
ACAD
1000
AcRTDxfName
1000
ACIMINTSYSVAR
1000
AcRTDxfName
1000
ACIMINTSYSVAR
1000
AcRTDxfName
1000
ACIMINTSYSVAR
1000
AcRTDxfName
1000
ACIMINTSYSVAR
  0
ACAD_PROXY_OBJECT
  5
48A
330
0
100
AcDbProxyObject
 90
      499
 91
      522
 95
 10158113
 70
     0
 93
      671
310
0001010101014050100009641510018401D001D401B40109310032002E0030002E00350038002E00300041190018401D001940109320034002E0030002E00350031002E003000415040138011C0130011400C80A
330
47F
330
48B
330
48F
 94
        0
1001
ACAD
1000
AcRTDxfName
1000
AM_DRAWING_MGR
1000
AcRTDxfName
1000
AM_DRAWING_MGR
1000
AcRTDxfName
1000
AM_DRAWING_MGR
1000
AcRTDxfName
1000
AM_DRAWING_MGR
  0
ACAD_PROXY_OBJECT
  5
48B
330
0
100
AcDbProxyObject
 90
      499
 91
      523
 95
 10158113
 70
     0
 93
       49
310
000190140A004C
330
47F
330
48C
 94
        0
1001
ACAD
1000
AcRTDxfName
1000
AM_DWG_DOCUMENT
1000
AcRTDxfName
1000
AM_DWG_DOCUMENT
1000
AcRTDxfName
1000
AM_DWG_DOCUMENT
1000
AcRTDxfName
1000
AM_DWG_DOCUMENT
  0
ACAD_PROXY_OBJECT
  5
48C
330
0
100
AcDbProxyObject
 90
      499
 91
      524
 95
 10158113
 70
     0
 93
       49
310
0001AA0000004C
330
47F
330
B57
330
48D
330
0
 94
        0
1001
ACAD
1000
AcRTDxfName
1000
AM_DWG_SHEET
1000
AcRTDxfName
1000
AM_DWG_SHEET
1000
AcRTDxfName
1000
AM_DWG_SHEET
1000
AcRTDxfName
1000
AM_DWG_SHEET
  0
ACAD_PROXY_OBJECT
  5
48D
330
0
100
AcDbProxyObject
 90
      499
 91
      525
 95
 10158113
 70
     0
 93
       29
310
0001AAA4
330
47F
 94
        0
1001
ACAD
1000
AcRTDxfName
1000
AM_VIEWDIMPARMAP
1000
AcRTDxfName
1000
AM_VIEWDIMPARMAP
1000
AcRTDxfName
1000
AM_VIEWDIMPARMAP
1000
AcRTDxfName
1000
AM_VIEWDIMPARMAP
  0
ACAD_PROXY_OBJECT
  5
490
330
0
100
AcDbProxyObject
 90
      499
 91
      514
 95
 10158113
 70
     0
 93
      189
310
0001014050841004D0048004C00430041004C0043008A00C
330
47F
 94
        0
1001
ACAD
1000
AcRTDxfName
1000
ACIMINTSYSVAR
1000
AcRTDxfName
1000
ACIMINTSYSVAR
1000
AcRTDxfName
1000
ACIMINTSYSVAR
1000
AcRTDxfName
1000
ACIMINTSYSVAR
  0
ACAD_PROXY_OBJECT
  5
491
330
0
100
AcDbProxyObject
 90
      499
 91
      514
 95
 10158113
 70
     0
 93
      221
310
0001014050A41004D0052004500550053004500440049004D00AA00C
330
47F
 94
        0
1001
ACAD
1000
AcRTDxfName
1000
ACIMINTSYSVAR
1000
AcRTDxfName
1000
ACIMINTSYSVAR
1000
AcRTDxfName
1000
ACIMINTSYSVAR
1000
AcRTDxfName
1000
ACIMINTSYSVAR
  0
ACAD_PROXY_OBJECT
  5
492
330
0
100
AcDbProxyObject
 90
      499
 91
      514
 95
 10158113
 70
     0
 93
      245
310
00010190C41004D00530045004300540049004F004E00440049004D00CA00C
330
47F
 94
        0
1001
ACAD
1000
AcRTDxfName
1000
ACIMINTSYSVAR
1000
AcRTDxfName
1000
ACIMINTSYSVAR
1000
AcRTDxfName
1000
ACIMINTSYSVAR
1000
AcRTDxfName
1000
ACIMINTSYSVAR
  0
ACAD_PROXY_OBJECT
  5
493
330
0
100
AcDbProxyObject
 90
      499
 91
      514
 95
 10158113
 70
     0
 93
      221
310
0001014050A41004D005600500042004F005200440045005200AA00C
330
47F
 94
        0
1001
ACAD
1000
AcRTDxfName
1000
ACIMINTSYSVAR
1000
AcRTDxfName
1000
ACIMINTSYSVAR
1000
AcRTDxfName
1000
ACIMINTSYSVAR
1000
AcRTDxfName
1000
ACIMINTSYSVAR
  0
ACAD_PROXY_OBJECT
  5
494
330
0
100
AcDbProxyObject
 90
      499
 91
      514
 95
 10158113
 70
     0
 93
      213
310
00010190A41004D0044005700470043004F004C004F005200AA00C
330
47F
 94
        0
1001
ACAD
1000
AcRTDxfName
1000
ACIMINTSYSVAR
1000
AcRTDxfName
1000
ACIMINTSYSVAR
1000
AcRTDxfName
1000
ACIMINTSYSVAR
1000
AcRTDxfName
1000
ACIMINTSYSVAR
  0
ACAD_PROXY_OBJECT
  5
495
330
0
100
AcDbProxyObject
 90
      499
 91
      514
 95
 10158113
 70
     0
 93
      269
310
0001014050D41004D0056004900450057005200450046005200450053004800DA00C
330
47F
 94
        0
1001
ACAD
1000
AcRTDxfName
1000
ACIMINTSYSVAR
1000
AcRTDxfName
1000
ACIMINTSYSVAR
1000
AcRTDxfName
1000
ACIMINTSYSVAR
1000
AcRTDxfName
1000
ACIMINTSYSVAR
  0
ACAD_PROXY_OBJECT
  5
496
330
0
100
AcDbProxyObject
 90
      499
 91
      514
 95
 10158113
 70
     0
 93
      317
310
0001014051041004D0041004E004E004F0054004500500052004500530045005200560045000A01C
330
47F
 94
        0
1001
ACAD
1000
AcRTDxfName
1000
ACIMINTSYSVAR
1000
AcRTDxfName
1000
ACIMINTSYSVAR
1000
AcRTDxfName
1000
ACIMINTSYSVAR
1000
AcRTDxfName
1000
ACIMINTSYSVAR
  0
ACAD_PROXY_OBJECT
  5
497
330
0
100
AcDbProxyObject
 90
      499
 91
      514
 95
 10158113
 70
     0
 93
      317
310
0001014051041004D004100550054004F00440049004D0041005200520041004E00470045000A01C
330
47F
 94
        0
1001
ACAD
1000
AcRTDxfName
1000
ACIMINTSYSVAR
1000
AcRTDxfName
1000
ACIMINTSYSVAR
1000
AcRTDxfName
1000
ACIMINTSYSVAR
1000
AcRTDxfName
1000
ACIMINTSYSVAR
  0
ACAD_PROXY_OBJECT
  5
498
330
0
100
AcDbProxyObject
 90
      499
 91
      514
 95
 10158113
 70
     0
 93
      229
310
00010190B41004D00450058005400520045004600440049004D00BA00C
330
47F
 94
        0
1001
ACAD
1000
AcRTDxfName
1000
ACIMINTSYSVAR
1000
AcRTDxfName
1000
ACIMINTSYSVAR
1000
AcRTDxfName
1000
ACIMINTSYSVAR
1000
AcRTDxfName
1000
ACIMINTSYSVAR
  0
ACAD_PROXY_OBJECT
  5
499
330
0
100
AcDbProxyObject
 90
      499
 91
      514
 95
 10158113
 70
     0
 93
      237
310
0001014050B41004D0054004100500041004E004E004F0054004500BA00C
330
47F
 94
        0
1001
ACAD
1000
AcRTDxfName
1000
ACIMINTSYSVAR
1000
AcRTDxfName
1000
ACIMINTSYSVAR
1000
AcRTDxfName
1000
ACIMINTSYSVAR
1000
AcRTDxfName
1000
ACIMINTSYSVAR
  0
ACAD_PROXY_OBJECT
  5
49A
330
0
100
AcDbProxyObject
 90
      499
 91
      514
 95
 10158113
 70
     0
 93
      189
310
0001014050841004D004100550054004F0043004C008A00C
330
47F
 94
        0
1001
ACAD
1000
AcRTDxfName
1000
ACIMINTSYSVAR
1000
AcRTDxfName
1000
ACIMINTSYSVAR
1000
AcRTDxfName
1000
ACIMINTSYSVAR
1000
AcRTDxfName
1000
ACIMINTSYSVAR
  0
ACAD_PROXY_OBJECT
  5
49B
330
0
100
AcDbProxyObject
 90
      499
 91
      514
 95
 10158113
 70
     0
 93
      189
310
0001014150841004D0043004C0046004500410054008A00C
330
47F
 94
        0
1001
ACAD
1000
AcRTDxfName
1000
ACIMINTSYSVAR
1000
AcRTDxfName
1000
ACIMINTSYSVAR
1000
AcRTDxfName
1000
ACIMINTSYSVAR
1000
AcRTDxfName
1000
ACIMINTSYSVAR
  0
ACAD_PROXY_OBJECT
  5
49C
330
0
100
AcDbProxyObject
 90
      499
 91
      514
 95
 10158113
 70
     0
 93
      189
310
0001014FD0841004D0043004C0056004900450057008A00C
330
47F
 94
        0
1001
ACAD
1000
AcRTDxfName
1000
ACIMINTSYSVAR
1000
AcRTDxfName
1000
ACIMINTSYSVAR
1000
AcRTDxfName
1000
ACIMINTSYSVAR
1000
AcRTDxfName
1000
ACIMINTSYSVAR
  0
ACAD_PROXY_OBJECT
  5
49D
330
0
100
AcDbProxyObject
 90
      499
 91
      514
 95
 10158113
 70
     0
 93
      269
310
0001014050D41004D0048004900440045005A00450052004F00440049004D00DA00C
330
47F
 94
        0
1001
ACAD
1000
AcRTDxfName
1000
ACIMINTSYSVAR
1000
AcRTDxfName
1000
ACIMINTSYSVAR
1000
AcRTDxfName
1000
ACIMINTSYSVAR
1000
AcRTDxfName
1000
ACIMINTSYSVAR
  0
ACAD_PROXY_OBJECT
  5
49E
330
0
100
AcDbProxyObject
 90
      499
 91
      514
 95
 10158113
 70
     0
 93
      221
310
0001014050A41004D0048004100540043004800490053004F00AA00C
330
47F
 94
        0
1001
ACAD
1000
AcRTDxfName
1000
ACIMINTSYSVAR
1000
AcRTDxfName
1000
ACIMINTSYSVAR
1000
AcRTDxfName
1000
ACIMINTSYSVAR
1000
AcRTDxfName
1000
ACIMINTSYSVAR
  0
ACAD_PROXY_OBJECT
  5
49F
330
0
100
AcDbProxyObject
 90
      499
 91
      514
 95
 10158113
 70
     0
 93
      277
310
00010190E41004D00530049004E0047004C0045004800410054004C0041005900EA00C
330
47F
 94
        0
1001
ACAD
1000
AcRTDxfName
1000
ACIMINTSYSVAR
1000
AcRTDxfName
1000
ACIMINTSYSVAR
1000
AcRTDxfName
1000
ACIMINTSYSVAR
1000
AcRTDxfName
1000
ACIMINTSYSVAR
  0
ACAD_PROXY_OBJECT
  5
4A0
330
0
100
AcDbProxyObject
 90
      499
 91
      514
 95
 10158113
 70
     0
 93
      229
310
00010190B41004D0044005700470046004C004400490053005000BA00C
330
47F
 94
        0
1001
ACAD
1000
AcRTDxfName
1000
ACIMINTSYSVAR
1000
AcRTDxfName
1000
ACIMINTSYSVAR
1000
AcRTDxfName
1000
ACIMINTSYSVAR
1000
AcRTDxfName
1000
ACIMINTSYSVAR
  0
ACAD_PROXY_OBJECT
  5
4A1
330
0
100
AcDbProxyObject
 90
      499
 91
      514
 95
 10158113
 70
     0
 93
      181
310
00010190841004D004100550054004F0048004E008A00C
330
47F
 94
        0
1001
ACAD
1000
AcRTDxfName
1000
ACIMINTSYSVAR
1000
AcRTDxfName
1000
ACIMINTSYSVAR
1000
AcRTDxfName
1000
ACIMINTSYSVAR
1000
AcRTDxfName
1000
ACIMINTSYSVAR
  0
ACAD_PROXY_OBJECT
  5
4A2
330
0
100
AcDbProxyObject
 90
      499
 91
      514
 95
 10158113
 70
     0
 93
      205
310
0001014050941004D0048004E0043004F0055004E0054009A00C
330
47F
 94
        0
1001
ACAD
1000
AcRTDxfName
1000
ACIMINTSYSVAR
1000
AcRTDxfName
1000
ACIMINTSYSVAR
1000
AcRTDxfName
1000
ACIMINTSYSVAR
1000
AcRTDxfName
1000
ACIMINTSYSVAR
  0
ACAD_PROXY_OBJECT
  5
4A3
330
0
100
AcDbProxyObject
 90
      499
 91
      514
 95
 10158113
 70
     0
 93
      189
310
0001014050841004D0048004E00500052004F004A008A00C
330
47F
 94
        0
1001
ACAD
1000
AcRTDxfName
1000
ACIMINTSYSVAR
1000
AcRTDxfName
1000
ACIMINTSYSVAR
1000
AcRTDxfName
1000
ACIMINTSYSVAR
1000
AcRTDxfName
1000
ACIMINTSYSVAR
  0
ACAD_PROXY_OBJECT
  5
4A4
330
0
100
AcDbProxyObject
 90
      499
 91
      514
 95
 10158113
 70
     0
 93
      189
310
00010141D0841004D0048004E0054005900500045008A00C
330
47F
 94
        0
1001
ACAD
1000
AcRTDxfName
1000
ACIMINTSYSVAR
1000
AcRTDxfName
1000
ACIMINTSYSVAR
1000
AcRTDxfName
1000
ACIMINTSYSVAR
1000
AcRTDxfName
1000
ACIMINTSYSVAR
  0
ACAD_PROXY_OBJECT
  5
4A5
330
0
100
AcDbProxyObject
 90
      499
 91
      514
 95
 10158113
 70
     0
 93
      189
310
00010143D0841004D0048004E0056004900450057008A00C
330
47F
 94
        0
1001
ACAD
1000
AcRTDxfName
1000
ACIMINTSYSVAR
1000
AcRTDxfName
1000
ACIMINTSYSVAR
1000
AcRTDxfName
1000
ACIMINTSYSVAR
1000
AcRTDxfName
1000
ACIMINTSYSVAR
  0
ACAD_PROXY_OBJECT
  5
4A6
330
0
100
AcDbProxyObject
 90
      499
 91
      514
 95
 10158113
 70
     0
 93
      261
310
00010190D41004D00530045004300540049004F004E0043004F0050005900DA00C
330
47F
 94
        0
1001
ACAD
1000
AcRTDxfName
1000
ACIMINTSYSVAR
1000
AcRTDxfName
1000
ACIMINTSYSVAR
1000
AcRTDxfName
1000
ACIMINTSYSVAR
1000
AcRTDxfName
1000
ACIMINTSYSVAR
  0
ACAD_PROXY_OBJECT
  5
4A7
330
0
100
AcDbProxyObject
 90
      499
 91
      514
 95
 10158113
 70
     0
 93
      189
310
00010140D0841004D0043004C00500052004F004A008A00C
330
47F
 94
        0
1001
ACAD
1000
AcRTDxfName
1000
ACIMINTSYSVAR
1000
AcRTDxfName
1000
ACIMINTSYSVAR
1000
AcRTDxfName
1000
ACIMINTSYSVAR
1000
AcRTDxfName
1000
ACIMINTSYSVAR
  0
ACAD_PROXY_OBJECT
  5
4A8
330
0
100
AcDbProxyObject
 90
      499
 91
      526
 95
 10158113
 70
     0
 93
      341
310
0001010000000000000B9010E41004D004100550054004F004800410054004300480052004F005400EA00C
330
47F
 94
        0
1001
ACAD
1000
AcRTDxfName
1000
ACIMREALSYSVAR
1000
AcRTDxfName
1000
ACIMREALSYSVAR
1000
AcRTDxfName
1000
ACIMREALSYSVAR
1000
AcRTDxfName
1000
ACIMREALSYSVAR
  0
ACAD_PROXY_OBJECT
  5
4A9
330
0
100
AcDbProxyObject
 90
      499
 91
      514
 95
 10158113
 70
     0
 93
      285
310
0001014050E41004D004100550054004F0048004100540043004800440045005400EA00C
330
47F
 94
        0
1001
ACAD
1000
AcRTDxfName
1000
ACIMINTSYSVAR
1000
AcRTDxfName
1000
ACIMINTSYSVAR
1000
AcRTDxfName
1000
ACIMINTSYSVAR
1000
AcRTDxfName
1000
ACIMINTSYSVAR
  0
ACAD_PROXY_OBJECT
  5
4B6
330
0
100
AcDbProxyObject
 90
      499
 91
      535
 95
 10158113
 70
     0
 93
      245
310
00010101421040134010C01540148014C015001100103440049004E00C400C
330
47F
 94
        0
1001
ACAD
1000
AcRTDxfName
1000
ACIMSTRSYSVAR
1000
AcRTDxfName
1000
ACIMSTRSYSVAR
1000
AcRTDxfName
1000
ACIMSTRSYSVAR
1000
AcRTDxfName
1000
ACIMSTRSYSVAR
  0
ACAD_PROXY_OBJECT
  5
4C1
330
0
100
AcDbProxyObject
 90
      499
 91
      535
 95
 10158113
 70
     0
 93
      325
310
00010101431040104010C013C0134014001100118013801040134011401044B004F004D0050001401C
330
47F
 94
        0
1001
ACAD
1000
AcRTDxfName
1000
ACIMSTRSYSVAR
1000
AcRTDxfName
1000
ACIMSTRSYSVAR
1000
AcRTDxfName
1000
ACIMSTRSYSVAR
1000
AcRTDxfName
1000
ACIMSTRSYSVAR
  0
ACAD_PROXY_OBJECT
  5
4C2
330
0
100
AcDbProxyObject
 90
      499
 91
      535
 95
 10158113
 70
     0
 93
      389
310
000101014390401040118013C013001100114014801100118013801040134011401064F00720064006E00650072005401C
330
47F
 94
        0
1001
ACAD
1000
AcRTDxfName
1000
ACIMSTRSYSVAR
1000
AcRTDxfName
1000
ACIMSTRSYSVAR
1000
AcRTDxfName
1000
ACIMSTRSYSVAR
1000
AcRTDxfName
1000
ACIMSTRSYSVAR
  0
ACAD_PROXY_OBJECT
  5
4C3
330
0
100
AcDbProxyObject
 90
      499
 91
      535
 95
 10158113
 70
     0
 93
      309
310
00010101431040104010401380138013C01100118013801040134011401035F00410056000401C
330
47F
 94
        0
1001
ACAD
1000
AcRTDxfName
1000
ACIMSTRSYSVAR
1000
AcRTDxfName
1000
ACIMSTRSYSVAR
1000
AcRTDxfName
1000
ACIMSTRSYSVAR
1000
AcRTDxfName
1000
ACIMSTRSYSVAR
  0
ACAD_PROXY_OBJECT
  5
4C4
330
0
100
AcDbProxyObject
 90
      499
 91
      535
 95
 10158113
 70
     0
 93
      821
310
00010101439040104010C013C01340140015801240114015C01300124014C015001214F00620065006E000A0056006F0072006E000A005200650063006800740073000A004C0069006E006B0073000A0055006E00740065006E000A0041007500780031000403C
330
47F
 94
        0
1001
ACAD
1000
AcRTDxfName
1000
ACIMSTRSYSVAR
1000
AcRTDxfName
1000
ACIMSTRSYSVAR
1000
AcRTDxfName
1000
ACIMSTRSYSVAR
1000
AcRTDxfName
1000
ACIMSTRSYSVAR
  0
ACAD_PROXY_OBJECT
  5
4C5
330
0
100
AcDbProxyObject
 90
      499
 91
      514
 95
 10158113
 70
     0
 93
      277
310
00010190E41004D00530053005400520041004C0057004100590053004F004E00EA00C
330
47F
 94
        0
1001
ACAD
1000
AcRTDxfName
1000
ACIMINTSYSVAR
1000
AcRTDxfName
1000
ACIMINTSYSVAR
1000
AcRTDxfName
1000
ACIMINTSYSVAR
1000
AcRTDxfName
1000
ACIMINTSYSVAR
  0
ACAD_PROXY_OBJECT
  5
4CA
330
0
100
AcDbProxyObject
 90
      499
 91
      545
 95
 10158113
 70
     0
 93
       33
310
000100004C
330
47F
340
4C7
330
4CC
330
4C7
 94
        0
1001
ACAD
1000
AcRTDxfName
1000
ACAMGRCOMPDEF
1000
AcRTDxfName
1000
ACAMGRCOMPDEF
1000
AcRTDxfName
1000
ACAMGRCOMPDEF
1000
AcRTDxfName
1000
ACAMGRCOMPDEF
  0
ACAD_PROXY_OBJECT
  5
4CB
330
0
100
AcDbProxyObject
 90
      499
 91
      546
 95
 10158113
 70
     0
 93
       19
310
00018C
330
47F
 94
        0
1001
ACAD
1000
AcRTDxfName
1000
ACCMCONTEXT
1000
AcRTDxfName
1000
ACCMCONTEXT
1000
AcRTDxfName
1000
ACCMCONTEXT
1000
AcRTDxfName
1000
ACCMCONTEXT
  0
ACAD_PROXY_OBJECT
  5
4CC
330
0
100
AcDbProxyObject
 90
      499
 91
      547
 95
 10158113
 70
     0
 93
      235
310
000101414015500554004211001480104015C01240138011C00C4022802C
330
47F
330
4CA
330
4CB
 94
        0
1001
ACAD
1000
AcRTDxfName
1000
ACAMCOMPDEF
1000
AcRTDxfName
1000
ACAMCOMPDEF
1000
AcRTDxfName
1000
ACAMCOMPDEF
1000
AcRTDxfName
1000
ACAMCOMPDEF
  0
ACAD_PROXY_OBJECT
  5
4CD
330
0
100
AcDbProxyObject
 90
      499
 91
      548
 95
 10158113
 70
     0
 93
      179
310
000100AAAAAAAB8D81F52D62AC926CCB1BE3F57BA35E8C
330
47F
330
4CC
 94
        0
1001
ACAD
1000
AcRTDxfName
1000
ACAMCOMPDEFMGR
1000
AcRTDxfName
1000
ACAMCOMPDEFMGR
1000
AcRTDxfName
1000
ACAMCOMPDEFMGR
1000
AcRTDxfName
1000
ACAMCOMPDEFMGR
  0
ACAD_PROXY_OBJECT
  5
4CE
330
0
100
AcDbProxyObject
 90
      499
 91
      549
 95
 10158113
 70
     0
 93
      109
310
000190140A000000000000AAAAA4
330
47F
330
4CF
330
4CF
330
4CF
330
4CF
330
4CF
330
0
 94
        0
1001
ACAD
1000
AcRTDxfName
1000
AMCONTEXTMGR
1000
AcRTDxfName
1000
AMCONTEXTMGR
1000
AcRTDxfName
1000
AMCONTEXTMGR
1000
AcRTDxfName
1000
AMCONTEXTMGR
  0
ACAD_PROXY_OBJECT
  5
4CF
330
0
100
AcDbProxyObject
 90
      499
 91
      550
 95
 10158113
 70
     0
 93
       52
310
00010000AAAA8C
330
47F
330
4CE
330
4CC
 94
        0
1001
ACAD
1000
AcRTDxfName
1000
ACAMCONTEXTMODELER
1000
AcRTDxfName
1000
ACAMCONTEXTMODELER
1000
AcRTDxfName
1000
ACAMCONTEXTMODELER
1000
AcRTDxfName
1000
ACAMCONTEXTMODELER
  0
ACAD_PROXY_OBJECT
  5
102D
330
0
100
AcDbProxyObject
 90
      499
 91
      595
 95
 10158113
 70
     0
 93
       19
310
00018C
330
47F
340
102E
 94
        0
1001
ACAD
1000
AcRTDxfName
1000
AC_AM_2D_XREF_MGR
1000
AcRTDxfName
1000
AC_AM_2D_XREF_MGR
1000
AcRTDxfName
1000
AC_AM_2D_XREF_MGR
  0
ACAD_PROXY_OBJECT
  5
1036
330
0
100
AcDbProxyObject
 90
      499
 91
      514
 95
 10158113
 70
     0
 93
      277
310
00010190E50006C006F0074005300630061006C0065004C006F00630061006C00EA00C
330
47F
 94
        0
1001
ACAD
1000
AcRTDxfName
1000
ACIMINTSYSVAR
1000
AcRTDxfName
1000
ACIMINTSYSVAR
1000
AcRTDxfName
1000
ACIMINTSYSVAR
  0
DICTIONARY
  5
479
102
{ACAD_REACTORS
330
478
102
}
330
478
100
AcDbDictionary
281
     1
  3
DWGSETTINGS
350
47A
  3
Shaft
350
56E
  3
TRANSSETTINGS
350
47B
  0
ACAD_PROXY_OBJECT
  5
4DE
102
{ACAD_REACTORS
330
478
102
}
330
478
100
AcDbProxyObject
 90
      499
 91
      558
 95
 10158113
 70
     0
 93
    26015
310
425044A601C00030C0132A03800030C013244201400030C013244201800030C0119A00C00030C0119A00C00030C0119A00800030C0123A01000030C0119A00400030C0119A3F400030C0241201C00030C0132A00C00030C0119A01C00030C013240A01C00030C0132A03800030C0132A01400030C0132A01800030C0119A00
310
C00030C0119A00C00030C0119A00800030C0123A01000030C0119A00400030C0119A3F400030C0241201C00030C0132A00C00030C0119A01C00030C013240A00400030C011942601000030C011942E01C00030C013242600400030C011942E3F400030C0243600C00030C011942601C00030C011942601C00030C013242600
310
C00030C011942601000030C011942602400030C00FDFFFFFF40601400030C0119A01400030C0119A01400030C0123A3FFFC03080132409548000000C0003FFFFFFFE8000000C0003FFFFFFFE8010000C3004668020000C30048E8000000C0003FFFFFFFE8000000C0003FFFFFFFE8020000C30048E8070000C3004CA81E000
310
0C30051A8000000C0003FFFFFFFE8000000C0003FFFFFFFE8000000C0003FFFFFFFE8000000C0003FFFFFFFD038000000C0003FFFFFFFD038000000C0003FFFFFFFD038000000C0003FFFFFFFD038000000C0003FFFFFFFE8000000C0003FFFFFFFE8000000C0003FFFFFFFE8000000C0003FFFFFFFE8000000C0003FFFFFF
310
FE8000000C0003FFFFFFFE8030000C3003FFFFFFFE8000000C0003FFFFFFFE8030000C3004668000000C0003FFFFFFFE8030000C3004668000000C0003FFFFFFFD018000000C0003FFFFFFFD038000000C0003FFFFFFFD038000000C0003FFFFFFFD018000000C0003FFFFFFFE8000000C0003FFFFFFFE8000000C0003FFFF
310
FFFE8030000C3003FFFFFFFE8000000C0003FFFFFFFE8000000C0003FFFFFFFD038000000C0003FFFFFFFD038000000C0003FFFFFFFD038000000C0003FFFFFFFD038000000C0003FFFFFFFE8000000C0003FFFFFFFE8000000C0003FFFFFFFE8000000C0003FFFFFFFD018000000C0003FFFFFFFD038000000C0003FFFFFF
310
FD038000000C0003FFFFFFFE8000000C0003FFFFFFFE8000000C0003FFFFFFFE8000000C0003FFFFFFFD038000000C0003FFFFFFFD018000000C0003FFFFFFFD038000000C0003FFFFFFFE8000000C0003FFFFFFFE8010000C3003FFFFFFFE8020000C3003FFFFFFFE8070000C3003FFFFFFFE8000000C0003FFFFFFFE8030
310
000C3003FFFFFFFE8000000C0003FFFFFFFE8000000C0003FFFFFFFE8000000C0003FFFFFFFD018000000C0003FFFFFFFD018020000C30048E8020000C3003FFFFFFFE8000000C0003FFFFFFFD038000000C0003FFFFFFFD018010000C3004668020000C30048E8000000C0003FFFFFFFE8000000C0003FFFFFFFD03800000
310
0C0003FFFFFFFE8000000C0003FFFFFFFD018030000C3004668030000C3004668020000C3003FFFFFFFE8070000C3004CA81E0000C30051A8000000C0003FFFFFFFE8000000C0003FFFFFFFD028000000C0003FFFFFFFD028070000C3003FFFFFFFE8000000C0003FFFFFFFD018010000C3003FFFFFFFEAAA3F400030C010A
310
4393241532409234794641D3241119405197F64191940D1980200404C0010441004D005F0030009013100411040134017C00C402404C8010441004D005F0032009013300411040134017C00CC02404D0010441004D005F0034009013500411040134017C00D402404D8010441004D005F0036009013700411040134017C00D
310
C02404E0010441004D005F0038009013900411040134017C00E402408C80104010541004D005F003100300090234004100415040134017C00C400C402409240140010541004D005F003100320090230004E00415040134017C00C0013802408C40138010541004D005F0031004E0090232004E00415040134017C00C801380
310
2408CC0138010541004D005F0033004E0090234004E00415040134017C00D0013802408D40138010541004D005F0035004E0090236004E00415040134017C00D8013802408DC0138010541004D005F0037004E0090238004E00415040134017C00E0013802408E40138010541004D005F0039004E00903320041004E004190
310
40134017C00C400C001380240CD001040138010641004D005F00310031004E00903490050004E00419040134017C00C400C80138024112C013001240138010541004D005F0043004C0090449004E0046004F00421040134017C01400104014801140118024154801040120013400D4010641004D005F0042004F0052009045
310
600490045005700421040134017C015801240114015C014C024190801140120012401380110010641004D005F0049004E00560090554005200410049004C00415040134017C015001480240D2001240110010641004D005F00480049004400903560049005300419040134017C01580124014C024194001040148011001240
310
134010941004D005F00500041005200440049004D00906520045004600440049004D00425040134017C01480114011801100124013402424F40124013801180150013C015001040130010849004E00460054004F00540041004C009033D0036003300408D800CC02410F4014C012C00DC010353004B0037009033D00360031
310
00408D800C402408F400C401013100904420048004E005600404E40105420048004E00560053004190801140120012401380110010442004F00520032004154801040120013400D4010442004F00520033004154801040120013400D4010442004F00520035004154801040120013400D40104430041004C003200404D0010
310
4430041004C003300404D00104430041004C003500404D00104430041004C003700404D00104430045004E004E00404DC0104430045004E005700404DC010443004C0049004E004112C013001240138010443004F004E003100404C0010443004F004E003200404C4010443004F004E003300404C8010443004F004E003400
310
404C801044400450054004100404D001044400490041004700404D40104440049004C004900404D40104440049004D00500041940010401480110012401340104440049004D00520041948011401180110012401340104460045004D004E00404E00105460045004D0050004E00404E00105460045004D0053005000408D00
310
1040105460045004D0053005400408D001040105460045004D0056004E00404C80105460045004D0056005400404C801044800410054004300404E001044800490044004E00404CC01044800490044005700404CC010448004C0049004E00404D0010448004F0043004E00404DC010448004F0043005700404DC010449004E
310
0046004F004112401380118013C01044C00450041004400404D401064E005F00420048004E005600408E4013801064E005F0043004F004E003100408C0013801064E005F0043004F004E003200408C4013801064E005F0043004F004E003300408C8013801064E005F0043004F004E003400408C8013801064E005F0043004
310
5004E004E00408DC013801064E005F00430045004E005700408DC013801064E005F00440049004C004900408D4013801064E005F004800410054004300408E0013801064E005F004800490044004E00408CC013801064E005F004800490044005700408CC013801064E005F004C00450041004400408D4013801064E005F00
310
4E0047004900500040D240140013801064E005F005000480041004E0040CD00104013801064E005F00540043004F004E00408C0013801064E005F00540048004C004900408D0013801064E005F0054004C0045004E00408C0013801064E005F00560050004C00490040CC80104013801044E00470049005000409240140010
310
4500041004C0032004154801040120013400D40104500041004C0033004154801040120013400D40104500041004C0035004154801040120013400D401045000480041004E00408D00104010450004F0053004E00404D401045200430047004E00404DC01045200430047005700404DC01045300420052004B00404D001045
310
300450043005400404D001045300590042003300404D401044D00530059004D00404D40104540043004F004E00404C00104540048004C004900404D0010454004900540032004154801040120013400D4010454004900540033004154801040120013400D4010454004900540035004154801040120013400D4010454004C0
310
045004E00404C0010554005200410049004C004155001480104012401300104540052004C004900404D001045400580054003100404D801045400580054003200404D801045400580054003300404D801045400580054003500404D801045400580054003700404D8010456004900450057004115801240114015C01045600
310
45004400480040D20012401100104560045004400560040D580124014C0104560050004C004900408C8010401045A0049005A004100404D00104530050004C004900408C8010401013F0080906
340
14
340
14
340
14
340
14
340
14
340
14
340
14
340
14
340
14
340
14
340
14
340
14
340
14
340
14
340
14
340
14
340
14
340
14
340
14
340
14
340
14
340
14
340
14
340
14
340
14
340
14
340
14
340
14
340
14
340
14
340
14
340
14
340
14
340
14
340
14
340
14
340
14
340
14
340
14
340
14
340
14
340
13
340
13
340
13
340
13
340
13
340
13
340
13
340
13
340
13
340
13
340
13
340
13
340
13
340
13
340
13
340
13
340
13
340
13
340
13
340
13
340
13
340
13
340
13
340
14
340
13
340
13
340
13
340
13
340
13
340
13
340
13
340
13
340
13
340
13
340
14
340
13
340
13
340
13
340
13
340
13
340
13
340
13
340
13
340
13
340
13
340
13
340
13
340
13
340
13
340
13
340
13
340
13
340
13
340
13
340
13
340
13
340
13
340
13
340
13
340
13
340
13
340
13
340
13
340
13
340
14
340
13
340
13
340
13
340
13
340
13
340
13
340
13
340
13
340
13
340
13
340
13
340
13
340
13
340
13
340
13
340
13
340
14
340
13
340
13
 94
        0
1001
ACAD
1000
AcRTDxfName
1000
AMGOBJPROPCFG
1000
AcRTDxfName
1000
AMGOBJPROPCFG
1000
AcRTDxfName
1000
AMGOBJPROPCFG
1000
AcRTDxfName
1000
AMGOBJPROPCFG
  0
ACAD_PROXY_OBJECT
  5
523
102
{ACAD_REACTORS
330
51E
102
}
330
51E
100
AcDbProxyObject
 90
      499
 91
      578
 95
 10158113
 70
     0
 93
      462
310
43E8A22002480268022802700298024802780270016002080268022002A002F8015002F80220024802680202540080950020254008095005900C
 94
        0
1001
ACAD
1000
AcRTDxfName
1000
ACAMGFILTERDAT
1000
AcRTDxfName
1000
ACAMGFILTERDAT
1000
AcRTDxfName
1000
ACAMGFILTERDAT
1000
AcRTDxfName
1000
ACAMGFILTERDAT
  0
ACAD_PROXY_OBJECT
  5
522
102
{ACAD_REACTORS
330
51E
102
}
330
51E
100
AcDbProxyObject
 90
      499
 91
      578
 95
 10158113
 70
     0
 93
      318
310
43E80950021682009A00BE008C008A0082005A0082009A00BE00540080950020254008095001100C
 94
        0
1001
ACAD
1000
AcRTDxfName
1000
ACAMGFILTERDAT
1000
AcRTDxfName
1000
ACAMGFILTERDAT
1000
AcRTDxfName
1000
ACAMGFILTERDAT
1000
AcRTDxfName
1000
ACAMGFILTERDAT
  0
ACAD_PROXY_OBJECT
  5
51F
102
{ACAD_REACTORS
330
51E
102
}
330
51E
100
AcDbProxyObject
 90
      499
 91
      578
 95
 10158113
 70
     0
 93
      222
310
43E82A40020802A00218024002025400809500202540080950061004
 94
        0
1001
ACAD
1000
AcRTDxfName
1000
ACAMGFILTERDAT
1000
AcRTDxfName
1000
ACAMGFILTERDAT
1000
AcRTDxfName
1000
ACAMGFILTERDAT
1000
AcRTDxfName
1000
ACAMGFILTERDAT
  0
ACAD_PROXY_OBJECT
  5
520
102
{ACAD_REACTORS
330
51E
102
}
330
51E
100
AcDbProxyObject
 90
      499
 91
      578
 95
 10158113
 70
     0
 93
     1054
310
43E82260024802700228024E7000580070009C00580054005A007000580054005A0070009C00580082009A00BE007000580082009A00BE0070009C00580054005A0082009A00BE007000580054005A0082009A00BE0070009C00809500202540088248027002980228029002A00160029802A0022002800208029002A00190
310
0220001024
 94
        0
1001
ACAD
1000
AcRTDxfName
1000
ACAMGFILTERDAT
1000
AcRTDxfName
1000
ACAMGFILTERDAT
1000
AcRTDxfName
1000
ACAMGFILTERDAT
1000
AcRTDxfName
1000
ACAMGFILTERDAT
  0
ACAD_PROXY_OBJECT
  5
524
102
{ACAD_REACTORS
330
51E
102
}
330
51E
100
AcDbProxyObject
 90
      499
 91
      578
 95
 10158113
 70
     0
 93
      318
310
43C81A0802900218020882009A00BE006A00809500202640083248027002980228029002A001100C
 94
        0
1001
ACAD
1000
AcRTDxfName
1000
ACAMGFILTERDAT
1000
AcRTDxfName
1000
ACAMGFILTERDAT
1000
AcRTDxfName
1000
ACAMGFILTERDAT
1000
AcRTDxfName
1000
ACAMGFILTERDAT
  0
ACAD_PROXY_OBJECT
  5
521
102
{ACAD_REACTORS
330
51E
102
}
330
51E
100
AcDbProxyObject
 90
      499
 91
      578
 95
 10158113
 70
     0
 93
     2062
310
43EBC20802180268023002180230029002080268022801600208021802680220020802A002A8026802A0020802900238022802A001600208021802680220020802A002A8026802480220016002080218026802B8022802600220029802C802680160020802180268029802A802900230029802C80268016002080218026802
310
300228020802A002480220016002080218026802800208029002A002900228023001600208021802680210020802600260027802780270016002080268022002A00228022002380228029802C802680160020802680238029802180290022802B8021802080260021802A00208021002600228020254008095002025400809
310
5007903C
 94
        0
1001
ACAD
1000
AcRTDxfName
1000
ACAMGFILTERDAT
1000
AcRTDxfName
1000
ACAMGFILTERDAT
1000
AcRTDxfName
1000
ACAMGFILTERDAT
1000
AcRTDxfName
1000
ACAMGFILTERDAT
  0
XRECORD
  5
8E9
102
{ACAD_REACTORS
330
567
102
}
330
567
100
AcDbXrecord
280
     1
 91
     1023
301

290
     0
302
1
  8
200
 90
        8
 62
     2
370
    50
331
14
  1
Color_2
  8
160
 90
        8
 62
     1
370
    35
331
14
  1
Color_1
  8
150
 90
        8
 62
    96
370
    50
331
14
  1
Color_96
 92
-1040154880
  8
140
 90
        8
 62
     5
370
    35
331
14
  1
Color_5
  8
130
 90
        8
 62
     6
370
    35
331
14
  1
Color_6
  8
120
 90
        8
 62
     3
370
    50
331
14
  1
Color_3
  8
110
 90
        8
 62
     7
370
    25
331
14
  1
Color_7
  8
100
 90
        8
 62
     4
370
    50
331
14
  1
Color_4
  8
INFTEXT69
 90
        8
 62
     5
370
    -3
331
14
  1
Color_5
  8
INFTEXT68
 90
        8
 62
     5
370
    -3
331
14
  1
Color_5
  8
INFTEXT67
 90
        8
 62
     5
370
    -3
331
14
  1
Color_5
  8
INFTEXT66
 90
        8
 62
     5
370
    -3
331
14
  1
Color_5
  8
INFTEXT65
 90
        8
 62
     5
370
    -3
331
14
  1
Color_5
  8
INFTEXT64
 90
        8
 62
     5
370
    -3
331
14
  1
Color_5
  8
INFTEXT63
 90
        8
 62
     5
370
    -3
331
14
  1
Color_5
  8
INFTEXT62
 90
        8
 62
     5
370
    -3
331
14
  1
Color_5
  8
RECON69
 90
        8
 62
     5
370
    35
331
14
  1
Color_5
  8
RECON68
 90
        8
 62
     5
370
    35
331
14
  1
Color_5
  8
RECON67
 90
        8
 62
     5
370
    35
331
14
  1
Color_5
  8
RECON66
 90
        8
 62
     5
370
    35
331
14
  1
Color_5
  8
RECON65
 90
        8
 62
     5
370
    35
331
14
  1
Color_5
  8
RECON64
 90
        8
 62
     5
370
    35
331
14
  1
Color_5
  8
RECON63
 90
        8
 62
     5
370
    35
331
14
  1
Color_5
  8
RECON62
 90
        8
 62
     5
370
    35
331
14
  1
Color_5
  8
RECON61
 90
        8
 62
     5
370
    35
331
14
  1
Color_5
  8
SK69
 90
        8
 62
     5
370
    35
331
14
  1
Color_5
  8
SK68
 90
        8
 62
     5
370
    35
331
14
  1
Color_5
  8
SK67
 90
        8
 62
     5
370
    35
331
14
  1
Color_5
  8
SK66
 90
        8
 62
     5
370
    35
331
14
  1
Color_5
  8
SK65
 90
        8
 62
     5
370
    35
331
14
  1
Color_5
  8
SK64
 90
        8
 62
     5
370
    35
331
14
  1
Color_5
  8
SK63
 90
        8
 62
     5
370
    35
331
14
  1
Color_5
  8
SK62
 90
        8
 62
     5
370
    35
331
14
  1
Color_5
  8
SK61
 90
        8
 62
     5
370
    35
331
14
  1
Color_5
  8
SKVIEW69
 90
        8
 62
     5
370
    35
331
14
  1
Color_5
  8
SKVIEW68
 90
        8
 62
     5
370
    35
331
14
  1
Color_5
  8
SKVIEW67
 90
        8
 62
     5
370
    35
331
14
  1
Color_5
  8
SKVIEW66
 90
        8
 62
     5
370
    35
331
14
  1
Color_5
  8
SKVIEW65
 90
        8
 62
     5
370
    35
331
14
  1
Color_5
  8
SKVIEW64
 90
        8
 62
     5
370
    35
331
14
  1
Color_5
  8
SKVIEW63
 90
        8
 62
     5
370
    35
331
14
  1
Color_5
  8
SKVIEW62
 90
        8
 62
     5
370
    35
331
14
  1
Color_5
  8
SKVIEW61
 90
        8
 62
     5
370
    35
331
14
  1
Color_5
  8
69
 90
        8
 62
     5
370
    35
331
14
  1
Color_5
  8
68
 90
        8
 62
     5
370
    35
331
14
  1
Color_5
  8
67
 90
        8
 62
     5
370
    35
331
14
  1
Color_5
  8
66
 90
        8
 62
     5
370
    35
331
14
  1
Color_5
  8
65
 90
        8
 62
     5
370
    35
331
14
  1
Color_5
  8
64
 90
        8
 62
     5
370
    35
331
14
  1
Color_5
  8
63
 90
        8
 62
     5
370
    35
331
14
  1
Color_5
  8
62
 90
        8
 62
     5
370
    35
331
14
  1
Color_5
  8
61
 90
        8
 62
     5
370
    35
331
14
  1
Color_5
  8
59
 90
        8
 62
     5
370
    -3
331
14
  1
Color_5
  8
58
 90
        8
 62
     5
370
    -3
331
14
  1
Color_5
  8
57
 90
        8
 62
     5
370
    -3
331
14
  1
Color_5
  8
56
 90
        8
 62
     5
370
    -3
331
14
  1
Color_5
  8
55
 90
        8
 62
     5
370
    -3
331
14
  1
Color_5
  8
54
 90
        8
 62
     5
370
    -3
331
14
  1
Color_5
  8
53
 90
        8
 62
     5
370
    -3
331
14
  1
Color_5
  8
52
 90
        8
 62
     5
370
    -3
331
14
  1
Color_5
  8
51
 90
        8
 62
     5
370
    -3
331
14
  1
Color_5
  8
FRAME59
 90
        8
 62
     7
370
    -3
331
14
  1
Color_7
  8
FRAME58
 90
        8
 62
     7
370
    -3
331
14
  1
Color_7
  8
FRAME57
 90
        8
 62
     7
370
    -3
331
14
  1
Color_7
  8
FRAME56
 90
        8
 62
     7
370
    -3
331
14
  1
Color_7
  8
FRAME55
 90
        8
 62
     7
370
    -3
331
14
  1
Color_7
  8
FRAME54
 90
        8
 62
     7
370
    -3
331
14
  1
Color_7
  8
FRAME53
 90
        8
 62
     7
370
    -3
331
14
  1
Color_7
  8
FRAME52
 90
        8
 62
     7
370
    -3
331
14
  1
Color_7
  8
RECON7
 90
        8
 62
     5
370
    25
331
14
  1
Color_5
  8
RECON6
 90
        8
 62
     5
370
    35
331
14
  1
Color_5
  8
RECON4
 90
        8
 62
     2
370
    25
331
14
  1
Color_2
  8
RECON3
 90
        8
 62
     1
370
    35
331
14
  1
Color_1
  8
RECON2
 90
        8
 62
     7
370
    25
331
14
  1
Color_7
  8
RECON1
 90
        8
 62
     4
370
    50
331
14
  1
Color_4
  8
SKVIEW7
 90
        8
 62
     5
370
    25
331
14
  1
Color_5
  8
SK7
 90
        8
 62
     5
370
    25
331
14
  1
Color_5
  8
7
 90
        8
 62
     5
370
    25
331
14
  1
Color_5
  8
INFMAINVIEW
 90
        8
 62
     9
370
    18
331
14
  1
Color_9
  8
INFTOTAL
 90
        8
 62
     9
370
    18
331
14
  1
Color_9
  8
INFTEXT61
 90
        8
 62
     5
370
    -3
331
14
  1
Color_5
  8
INFWKP
 90
        8
 62
    30
370
    25
331
14
  1
Color_30
  8
SKVIEW6
 90
        8
 62
     5
370
    35
331
14
  1
Color_5
  8
SKVIEW4
 90
        8
 62
     2
370
    25
331
14
  1
Color_2
  8
SKVIEW3
 90
        8
 62
     1
370
    35
331
14
  1
Color_1
  8
SKVIEW2
 90
        8
 62
     7
370
    25
331
14
  1
Color_7
  8
SKVIEW1
 90
        8
 62
     4
370
    50
331
14
  1
Color_4
  8
NOCUT
 90
        8
 62
     7
370
    25
331
14
  1
Color_7
  8
CUT
 90
        8
 62
     1
370
    25
331
14
  1
Color_1
  8
DEFPOINTS
 90
        0
 62
     7
370
    -3
331
14
  1
Color_7
  8
SK6
 90
        8
 62
     5
370
    35
331
14
  1
Color_5
  8
6
 90
        8
 62
     5
370
    35
331
14
  1
Color_5
  8
FRAME51
 90
        8
 62
     7
370
    -3
331
14
  1
Color_7
  8
SK4
 90
        8
 62
     2
370
    25
331
14
  1
Color_2
  8
4
 90
        8
 62
     2
370
    25
331
14
  1
Color_2
  8
SK3
 90
        8
 62
     1
370
    35
331
14
  1
Color_1
  8
3
 90
        8
 62
     1
370
    35
331
14
  1
Color_1
  8
SK2
 90
        8
 62
     7
370
    25
331
14
  1
Color_7
  8
2
 90
        8
 62
     7
370
    25
331
14
  1
Color_7
  8
SK1
 90
        8
 62
     4
370
    50
331
14
  1
Color_4
  8
1
 90
        8
 62
     4
370
    50
331
14
  1
Color_4
  8
0
 90
        0
 62
     7
370
    -3
331
14
  1
Color_7
  0
DICTIONARY
  5
D0F
330
D06
100
AcDbDictionary
280
     1
281
     1
  3
ACAD_FIELD
360
D10
  3
ACAD_XREC_ROUNDTRIP
360
1A20
  0
DICTIONARY
  5
1A1E
330
CF0
100
AcDbDictionary
280
     1
281
     1
  3
ACAD_XREC_ROUNDTRIP
360
1A1F
  0
DICTIONARY
  5
1A05
330
B57
100
AcDbDictionary
280
     1
281
     1
  3
ACAD_XREC_ROUNDTRIP
360
1A06
  0
DICTIONARY
  5
19DC
330
303
100
AcDbDictionary
280
     1
281
     1
  3
ACAD_XREC_ROUNDTRIP
360
19DD
  0
DICTIONARY
  5
1770
330
3F0
100
AcDbDictionary
280
     1
281
     1
  3
ACAD_XREC_ROUNDTRIP
360
1771
  0
DICTIONARY
  5
176E
330
3EF
100
AcDbDictionary
280
     1
281
     1
  3
ACAD_XREC_ROUNDTRIP
360
176F
  0
DICTIONARY
  5
1772
330
3F1
100
AcDbDictionary
280
     1
281
     1
  3
ACAD_XREC_ROUNDTRIP
360
1773
  0
DICTIONARY
  5
19FF
330
470
100
AcDbDictionary
280
     1
281
     1
  3
ACAD_XREC_ROUNDTRIP
360
1A00
  0
DICTIONARY
  5
1A01
330
7EF
100
AcDbDictionary
280
     1
281
     1
  3
ACAD_XREC_ROUNDTRIP
360
1A02
  0
DICTIONARY
  5
1A03
330
7F8
100
AcDbDictionary
280
     1
281
     1
  3
ACAD_XREC_ROUNDTRIP
360
1A04
  0
DICTIONARY
  5
D1A
330
D15
100
AcDbDictionary
280
     1
281
     1
  3
ACAD_FIELD
360
D1B
  3
ACAD_XREC_ROUNDTRIP
360
1A21
  0
DICTIONARY
  5
1A1C
330
CEE
100
AcDbDictionary
280
     1
281
     1
  3
ACAD_XREC_ROUNDTRIP
360
1A1D
  0
DICTIONARY
  5
577
330
389
100
AcDbDictionary
280
     1
281
     1
  3
ACAD_ROUNDTRIP_2008_TABLESTYLE_CELLSTYLEMAP
360
19D3
  3
ACAD_XREC_ROUNDTRIP
360
19DE
  0
DICTIONARY
  5
19E9
330
3F8
100
AcDbDictionary
280
     1
281
     1
  3
ACAD_XREC_ROUNDTRIP
360
19EA
  0
DICTIONARY
  5
19ED
330
3FA
100
AcDbDictionary
280
     1
281
     1
  3
ACAD_XREC_ROUNDTRIP
360
19EE
  0
DICTIONARY
  5
19EB
330
3F9
100
AcDbDictionary
280
     1
281
     1
  3
ACAD_XREC_ROUNDTRIP
360
19EC
  0
DICTIONARY
  5
19E7
330
3F7
100
AcDbDictionary
280
     1
281
     1
  3
ACAD_XREC_ROUNDTRIP
360
19E8
  0
DICTIONARY
  5
19F5
330
3FE
100
AcDbDictionary
280
     1
281
     1
  3
ACAD_XREC_ROUNDTRIP
360
19F6
  0
DICTIONARY
  5
19FD
330
402
100
AcDbDictionary
280
     1
281
     1
  3
ACAD_XREC_ROUNDTRIP
360
19FE
  0
DICTIONARY
  5
19EF
330
3FB
100
AcDbDictionary
280
     1
281
     1
  3
ACAD_XREC_ROUNDTRIP
360
19F0
  0
DICTIONARY
  5
19F3
330
3FD
100
AcDbDictionary
280
     1
281
     1
  3
ACAD_XREC_ROUNDTRIP
360
19F4
  0
DICTIONARY
  5
1A0C
330
BDF
100
AcDbDictionary
280
     1
281
     1
  3
ACAD_XREC_ROUNDTRIP
360
1A0D
  0
DICTIONARY
  5
19FB
330
401
100
AcDbDictionary
280
     1
281
     1
  3
ACAD_XREC_ROUNDTRIP
360
19FC
  0
DICTIONARY
  5
19DF
330
3F3
100
AcDbDictionary
280
     1
281
     1
  3
ACAD_XREC_ROUNDTRIP
360
19E0
  0
DICTIONARY
  5
19E1
330
3F4
100
AcDbDictionary
280
     1
281
     1
  3
ACAD_XREC_ROUNDTRIP
360
19E2
  0
DICTIONARY
  5
19E3
330
3F5
100
AcDbDictionary
280
     1
281
     1
  3
ACAD_XREC_ROUNDTRIP
360
19E4
  0
DICTIONARY
  5
19E5
330
3F6
100
AcDbDictionary
280
     1
281
     1
  3
ACAD_XREC_ROUNDTRIP
360
19E6
  0
DICTIONARY
  5
1A10
330
CE7
100
AcDbDictionary
280
     1
281
     1
  3
ACAD_XREC_ROUNDTRIP
360
1A11
  0
DICTIONARY
  5
1A08
330
BDD
100
AcDbDictionary
280
     1
281
     1
  3
ACAD_XREC_ROUNDTRIP
360
1A09
  0
DICTIONARY
  5
19F9
330
400
100
AcDbDictionary
280
     1
281
     1
  3
ACAD_XREC_ROUNDTRIP
360
19FA
  0
DICTIONARY
  5
1A0A
330
BDE
100
AcDbDictionary
280
     1
281
     1
  3
ACAD_XREC_ROUNDTRIP
360
1A0B
  0
DICTIONARY
  5
19F1
330
3FC
100
AcDbDictionary
280
     1
281
     1
  3
ACAD_XREC_ROUNDTRIP
360
19F2
  0
DICTIONARY
  5
1A1A
330
CEC
100
AcDbDictionary
280
     1
281
     1
  3
ACAD_XREC_ROUNDTRIP
360
1A1B
  0
DICTIONARY
  5
1A18
330
CEB
100
AcDbDictionary
280
     1
281
     1
  3
ACAD_XREC_ROUNDTRIP
360
1A19
  0
DICTIONARY
  5
1A12
330
CE8
100
AcDbDictionary
280
     1
281
     1
  3
ACAD_XREC_ROUNDTRIP
360
1A13
  0
DICTIONARY
  5
1A14
330
CE9
100
AcDbDictionary
280
     1
281
     1
  3
ACAD_XREC_ROUNDTRIP
360
1A15
  0
DICTIONARY
  5
19F7
330
3FF
100
AcDbDictionary
280
     1
281
     1
  3
ACAD_XREC_ROUNDTRIP
360
19F8
  0
DICTIONARY
  5
1A0E
330
CE6
100
AcDbDictionary
280
     1
281
     1
  3
ACAD_XREC_ROUNDTRIP
360
1A0F
  0
DICTIONARY
  5
1A16
330
CEA
100
AcDbDictionary
280
     1
281
     1
  3
ACAD_XREC_ROUNDTRIP
360
1A17
  0
ACAD_PROXY_OBJECT
  5
4DD
102
{ACAD_REACTORS
330
4DC
102
}
330
4DC
100
AcDbProxyObject
 90
      499
 91
      557
 95
 10158113
 70
     0
 93
     4658
310
73C0000000000000C408030000C30040540600800030C0200800030C000000000000000C40C88A24812028120281202812028120281202812028120481204812028120281202812028120281202812028120281203204809FFFE7FFFA06880092009C012168200DA00C800E8008A00C800CE00CA00A600E800C80087208031
310
80368029803A80390033002A0032803C003A0029803A0032002128200C600DA008C0086008C00A600E800C80086A080318036802B8032803600320034803700338029803A0032002108200C600DA009200C800A600E800C80085A08031803680220030803A003A80368029803A0032002128200C600DA0084009E009A00A60
310
0E800C800882080368032003A00220032803A0030803480360029803C80368029803A0032002228200DA00C800E800A600CA00C600E800D200DE00DC00A600F200DA00A600E800C80088A080368032003A002180328037003A0032803900260034803700328029803A0032002228200DA00C800E800A800D000E400CA00C20
310
0C8009800D200DC00CA00A600E800C80085A080368032003A00270037803A00328029803A0032002168200C600DA00A800C200E000CA00E400A600E800C80086A080368032003A00208037002B00348032803B8029803A0032002168200C6008200DA00CE009800C200F200A600E800C80085A080318020803680338022003
310
480368029803A0032002228200C6008200DA00CE009000DE00D800CA008600D000C200E400E800A600E800C80086A08031802080368033802A0034803A003600328029803A0032002007CC
340
4DF
360
4E0
360
4E1
360
4E2
360
4E3
360
4E4
360
4E5
360
4E6
360
4E7
360
D05
360
4E8
360
D04
360
4E9
360
4EA
360
4EB
360
4EC
360
4ED
360
4FA
360
4FB
360
507
360
508
340
0
340
0
340
0
340
0
 94
        0
1001
ACAD
1000
AcRTDxfName
1000
ACMSTANDARDDIN
1000
AcRTDxfName
1000
ACMSTANDARDDIN
1000
AcRTDxfName
1000
ACMSTANDARDDIN
1000
AcRTDxfName
1000
ACMSTANDARDDIN
  0
ACAD_PROXY_OBJECT
  5
47A
102
{ACAD_REACTORS
330
479
102
}
330
479
100
AcDbProxyObject
 90
      499
 91
      510
 95
 10158113
 70
     0
 93
     3981
310
40682A0A940000000000000488082A5000000000000004202500000000000001220250000000000000122020A82A50A0A9FA040C008000105415280EFE97D874921CD050542D10015C011C014C01140150015001240138011C014C0109430041004E00470041005200520041005900420CC00C001F000D000D401F000D800C
310
00106430045004E0041004E004700424D000D401F000E400C001F000C400CC00D40106430045004E0044004900410041D0C01140138011001240104014C0108310030007C00320030007C003300300041D0C0114013801100124014C01500106430045004E004C0045004E004190C01140138013C01180118010943004C004
310
9004E0041005200520041005900420C400C001F000C800C001F000CC00C0010843004C0049004E004500540059005000415600130012401380114010944005700470055005300430041004C00450041D300104014C0150013C0108012801013000421340104012C0114015801240114015C010650005300430041004C00450
310
041948011401580124014C0124010130004154C010C010401300114010331003A00310042550012401340114014C01500104013401400107560045005200530049004F004E00414C400D400B800C000C001107B00440057004700530045005400540049004E004700530045004E0044007D00580DC
 94
        0
1001
ACAD
1000
AcRTDxfName
1000
AMGSETTINGSOBJ
1000
AcRTDxfName
1000
AMGSETTINGSOBJ
1000
AcRTDxfName
1000
AMGSETTINGSOBJ
1000
AcRTDxfName
1000
AMGSETTINGSOBJ
  0
ACAD_PROXY_OBJECT
  5
56E
102
{ACAD_REACTORS
330
479
102
}
330
479
100
AcDbProxyObject
 90
      499
 91
      510
 95
 10158113
 70
     0
 93
      384
310
40482A9803400308033003A00220F6008800AE008E00A6008A00A800A80092009C008E00A6008A009C008800FA00C803CC
 94
        0
1001
ACAD
1000
AcRTDxfName
1000
AMGSETTINGSOBJ
1000
AcRTDxfName
1000
AMGSETTINGSOBJ
1000
AcRTDxfName
1000
AMGSETTINGSOBJ
1000
AcRTDxfName
1000
AMGSETTINGSOBJ
  0
ACAD_PROXY_OBJECT
  5
47B
102
{ACAD_REACTORS
330
479
102
}
330
479
100
AcDbProxyObject
 90
      499
 91
      510
 95
 10158113
 70
     0
 93
     1525
310
4060C008000418010000A0A0C00800010D5400520041004E005300530045005400540049004E00470053004491001480104015C01240138011C0150014801040138014C0130010401500124013C0138010D4F0052004900470049004E0041004C004C0059005F004F004E004294C013C01540148010C011401300104013801
310
1C010344004500550042554014001480114014C011401480158011401107B00440057004700530045005400540049004E004700530045004E0044007D006605C
 94
        0
1001
ACAD
1000
AcRTDxfName
1000
AMGSETTINGSOBJ
1000
AcRTDxfName
1000
AMGSETTINGSOBJ
1000
AcRTDxfName
1000
AMGSETTINGSOBJ
1000
AcRTDxfName
1000
AMGSETTINGSOBJ
  0
DICTIONARY
  5
D10
102
{ACAD_REACTORS
330
D0F
102
}
330
D0F
100
AcDbDictionary
280
     1
281
     1
  3
TEXT
360
D11
  0
XRECORD
  5
1A20
102
{ACAD_REACTORS
330
D0F
102
}
330
D0F
100
AcDbXrecord
280
     1
102
DISPLAYNAME
  1
DIN 6
102
FLAGS
 90
        1
  0
XRECORD
  5
1A1F
102
{ACAD_REACTORS
330
1A1E
102
}
330
1A1E
100
AcDbXrecord
280
     1
102
DISPLAYNAME
  1
Metric50
102
FLAGS
 90
        0
  0
XRECORD
  5
1A06
102
{ACAD_REACTORS
330
1A05
102
}
330
1A05
100
AcDbXrecord
280
     1
102
SHADEPLOT
 70
     0
102
SHADEPLOTRESLEVEL
 70
     2
102
SHADEPLOTCUSTOMDPI
 70
   300
  0
XRECORD
  5
19DD
102
{ACAD_REACTORS
330
19DC
102
}
330
19DC
100
AcDbXrecord
280
     1
102
SHADEPLOT
 70
     0
102
SHADEPLOTRESLEVEL
 70
     2
102
SHADEPLOTCUSTOMDPI
 70
   300
  0
XRECORD
  5
1771
102
{ACAD_REACTORS
330
1770
102
}
330
1770
100
AcDbXrecord
280
     1
102
MATERIAL
148
0.0
149
0.0
149
0.0
 93
        0
 94
      127
282
     0
 72
     1
 77
     1
171
     1
175
     1
179
     1
273
     0
  0
XRECORD
  5
176F
102
{ACAD_REACTORS
330
176E
102
}
330
176E
100
AcDbXrecord
280
     1
102
MATERIAL
148
0.0
149
0.0
149
0.0
 93
        0
 94
      127
282
     0
 72
     1
 77
     1
171
     1
175
     1
179
     1
273
     0
  0
XRECORD
  5
1773
102
{ACAD_REACTORS
330
1772
102
}
330
1772
100
AcDbXrecord
280
     1
102
MATERIAL
148
0.0
149
0.0
149
0.0
 93
        0
 94
      127
282
     0
 72
     1
 77
     1
171
     1
175
     1
179
     1
273
     0
  0
XRECORD
  5
1A00
102
{ACAD_REACTORS
330
19FF
102
}
330
19FF
100
AcDbXrecord
280
     1
102
ACAD_ROUNDTRIP_2012_MLEADER_STYLE
298
     1
  0
XRECORD
  5
1A02
102
{ACAD_REACTORS
330
1A01
102
}
330
1A01
100
AcDbXrecord
280
     1
102
SHADEPLOT
 70
     0
102
SHADEPLOTRESLEVEL
 70
     2
102
SHADEPLOTCUSTOMDPI
 70
   300
  0
XRECORD
  5
1A04
102
{ACAD_REACTORS
330
1A03
102
}
330
1A03
100
AcDbXrecord
280
     1
102
SHADEPLOT
 70
     0
102
SHADEPLOTRESLEVEL
 70
     2
102
SHADEPLOTCUSTOMDPI
 70
   300
  0
DICTIONARY
  5
D1B
102
{ACAD_REACTORS
330
D1A
102
}
330
D1A
100
AcDbDictionary
280
     1
281
     1
  3
TEXT
360
D1C
  0
XRECORD
  5
1A21
102
{ACAD_REACTORS
330
D1A
102
}
330
D1A
100
AcDbXrecord
280
     1
102
DISPLAYNAME
  1
DIN ISO 128-40:2002-05
102
FLAGS
 90
        1
  0
XRECORD
  5
1A1D
102
{ACAD_REACTORS
330
1A1C
102
}
330
1A1C
100
AcDbXrecord
280
     1
102
DISPLAYNAME
  1
Metric50
102
FLAGS
 90
        0
  0
CELLSTYLEMAP
  5
19D3
102
{ACAD_REACTORS
330
577
102
}
330
577
100
AcDbCellStyleMap
 90
        3
300
CELLSTYLE
  1
TABLEFORMAT_BEGIN
 90
        5
170
     1
 91
        0
 92
    32768
 62
   257
 93
        1
300
CONTENTFORMAT
  1
CONTENTFORMAT_BEGIN
 90
        0
 91
        0
 92
        4
 93
        0
300

 40
0.0
140
1.0
 94
        5
 62
     0
340
1E
144
6.0
309
CONTENTFORMAT_END
171
     1
301
MARGIN
  1
CELLMARGIN_BEGIN
 40
1.5
 40
1.5
 40
1.5
 40
1.5
 40
0.18
 40
0.18
309
CELLMARGIN_END
 94
        6
 95
        1
302
GRIDFORMAT
  1
GRIDFORMAT_BEGIN
 90
        0
 91
        1
 62
     0
 92
       -2
340
0
 93
        0
 40
0.045
309
GRIDFORMAT_END
 95
        2
302
GRIDFORMAT
  1
GRIDFORMAT_BEGIN
 90
        0
 91
        1
 62
     0
 92
       -2
340
0
 93
        0
 40
0.045
309
GRIDFORMAT_END
 95
        4
302
GRIDFORMAT
  1
GRIDFORMAT_BEGIN
 90
        0
 91
        1
 62
     0
 92
       -2
340
0
 93
        0
 40
0.045
309
GRIDFORMAT_END
 95
        8
302
GRIDFORMAT
  1
GRIDFORMAT_BEGIN
 90
        0
 91
        1
 62
     0
 92
       -2
340
0
 93
        0
 40
0.045
309
GRIDFORMAT_END
 95
       16
302
GRIDFORMAT
  1
GRIDFORMAT_BEGIN
 90
        0
 91
        1
 62
     0
 92
       -2
340
0
 93
        0
 40
0.045
309
GRIDFORMAT_END
 95
       32
302
GRIDFORMAT
  1
GRIDFORMAT_BEGIN
 90
        0
 91
        1
 62
     0
 92
       -2
340
0
 93
        0
 40
0.045
309
GRIDFORMAT_END
309
TABLEFORMAT_END
  1
CELLSTYLE_BEGIN
 90
        1
 91
        1
300
_TITLE
309
CELLSTYLE_END
300
CELLSTYLE
  1
TABLEFORMAT_BEGIN
 90
        5
170
     1
 91
        0
 92
        0
 62
   257
 93
        1
300
CONTENTFORMAT
  1
CONTENTFORMAT_BEGIN
 90
        0
 91
        0
 92
        4
 93
        0
300

 40
0.0
140
1.0
 94
        5
 62
     0
340
10
144
4.5
309
CONTENTFORMAT_END
171
     1
301
MARGIN
  1
CELLMARGIN_BEGIN
 40
1.5
 40
1.5
 40
1.5
 40
1.5
 40
0.18
 40
0.18
309
CELLMARGIN_END
 94
        6
 95
        1
302
GRIDFORMAT
  1
GRIDFORMAT_BEGIN
 90
        0
 91
        1
 62
     0
 92
       -2
340
0
 93
        0
 40
0.045
309
GRIDFORMAT_END
 95
        2
302
GRIDFORMAT
  1
GRIDFORMAT_BEGIN
 90
        0
 91
        1
 62
     0
 92
       -2
340
0
 93
        0
 40
0.045
309
GRIDFORMAT_END
 95
        4
302
GRIDFORMAT
  1
GRIDFORMAT_BEGIN
 90
        0
 91
        1
 62
     0
 92
       -2
340
0
 93
        0
 40
0.045
309
GRIDFORMAT_END
 95
        8
302
GRIDFORMAT
  1
GRIDFORMAT_BEGIN
 90
        0
 91
        1
 62
     0
 92
       -2
340
0
 93
        0
 40
0.045
309
GRIDFORMAT_END
 95
       16
302
GRIDFORMAT
  1
GRIDFORMAT_BEGIN
 90
        0
 91
        1
 62
     0
 92
       -2
340
0
 93
        0
 40
0.045
309
GRIDFORMAT_END
 95
       32
302
GRIDFORMAT
  1
GRIDFORMAT_BEGIN
 90
        0
 91
        1
 62
     0
 92
       -2
340
0
 93
        0
 40
0.045
309
GRIDFORMAT_END
309
TABLEFORMAT_END
  1
CELLSTYLE_BEGIN
 90
        2
 91
        1
300
_HEADER
309
CELLSTYLE_END
300
CELLSTYLE
  1
TABLEFORMAT_BEGIN
 90
        5
170
     1
 91
        0
 92
        0
 62
   257
 93
        1
300
CONTENTFORMAT
  1
CONTENTFORMAT_BEGIN
 90
        0
 91
        0
 92
        4
 93
        0
300

 40
0.0
140
1.0
 94
        2
 62
     0
340
10
144
4.5
309
CONTENTFORMAT_END
171
     1
301
MARGIN
  1
CELLMARGIN_BEGIN
 40
1.5
 40
1.5
 40
1.5
 40
1.5
 40
0.18
 40
0.18
309
CELLMARGIN_END
 94
        6
 95
        1
302
GRIDFORMAT
  1
GRIDFORMAT_BEGIN
 90
        0
 91
        1
 62
     0
 92
       -2
340
0
 93
        0
 40
0.045
309
GRIDFORMAT_END
 95
        2
302
GRIDFORMAT
  1
GRIDFORMAT_BEGIN
 90
        0
 91
        1
 62
     0
 92
       -2
340
0
 93
        0
 40
0.045
309
GRIDFORMAT_END
 95
        4
302
GRIDFORMAT
  1
GRIDFORMAT_BEGIN
 90
        0
 91
        1
 62
     0
 92
       -2
340
0
 93
        0
 40
0.045
309
GRIDFORMAT_END
 95
        8
302
GRIDFORMAT
  1
GRIDFORMAT_BEGIN
 90
        0
 91
        1
 62
     0
 92
       -2
340
0
 93
        0
 40
0.045
309
GRIDFORMAT_END
 95
       16
302
GRIDFORMAT
  1
GRIDFORMAT_BEGIN
 90
        0
 91
        1
 62
     0
 92
       -2
340
0
 93
        0
 40
0.045
309
GRIDFORMAT_END
 95
       32
302
GRIDFORMAT
  1
GRIDFORMAT_BEGIN
 90
        0
 91
        1
 62
     0
 92
       -2
340
0
 93
        0
 40
0.045
309
GRIDFORMAT_END
309
TABLEFORMAT_END
  1
CELLSTYLE_BEGIN
 90
        3
 91
        2
300
_DATA
309
CELLSTYLE_END
  0
XRECORD
  5
19DE
102
{ACAD_REACTORS
330
577
102
}
330
577
100
AcDbXrecord
280
     1
102
ACAD_ROUNDTRIP_PRE2007_TABLESTYLE
 90
        4
 91
        0
  1

 92
        4
 93
        0
  2

 94
        4
 95
        0
  3

  0
XRECORD
  5
19EA
102
{ACAD_REACTORS
330
19E9
102
}
330
19E9
100
AcDbXrecord
280
     1
102
RTVSPost2010Prop28
280
     1
102
RTVSPost2010PropOp28
 70
     1
102
RTVSPost2010Prop29
280
     1
102
RTVSPost2010PropOp29
 70
     1
102
RTVSPost2010Prop30
280
     0
102
RTVSPost2010PropOp30
 70
     1
102
RTVSPost2010Prop31
280
     0
102
RTVSPost2010PropOp31
 70
     1
102
RTVSPost2010Prop32
280
     0
102
RTVSPost2010PropOp32
 70
     1
102
RTVSPost2010Prop33
280
     0
102
RTVSPost2010PropOp33
 70
     1
102
RTVSPost2010Prop34
280
     0
102
RTVSPost2010PropOp34
 70
     1
102
RTVSPost2010Prop35
280
     0
102
RTVSPost2010PropOp35
 70
     1
102
RTVSPost2010Prop36
280
     0
102
RTVSPost2010PropOp36
 70
     1
102
RTVSPost2010Prop37
 90
       50
102
RTVSPost2010PropOp37
 70
     1
102
RTVSPost2010Prop38
140
0.0
102
RTVSPost2010PropOp38
 70
     1
102
RTVSPost2010Prop39
140
1.0
102
RTVSPost2010PropOp39
 70
     1
102
RTVSPost2010Prop40
 90
        0
102
RTVSPost2010PropOp40
 70
     1
102
RTVSPost2010Prop41ColorIndex
 90
       18
102
RTVSPost2010Prop41ColorRGB
 90
        0
102
RTVSPost2010PropOp41
 70
     1
102
RTVSPost2010Prop42
 90
       50
102
RTVSPost2010PropOp42
 70
     1
102
RTVSPost2010Prop43
 90
        3
102
RTVSPost2010PropOp43
 70
     1
102
RTVSPost2010Prop44ColorIndex
 90
        5
102
RTVSPost2010Prop44ColorRGB
 90
      255
102
RTVSPost2010PropOp44
 70
     1
102
RTVSPost2010Prop45
280
     0
102
RTVSPost2010PropOp45
 70
     1
102
RTVSPost2010Prop46
 90
       50
102
RTVSPost2010PropOp46
 70
     1
102
RTVSPost2010Prop47
 90
       50
102
RTVSPost2010PropOp47
 70
     1
102
RTVSPost2010Prop48
 90
       50
102
RTVSPost2010PropOp48
 70
     1
102
RTVSPost2010Prop49
280
     0
102
RTVSPost2010PropOp49
 70
     1
102
RTVSPost2010Prop50
 90
       50
102
RTVSPost2010PropOp50
 70
     1
102
RTVSPost2010Prop51ColorIndex
 90
      256
102
RTVSPost2010Prop51ColorRGB
 90
-16777216
102
RTVSPost2010PropOp51
 70
     0
102
RTVSPost2010Prop52
140
1.0
102
RTVSPost2010PropOp52
 70
     0
102
RTVSPost2010Prop53
 90
        2
102
RTVSPost2010PropOp53
 70
     1
102
RTVSPost2010Prop54
  1
strokes_ogs.tif
102
RTVSPost2010PropOp54
 70
     1
102
RTVSPost2010Prop55
280
     0
102
RTVSPost2010PropOp55
 70
     1
102
RTVSPost2010Prop56
140
1.0
102
RTVSPost2010PropOp56
 70
     1
102
RTVSPost2010Prop57
140
1.0
102
RTVSPost2010PropOp57
 70
     1
102
RTVSPropertyOp0
 70
     1
102
RTVSPropertyOp1
 70
     1
102
RTVSPropertyOp2
 70
     1
102
RTVSPropertyOp3
 70
     1
102
RTVSPropertyOp4
 70
     1
102
RTVSPropertyOp5
 70
     1
102
RTVSPropertyOp6
 70
     1
102
RTVSPropertyOp7
 70
     1
102
RTVSPropertyOp8
 70
     1
102
RTVSPropertyOp9
 70
     1
102
RTVSPropertyOp10
 70
     1
102
RTVSPropertyOp11
 70
     1
102
RTVSPropertyOp12
 70
     1
102
RTVSPropertyOp13
 70
     1
102
RTVSPropertyOp14
 70
     1
102
RTVSPropertyOp15
 70
     1
102
RTVSPropertyOp16
 70
     1
102
RTVSPropertyOp17
 70
     1
102
RTVSPropertyOp18
 70
     1
102
RTVSPropertyOp19
 70
     1
102
RTVSPropertyOp20
 70
     1
102
RTVSPropertyOp21
 70
     1
102
RTVSPropertyOp22
 70
     1
102
RTVSPropertyOp23
 70
     1
102
RTVSPropertyOp24
 70
     1
102
RTVSPropertyOp25
 70
     1
102
RTVSPropertyOp26
 70
     1
102
RTVSPropertyOp27
 70
     1
102
RTVSPropertyOp28
 70
     1
102
RTVSPropertyOp29
 70
     1
102
RTVSPropertyOp30
 70
     1
102
RTVSPropertyOp31
 70
     1
102
RTVSPropertyOp32
 70
     1
102
RTVSPropertyOp33
 70
     1
102
RTVSPropertyOp34
 70
     1
102
RTVSPropertyOp35
 70
     1
102
RTVSPropertyOp36
 70
     1
102
RTVSPropertyOp37
 70
     1
102
RTVSPropertyOp38
 70
     1
102
RTVSPropertyOp39
 70
     1
102
RTVSPropertyOp40
 70
     1
102
RTVSPropertyOp41
 70
     1
102
RTVSPropertyOp42
 70
     1
102
RTVSPropertyOp43
 70
     1
102
RTVSPropertyOp44
 70
     1
102
RTVSPropertyOp45
 70
     1
102
RTVSPropertyOp46
 70
     1
102
RTVSPropertyOp47
 70
     1
102
RTVSPropertyOp48
 70
     1
102
RTVSPropertyOp49
 70
     1
102
RTVSPropertyOp50
 70
     1
102
RTVSPropertyOp51
 70
     0
102
RTVSPropertyOp52
 70
     0
102
RTVSPropertyOp53
 70
     1
102
RTVSPropertyOp54
 70
     1
102
RTVSPropertyOp55
 70
     1
102
RTVSPropertyOp56
 70
     1
102
RTVSPropertyOp57
 70
     1
102
RTVSPropertyOp58
 70
     1
102
RTVSPropertyOp59
 70
     1
102
RTVSPropertyOp60
 70
     1
102
RTVSPropertyOp61
 70
     1
102
RTVSPropertyOp62
 70
     1
  0
XRECORD
  5
19EE
102
{ACAD_REACTORS
330
19ED
102
}
330
19ED
100
AcDbXrecord
280
     1
102
RTVSPost2010Prop28
280
     0
102
RTVSPost2010PropOp28
 70
     1
102
RTVSPost2010Prop29
280
     1
102
RTVSPost2010PropOp29
 70
     1
102
RTVSPost2010Prop30
280
     1
102
RTVSPost2010PropOp30
 70
     1
102
RTVSPost2010Prop31
280
     0
102
RTVSPost2010PropOp31
 70
     1
102
RTVSPost2010Prop32
280
     0
102
RTVSPost2010PropOp32
 70
     1
102
RTVSPost2010Prop33
280
     0
102
RTVSPost2010PropOp33
 70
     1
102
RTVSPost2010Prop34
280
     0
102
RTVSPost2010PropOp34
 70
     1
102
RTVSPost2010Prop35
280
     0
102
RTVSPost2010PropOp35
 70
     1
102
RTVSPost2010Prop36
280
     0
102
RTVSPost2010PropOp36
 70
     1
102
RTVSPost2010Prop37
 90
       50
102
RTVSPost2010PropOp37
 70
     1
102
RTVSPost2010Prop38
140
0.0
102
RTVSPost2010PropOp38
 70
     1
102
RTVSPost2010Prop39
140
1.0
102
RTVSPost2010PropOp39
 70
     1
102
RTVSPost2010Prop40
 90
        0
102
RTVSPost2010PropOp40
 70
     1
102
RTVSPost2010Prop41ColorIndex
 90
       18
102
RTVSPost2010Prop41ColorRGB
 90
        0
102
RTVSPost2010PropOp41
 70
     1
102
RTVSPost2010Prop42
 90
       50
102
RTVSPost2010PropOp42
 70
     1
102
RTVSPost2010Prop43
 90
        3
102
RTVSPost2010PropOp43
 70
     1
102
RTVSPost2010Prop44ColorIndex
 90
        5
102
RTVSPost2010Prop44ColorRGB
 90
      255
102
RTVSPost2010PropOp44
 70
     1
102
RTVSPost2010Prop45
280
     0
102
RTVSPost2010PropOp45
 70
     1
102
RTVSPost2010Prop46
 90
       50
102
RTVSPost2010PropOp46
 70
     1
102
RTVSPost2010Prop47
 90
       50
102
RTVSPost2010PropOp47
 70
     1
102
RTVSPost2010Prop48
 90
       50
102
RTVSPost2010PropOp48
 70
     1
102
RTVSPost2010Prop49
280
     0
102
RTVSPost2010PropOp49
 70
     1
102
RTVSPost2010Prop50
 90
       50
102
RTVSPost2010PropOp50
 70
     1
102
RTVSPost2010Prop51ColorIndex
 90
      256
102
RTVSPost2010Prop51ColorRGB
 90
-16777216
102
RTVSPost2010PropOp51
 70
     0
102
RTVSPost2010Prop52
140
1.0
102
RTVSPost2010PropOp52
 70
     0
102
RTVSPost2010Prop53
 90
        2
102
RTVSPost2010PropOp53
 70
     1
102
RTVSPost2010Prop54
  1
strokes_ogs.tif
102
RTVSPost2010PropOp54
 70
     1
102
RTVSPost2010Prop55
280
     0
102
RTVSPost2010PropOp55
 70
     1
102
RTVSPost2010Prop56
140
1.0
102
RTVSPost2010PropOp56
 70
     1
102
RTVSPost2010Prop57
140
1.0
102
RTVSPost2010PropOp57
 70
     1
102
RTVSPropertyOp0
 70
     1
102
RTVSPropertyOp1
 70
     1
102
RTVSPropertyOp2
 70
     1
102
RTVSPropertyOp3
 70
     1
102
RTVSPropertyOp4
 70
     1
102
RTVSPropertyOp5
 70
     1
102
RTVSPropertyOp6
 70
     1
102
RTVSPropertyOp7
 70
     1
102
RTVSPropertyOp8
 70
     1
102
RTVSPropertyOp9
 70
     1
102
RTVSPropertyOp10
 70
     1
102
RTVSPropertyOp11
 70
     1
102
RTVSPropertyOp12
 70
     1
102
RTVSPropertyOp13
 70
     1
102
RTVSPropertyOp14
 70
     1
102
RTVSPropertyOp15
 70
     1
102
RTVSPropertyOp16
 70
     1
102
RTVSPropertyOp17
 70
     1
102
RTVSPropertyOp18
 70
     1
102
RTVSPropertyOp19
 70
     1
102
RTVSPropertyOp20
 70
     1
102
RTVSPropertyOp21
 70
     1
102
RTVSPropertyOp22
 70
     1
102
RTVSPropertyOp23
 70
     1
102
RTVSPropertyOp24
 70
     1
102
RTVSPropertyOp25
 70
     1
102
RTVSPropertyOp26
 70
     1
102
RTVSPropertyOp27
 70
     1
102
RTVSPropertyOp28
 70
     1
102
RTVSPropertyOp29
 70
     1
102
RTVSPropertyOp30
 70
     1
102
RTVSPropertyOp31
 70
     1
102
RTVSPropertyOp32
 70
     1
102
RTVSPropertyOp33
 70
     1
102
RTVSPropertyOp34
 70
     1
102
RTVSPropertyOp35
 70
     1
102
RTVSPropertyOp36
 70
     1
102
RTVSPropertyOp37
 70
     1
102
RTVSPropertyOp38
 70
     1
102
RTVSPropertyOp39
 70
     1
102
RTVSPropertyOp40
 70
     1
102
RTVSPropertyOp41
 70
     1
102
RTVSPropertyOp42
 70
     1
102
RTVSPropertyOp43
 70
     1
102
RTVSPropertyOp44
 70
     1
102
RTVSPropertyOp45
 70
     1
102
RTVSPropertyOp46
 70
     1
102
RTVSPropertyOp47
 70
     1
102
RTVSPropertyOp48
 70
     1
102
RTVSPropertyOp49
 70
     1
102
RTVSPropertyOp50
 70
     1
102
RTVSPropertyOp51
 70
     0
102
RTVSPropertyOp52
 70
     0
102
RTVSPropertyOp53
 70
     1
102
RTVSPropertyOp54
 70
     1
102
RTVSPropertyOp55
 70
     1
102
RTVSPropertyOp56
 70
     1
102
RTVSPropertyOp57
 70
     1
102
RTVSPropertyOp58
 70
     1
102
RTVSPropertyOp59
 70
     1
102
RTVSPropertyOp60
 70
     1
102
RTVSPropertyOp61
 70
     1
102
RTVSPropertyOp62
 70
     1
  0
XRECORD
  5
19EC
102
{ACAD_REACTORS
330
19EB
102
}
330
19EB
100
AcDbXrecord
280
     1
102
RTVSPost2010Prop28
280
     0
102
RTVSPost2010PropOp28
 70
     1
102
RTVSPost2010Prop29
280
     1
102
RTVSPost2010PropOp29
 70
     1
102
RTVSPost2010Prop30
280
     1
102
RTVSPost2010PropOp30
 70
     1
102
RTVSPost2010Prop31
280
     0
102
RTVSPost2010PropOp31
 70
     1
102
RTVSPost2010Prop32
280
     0
102
RTVSPost2010PropOp32
 70
     1
102
RTVSPost2010Prop33
280
     0
102
RTVSPost2010PropOp33
 70
     1
102
RTVSPost2010Prop34
280
     0
102
RTVSPost2010PropOp34
 70
     1
102
RTVSPost2010Prop35
280
     0
102
RTVSPost2010PropOp35
 70
     1
102
RTVSPost2010Prop36
280
     0
102
RTVSPost2010PropOp36
 70
     1
102
RTVSPost2010Prop37
 90
       50
102
RTVSPost2010PropOp37
 70
     1
102
RTVSPost2010Prop38
140
0.0
102
RTVSPost2010PropOp38
 70
     1
102
RTVSPost2010Prop39
140
1.0
102
RTVSPost2010PropOp39
 70
     1
102
RTVSPost2010Prop40
 90
        0
102
RTVSPost2010PropOp40
 70
     1
102
RTVSPost2010Prop41ColorIndex
 90
       18
102
RTVSPost2010Prop41ColorRGB
 90
        0
102
RTVSPost2010PropOp41
 70
     1
102
RTVSPost2010Prop42
 90
       50
102
RTVSPost2010PropOp42
 70
     1
102
RTVSPost2010Prop43
 90
        3
102
RTVSPost2010PropOp43
 70
     1
102
RTVSPost2010Prop44ColorIndex
 90
        5
102
RTVSPost2010Prop44ColorRGB
 90
      255
102
RTVSPost2010PropOp44
 70
     1
102
RTVSPost2010Prop45
280
     0
102
RTVSPost2010PropOp45
 70
     1
102
RTVSPost2010Prop46
 90
       50
102
RTVSPost2010PropOp46
 70
     1
102
RTVSPost2010Prop47
 90
       50
102
RTVSPost2010PropOp47
 70
     1
102
RTVSPost2010Prop48
 90
       50
102
RTVSPost2010PropOp48
 70
     1
102
RTVSPost2010Prop49
280
     0
102
RTVSPost2010PropOp49
 70
     1
102
RTVSPost2010Prop50
 90
       50
102
RTVSPost2010PropOp50
 70
     1
102
RTVSPost2010Prop51ColorIndex
 90
      256
102
RTVSPost2010Prop51ColorRGB
 90
-16777216
102
RTVSPost2010PropOp51
 70
     0
102
RTVSPost2010Prop52
140
1.0
102
RTVSPost2010PropOp52
 70
     0
102
RTVSPost2010Prop53
 90
        2
102
RTVSPost2010PropOp53
 70
     1
102
RTVSPost2010Prop54
  1
strokes_ogs.tif
102
RTVSPost2010PropOp54
 70
     1
102
RTVSPost2010Prop55
280
     0
102
RTVSPost2010PropOp55
 70
     1
102
RTVSPost2010Prop56
140
1.0
102
RTVSPost2010PropOp56
 70
     1
102
RTVSPost2010Prop57
140
1.0
102
RTVSPost2010PropOp57
 70
     1
102
RTVSPropertyOp0
 70
     1
102
RTVSPropertyOp1
 70
     1
102
RTVSPropertyOp2
 70
     1
102
RTVSPropertyOp3
 70
     1
102
RTVSPropertyOp4
 70
     1
102
RTVSPropertyOp5
 70
     1
102
RTVSPropertyOp6
 70
     1
102
RTVSPropertyOp7
 70
     1
102
RTVSPropertyOp8
 70
     1
102
RTVSPropertyOp9
 70
     1
102
RTVSPropertyOp10
 70
     1
102
RTVSPropertyOp11
 70
     1
102
RTVSPropertyOp12
 70
     1
102
RTVSPropertyOp13
 70
     1
102
RTVSPropertyOp14
 70
     1
102
RTVSPropertyOp15
 70
     1
102
RTVSPropertyOp16
 70
     1
102
RTVSPropertyOp17
 70
     1
102
RTVSPropertyOp18
 70
     1
102
RTVSPropertyOp19
 70
     1
102
RTVSPropertyOp20
 70
     1
102
RTVSPropertyOp21
 70
     1
102
RTVSPropertyOp22
 70
     1
102
RTVSPropertyOp23
 70
     1
102
RTVSPropertyOp24
 70
     1
102
RTVSPropertyOp25
 70
     1
102
RTVSPropertyOp26
 70
     1
102
RTVSPropertyOp27
 70
     1
102
RTVSPropertyOp28
 70
     1
102
RTVSPropertyOp29
 70
     1
102
RTVSPropertyOp30
 70
     1
102
RTVSPropertyOp31
 70
     1
102
RTVSPropertyOp32
 70
     1
102
RTVSPropertyOp33
 70
     1
102
RTVSPropertyOp34
 70
     1
102
RTVSPropertyOp35
 70
     1
102
RTVSPropertyOp36
 70
     1
102
RTVSPropertyOp37
 70
     1
102
RTVSPropertyOp38
 70
     1
102
RTVSPropertyOp39
 70
     1
102
RTVSPropertyOp40
 70
     1
102
RTVSPropertyOp41
 70
     1
102
RTVSPropertyOp42
 70
     1
102
RTVSPropertyOp43
 70
     1
102
RTVSPropertyOp44
 70
     1
102
RTVSPropertyOp45
 70
     1
102
RTVSPropertyOp46
 70
     1
102
RTVSPropertyOp47
 70
     1
102
RTVSPropertyOp48
 70
     1
102
RTVSPropertyOp49
 70
     1
102
RTVSPropertyOp50
 70
     1
102
RTVSPropertyOp51
 70
     0
102
RTVSPropertyOp52
 70
     0
102
RTVSPropertyOp53
 70
     1
102
RTVSPropertyOp54
 70
     1
102
RTVSPropertyOp55
 70
     1
102
RTVSPropertyOp56
 70
     1
102
RTVSPropertyOp57
 70
     1
102
RTVSPropertyOp58
 70
     1
102
RTVSPropertyOp59
 70
     1
102
RTVSPropertyOp60
 70
     1
102
RTVSPropertyOp61
 70
     1
102
RTVSPropertyOp62
 70
     1
  0
XRECORD
  5
19E8
102
{ACAD_REACTORS
330
19E7
102
}
330
19E7
100
AcDbXrecord
280
     1
102
RTVSPost2010Prop28
280
     0
102
RTVSPost2010PropOp28
 70
     1
102
RTVSPost2010Prop29
280
     1
102
RTVSPost2010PropOp29
 70
     1
102
RTVSPost2010Prop30
280
     1
102
RTVSPost2010PropOp30
 70
     1
102
RTVSPost2010Prop31
280
     0
102
RTVSPost2010PropOp31
 70
     1
102
RTVSPost2010Prop32
280
     0
102
RTVSPost2010PropOp32
 70
     1
102
RTVSPost2010Prop33
280
     0
102
RTVSPost2010PropOp33
 70
     1
102
RTVSPost2010Prop34
280
     0
102
RTVSPost2010PropOp34
 70
     1
102
RTVSPost2010Prop35
280
     0
102
RTVSPost2010PropOp35
 70
     1
102
RTVSPost2010Prop36
280
     0
102
RTVSPost2010PropOp36
 70
     1
102
RTVSPost2010Prop37
 90
       50
102
RTVSPost2010PropOp37
 70
     1
102
RTVSPost2010Prop38
140
0.0
102
RTVSPost2010PropOp38
 70
     1
102
RTVSPost2010Prop39
140
1.0
102
RTVSPost2010PropOp39
 70
     1
102
RTVSPost2010Prop40
 90
        0
102
RTVSPost2010PropOp40
 70
     1
102
RTVSPost2010Prop41ColorIndex
 90
       18
102
RTVSPost2010Prop41ColorRGB
 90
        0
102
RTVSPost2010PropOp41
 70
     1
102
RTVSPost2010Prop42
 90
       50
102
RTVSPost2010PropOp42
 70
     1
102
RTVSPost2010Prop43
 90
        3
102
RTVSPost2010PropOp43
 70
     1
102
RTVSPost2010Prop44ColorIndex
 90
        5
102
RTVSPost2010Prop44ColorRGB
 90
      255
102
RTVSPost2010PropOp44
 70
     1
102
RTVSPost2010Prop45
280
     0
102
RTVSPost2010PropOp45
 70
     1
102
RTVSPost2010Prop46
 90
       50
102
RTVSPost2010PropOp46
 70
     1
102
RTVSPost2010Prop47
 90
       50
102
RTVSPost2010PropOp47
 70
     1
102
RTVSPost2010Prop48
 90
       50
102
RTVSPost2010PropOp48
 70
     1
102
RTVSPost2010Prop49
280
     0
102
RTVSPost2010PropOp49
 70
     1
102
RTVSPost2010Prop50
 90
       50
102
RTVSPost2010PropOp50
 70
     1
102
RTVSPost2010Prop51ColorIndex
 90
      256
102
RTVSPost2010Prop51ColorRGB
 90
-16777216
102
RTVSPost2010PropOp51
 70
     0
102
RTVSPost2010Prop52
140
1.0
102
RTVSPost2010PropOp52
 70
     0
102
RTVSPost2010Prop53
 90
        2
102
RTVSPost2010PropOp53
 70
     1
102
RTVSPost2010Prop54
  1
strokes_ogs.tif
102
RTVSPost2010PropOp54
 70
     1
102
RTVSPost2010Prop55
280
     0
102
RTVSPost2010PropOp55
 70
     1
102
RTVSPost2010Prop56
140
1.0
102
RTVSPost2010PropOp56
 70
     1
102
RTVSPost2010Prop57
140
1.0
102
RTVSPost2010PropOp57
 70
     1
102
RTVSPropertyOp0
 70
     1
102
RTVSPropertyOp1
 70
     1
102
RTVSPropertyOp2
 70
     1
102
RTVSPropertyOp3
 70
     1
102
RTVSPropertyOp4
 70
     1
102
RTVSPropertyOp5
 70
     1
102
RTVSPropertyOp6
 70
     1
102
RTVSPropertyOp7
 70
     1
102
RTVSPropertyOp8
 70
     1
102
RTVSPropertyOp9
 70
     1
102
RTVSPropertyOp10
 70
     1
102
RTVSPropertyOp11
 70
     1
102
RTVSPropertyOp12
 70
     1
102
RTVSPropertyOp13
 70
     1
102
RTVSPropertyOp14
 70
     1
102
RTVSPropertyOp15
 70
     1
102
RTVSPropertyOp16
 70
     1
102
RTVSPropertyOp17
 70
     1
102
RTVSPropertyOp18
 70
     1
102
RTVSPropertyOp19
 70
     1
102
RTVSPropertyOp20
 70
     1
102
RTVSPropertyOp21
 70
     1
102
RTVSPropertyOp22
 70
     1
102
RTVSPropertyOp23
 70
     1
102
RTVSPropertyOp24
 70
     1
102
RTVSPropertyOp25
 70
     1
102
RTVSPropertyOp26
 70
     1
102
RTVSPropertyOp27
 70
     1
102
RTVSPropertyOp28
 70
     1
102
RTVSPropertyOp29
 70
     1
102
RTVSPropertyOp30
 70
     1
102
RTVSPropertyOp31
 70
     1
102
RTVSPropertyOp32
 70
     1
102
RTVSPropertyOp33
 70
     1
102
RTVSPropertyOp34
 70
     1
102
RTVSPropertyOp35
 70
     1
102
RTVSPropertyOp36
 70
     1
102
RTVSPropertyOp37
 70
     1
102
RTVSPropertyOp38
 70
     1
102
RTVSPropertyOp39
 70
     1
102
RTVSPropertyOp40
 70
     1
102
RTVSPropertyOp41
 70
     1
102
RTVSPropertyOp42
 70
     1
102
RTVSPropertyOp43
 70
     1
102
RTVSPropertyOp44
 70
     1
102
RTVSPropertyOp45
 70
     1
102
RTVSPropertyOp46
 70
     1
102
RTVSPropertyOp47
 70
     1
102
RTVSPropertyOp48
 70
     1
102
RTVSPropertyOp49
 70
     1
102
RTVSPropertyOp50
 70
     1
102
RTVSPropertyOp51
 70
     0
102
RTVSPropertyOp52
 70
     0
102
RTVSPropertyOp53
 70
     1
102
RTVSPropertyOp54
 70
     1
102
RTVSPropertyOp55
 70
     1
102
RTVSPropertyOp56
 70
     1
102
RTVSPropertyOp57
 70
     1
102
RTVSPropertyOp58
 70
     1
102
RTVSPropertyOp59
 70
     1
102
RTVSPropertyOp60
 70
     1
102
RTVSPropertyOp61
 70
     1
102
RTVSPropertyOp62
 70
     1
  0
XRECORD
  5
19F6
102
{ACAD_REACTORS
330
19F5
102
}
330
19F5
100
AcDbXrecord
280
     1
102
RTVSPost2010Prop28
280
     0
102
RTVSPost2010PropOp28
 70
     1
102
RTVSPost2010Prop29
280
     1
102
RTVSPost2010PropOp29
 70
     1
102
RTVSPost2010Prop30
280
     1
102
RTVSPost2010PropOp30
 70
     1
102
RTVSPost2010Prop31
280
     0
102
RTVSPost2010PropOp31
 70
     1
102
RTVSPost2010Prop32
280
     0
102
RTVSPost2010PropOp32
 70
     1
102
RTVSPost2010Prop33
280
     0
102
RTVSPost2010PropOp33
 70
     1
102
RTVSPost2010Prop34
280
     0
102
RTVSPost2010PropOp34
 70
     1
102
RTVSPost2010Prop35
280
     0
102
RTVSPost2010PropOp35
 70
     1
102
RTVSPost2010Prop36
280
     0
102
RTVSPost2010PropOp36
 70
     1
102
RTVSPost2010Prop37
 90
       50
102
RTVSPost2010PropOp37
 70
     1
102
RTVSPost2010Prop38
140
0.0
102
RTVSPost2010PropOp38
 70
     1
102
RTVSPost2010Prop39
140
1.0
102
RTVSPost2010PropOp39
 70
     1
102
RTVSPost2010Prop40
 90
        0
102
RTVSPost2010PropOp40
 70
     1
102
RTVSPost2010Prop41ColorIndex
 90
       18
102
RTVSPost2010Prop41ColorRGB
 90
        0
102
RTVSPost2010PropOp41
 70
     1
102
RTVSPost2010Prop42
 90
       50
102
RTVSPost2010PropOp42
 70
     1
102
RTVSPost2010Prop43
 90
        3
102
RTVSPost2010PropOp43
 70
     1
102
RTVSPost2010Prop44ColorIndex
 90
        5
102
RTVSPost2010Prop44ColorRGB
 90
      255
102
RTVSPost2010PropOp44
 70
     1
102
RTVSPost2010Prop45
280
     0
102
RTVSPost2010PropOp45
 70
     1
102
RTVSPost2010Prop46
 90
       50
102
RTVSPost2010PropOp46
 70
     1
102
RTVSPost2010Prop47
 90
       50
102
RTVSPost2010PropOp47
 70
     1
102
RTVSPost2010Prop48
 90
       50
102
RTVSPost2010PropOp48
 70
     1
102
RTVSPost2010Prop49
280
     0
102
RTVSPost2010PropOp49
 70
     1
102
RTVSPost2010Prop50
 90
       50
102
RTVSPost2010PropOp50
 70
     1
102
RTVSPost2010Prop51ColorIndex
 90
      256
102
RTVSPost2010Prop51ColorRGB
 90
-16777216
102
RTVSPost2010PropOp51
 70
     0
102
RTVSPost2010Prop52
140
1.0
102
RTVSPost2010PropOp52
 70
     0
102
RTVSPost2010Prop53
 90
        2
102
RTVSPost2010PropOp53
 70
     1
102
RTVSPost2010Prop54
  1
strokes_ogs.tif
102
RTVSPost2010PropOp54
 70
     1
102
RTVSPost2010Prop55
280
     0
102
RTVSPost2010PropOp55
 70
     1
102
RTVSPost2010Prop56
140
1.0
102
RTVSPost2010PropOp56
 70
     1
102
RTVSPost2010Prop57
140
1.0
102
RTVSPost2010PropOp57
 70
     1
102
RTVSPropertyOp0
 70
     1
102
RTVSPropertyOp1
 70
     1
102
RTVSPropertyOp2
 70
     1
102
RTVSPropertyOp3
 70
     1
102
RTVSPropertyOp4
 70
     1
102
RTVSPropertyOp5
 70
     1
102
RTVSPropertyOp6
 70
     1
102
RTVSPropertyOp7
 70
     1
102
RTVSPropertyOp8
 70
     1
102
RTVSPropertyOp9
 70
     1
102
RTVSPropertyOp10
 70
     1
102
RTVSPropertyOp11
 70
     1
102
RTVSPropertyOp12
 70
     1
102
RTVSPropertyOp13
 70
     1
102
RTVSPropertyOp14
 70
     1
102
RTVSPropertyOp15
 70
     1
102
RTVSPropertyOp16
 70
     1
102
RTVSPropertyOp17
 70
     1
102
RTVSPropertyOp18
 70
     1
102
RTVSPropertyOp19
 70
     1
102
RTVSPropertyOp20
 70
     1
102
RTVSPropertyOp21
 70
     1
102
RTVSPropertyOp22
 70
     1
102
RTVSPropertyOp23
 70
     1
102
RTVSPropertyOp24
 70
     1
102
RTVSPropertyOp25
 70
     1
102
RTVSPropertyOp26
 70
     1
102
RTVSPropertyOp27
 70
     1
102
RTVSPropertyOp28
 70
     1
102
RTVSPropertyOp29
 70
     1
102
RTVSPropertyOp30
 70
     1
102
RTVSPropertyOp31
 70
     1
102
RTVSPropertyOp32
 70
     1
102
RTVSPropertyOp33
 70
     1
102
RTVSPropertyOp34
 70
     1
102
RTVSPropertyOp35
 70
     1
102
RTVSPropertyOp36
 70
     1
102
RTVSPropertyOp37
 70
     1
102
RTVSPropertyOp38
 70
     1
102
RTVSPropertyOp39
 70
     1
102
RTVSPropertyOp40
 70
     1
102
RTVSPropertyOp41
 70
     1
102
RTVSPropertyOp42
 70
     1
102
RTVSPropertyOp43
 70
     1
102
RTVSPropertyOp44
 70
     1
102
RTVSPropertyOp45
 70
     1
102
RTVSPropertyOp46
 70
     1
102
RTVSPropertyOp47
 70
     1
102
RTVSPropertyOp48
 70
     1
102
RTVSPropertyOp49
 70
     1
102
RTVSPropertyOp50
 70
     1
102
RTVSPropertyOp51
 70
     0
102
RTVSPropertyOp52
 70
     0
102
RTVSPropertyOp53
 70
     1
102
RTVSPropertyOp54
 70
     1
102
RTVSPropertyOp55
 70
     1
102
RTVSPropertyOp56
 70
     1
102
RTVSPropertyOp57
 70
     1
102
RTVSPropertyOp58
 70
     1
102
RTVSPropertyOp59
 70
     1
102
RTVSPropertyOp60
 70
     1
102
RTVSPropertyOp61
 70
     1
102
RTVSPropertyOp62
 70
     1
  0
XRECORD
  5
19FE
102
{ACAD_REACTORS
330
19FD
102
}
330
19FD
100
AcDbXrecord
280
     1
102
RTVSPost2010Prop28
280
     0
102
RTVSPost2010PropOp28
 70
     1
102
RTVSPost2010Prop29
280
     1
102
RTVSPost2010PropOp29
 70
     1
102
RTVSPost2010Prop30
280
     1
102
RTVSPost2010PropOp30
 70
     1
102
RTVSPost2010Prop31
280
     0
102
RTVSPost2010PropOp31
 70
     1
102
RTVSPost2010Prop32
280
     0
102
RTVSPost2010PropOp32
 70
     1
102
RTVSPost2010Prop33
280
     0
102
RTVSPost2010PropOp33
 70
     1
102
RTVSPost2010Prop34
280
     0
102
RTVSPost2010PropOp34
 70
     1
102
RTVSPost2010Prop35
280
     0
102
RTVSPost2010PropOp35
 70
     1
102
RTVSPost2010Prop36
280
     0
102
RTVSPost2010PropOp36
 70
     1
102
RTVSPost2010Prop37
 90
       50
102
RTVSPost2010PropOp37
 70
     1
102
RTVSPost2010Prop38
140
0.0
102
RTVSPost2010PropOp38
 70
     1
102
RTVSPost2010Prop39
140
1.0
102
RTVSPost2010PropOp39
 70
     1
102
RTVSPost2010Prop40
 90
        0
102
RTVSPost2010PropOp40
 70
     1
102
RTVSPost2010Prop41ColorIndex
 90
       18
102
RTVSPost2010Prop41ColorRGB
 90
        0
102
RTVSPost2010PropOp41
 70
     1
102
RTVSPost2010Prop42
 90
       50
102
RTVSPost2010PropOp42
 70
     1
102
RTVSPost2010Prop43
 90
        3
102
RTVSPost2010PropOp43
 70
     1
102
RTVSPost2010Prop44ColorIndex
 90
        5
102
RTVSPost2010Prop44ColorRGB
 90
      255
102
RTVSPost2010PropOp44
 70
     1
102
RTVSPost2010Prop45
280
     0
102
RTVSPost2010PropOp45
 70
     1
102
RTVSPost2010Prop46
 90
       50
102
RTVSPost2010PropOp46
 70
     1
102
RTVSPost2010Prop47
 90
       50
102
RTVSPost2010PropOp47
 70
     1
102
RTVSPost2010Prop48
 90
       50
102
RTVSPost2010PropOp48
 70
     1
102
RTVSPost2010Prop49
280
     0
102
RTVSPost2010PropOp49
 70
     1
102
RTVSPost2010Prop50
 90
       50
102
RTVSPost2010PropOp50
 70
     1
102
RTVSPost2010Prop51ColorIndex
 90
      256
102
RTVSPost2010Prop51ColorRGB
 90
-16777216
102
RTVSPost2010PropOp51
 70
     0
102
RTVSPost2010Prop52
140
1.0
102
RTVSPost2010PropOp52
 70
     0
102
RTVSPost2010Prop53
 90
        2
102
RTVSPost2010PropOp53
 70
     1
102
RTVSPost2010Prop54
  1
strokes_ogs.tif
102
RTVSPost2010PropOp54
 70
     1
102
RTVSPost2010Prop55
280
     0
102
RTVSPost2010PropOp55
 70
     1
102
RTVSPost2010Prop56
140
1.0
102
RTVSPost2010PropOp56
 70
     1
102
RTVSPost2010Prop57
140
1.0
102
RTVSPost2010PropOp57
 70
     1
102
RTVSPropertyOp0
 70
     1
102
RTVSPropertyOp1
 70
     1
102
RTVSPropertyOp2
 70
     1
102
RTVSPropertyOp3
 70
     1
102
RTVSPropertyOp4
 70
     1
102
RTVSPropertyOp5
 70
     1
102
RTVSPropertyOp6
 70
     1
102
RTVSPropertyOp7
 70
     1
102
RTVSPropertyOp8
 70
     1
102
RTVSPropertyOp9
 70
     1
102
RTVSPropertyOp10
 70
     1
102
RTVSPropertyOp11
 70
     1
102
RTVSPropertyOp12
 70
     1
102
RTVSPropertyOp13
 70
     1
102
RTVSPropertyOp14
 70
     1
102
RTVSPropertyOp15
 70
     1
102
RTVSPropertyOp16
 70
     1
102
RTVSPropertyOp17
 70
     1
102
RTVSPropertyOp18
 70
     1
102
RTVSPropertyOp19
 70
     1
102
RTVSPropertyOp20
 70
     1
102
RTVSPropertyOp21
 70
     1
102
RTVSPropertyOp22
 70
     1
102
RTVSPropertyOp23
 70
     1
102
RTVSPropertyOp24
 70
     1
102
RTVSPropertyOp25
 70
     1
102
RTVSPropertyOp26
 70
     1
102
RTVSPropertyOp27
 70
     1
102
RTVSPropertyOp28
 70
     1
102
RTVSPropertyOp29
 70
     1
102
RTVSPropertyOp30
 70
     1
102
RTVSPropertyOp31
 70
     1
102
RTVSPropertyOp32
 70
     1
102
RTVSPropertyOp33
 70
     1
102
RTVSPropertyOp34
 70
     1
102
RTVSPropertyOp35
 70
     1
102
RTVSPropertyOp36
 70
     1
102
RTVSPropertyOp37
 70
     1
102
RTVSPropertyOp38
 70
     1
102
RTVSPropertyOp39
 70
     1
102
RTVSPropertyOp40
 70
     1
102
RTVSPropertyOp41
 70
     1
102
RTVSPropertyOp42
 70
     1
102
RTVSPropertyOp43
 70
     1
102
RTVSPropertyOp44
 70
     1
102
RTVSPropertyOp45
 70
     1
102
RTVSPropertyOp46
 70
     1
102
RTVSPropertyOp47
 70
     1
102
RTVSPropertyOp48
 70
     1
102
RTVSPropertyOp49
 70
     1
102
RTVSPropertyOp50
 70
     1
102
RTVSPropertyOp51
 70
     0
102
RTVSPropertyOp52
 70
     0
102
RTVSPropertyOp53
 70
     1
102
RTVSPropertyOp54
 70
     1
102
RTVSPropertyOp55
 70
     1
102
RTVSPropertyOp56
 70
     1
102
RTVSPropertyOp57
 70
     1
102
RTVSPropertyOp58
 70
     1
102
RTVSPropertyOp59
 70
     1
102
RTVSPropertyOp60
 70
     1
102
RTVSPropertyOp61
 70
     1
102
RTVSPropertyOp62
 70
     1
  0
XRECORD
  5
19F0
102
{ACAD_REACTORS
330
19EF
102
}
330
19EF
100
AcDbXrecord
280
     1
102
RTVSPost2010Prop28
280
     0
102
RTVSPost2010PropOp28
 70
     1
102
RTVSPost2010Prop29
280
     1
102
RTVSPost2010PropOp29
 70
     1
102
RTVSPost2010Prop30
280
     1
102
RTVSPost2010PropOp30
 70
     1
102
RTVSPost2010Prop31
280
     0
102
RTVSPost2010PropOp31
 70
     1
102
RTVSPost2010Prop32
280
     0
102
RTVSPost2010PropOp32
 70
     1
102
RTVSPost2010Prop33
280
     0
102
RTVSPost2010PropOp33
 70
     1
102
RTVSPost2010Prop34
280
     0
102
RTVSPost2010PropOp34
 70
     1
102
RTVSPost2010Prop35
280
     0
102
RTVSPost2010PropOp35
 70
     1
102
RTVSPost2010Prop36
280
     0
102
RTVSPost2010PropOp36
 70
     1
102
RTVSPost2010Prop37
 90
       50
102
RTVSPost2010PropOp37
 70
     1
102
RTVSPost2010Prop38
140
0.0
102
RTVSPost2010PropOp38
 70
     1
102
RTVSPost2010Prop39
140
1.0
102
RTVSPost2010PropOp39
 70
     1
102
RTVSPost2010Prop40
 90
        0
102
RTVSPost2010PropOp40
 70
     1
102
RTVSPost2010Prop41ColorIndex
 90
       18
102
RTVSPost2010Prop41ColorRGB
 90
        0
102
RTVSPost2010PropOp41
 70
     1
102
RTVSPost2010Prop42
 90
       50
102
RTVSPost2010PropOp42
 70
     1
102
RTVSPost2010Prop43
 90
        3
102
RTVSPost2010PropOp43
 70
     1
102
RTVSPost2010Prop44ColorIndex
 90
        5
102
RTVSPost2010Prop44ColorRGB
 90
      255
102
RTVSPost2010PropOp44
 70
     1
102
RTVSPost2010Prop45
280
     0
102
RTVSPost2010PropOp45
 70
     1
102
RTVSPost2010Prop46
 90
       50
102
RTVSPost2010PropOp46
 70
     1
102
RTVSPost2010Prop47
 90
       50
102
RTVSPost2010PropOp47
 70
     1
102
RTVSPost2010Prop48
 90
       50
102
RTVSPost2010PropOp48
 70
     1
102
RTVSPost2010Prop49
280
     0
102
RTVSPost2010PropOp49
 70
     1
102
RTVSPost2010Prop50
 90
       50
102
RTVSPost2010PropOp50
 70
     1
102
RTVSPost2010Prop51ColorIndex
 90
      256
102
RTVSPost2010Prop51ColorRGB
 90
-16777216
102
RTVSPost2010PropOp51
 70
     0
102
RTVSPost2010Prop52
140
1.0
102
RTVSPost2010PropOp52
 70
     0
102
RTVSPost2010Prop53
 90
        2
102
RTVSPost2010PropOp53
 70
     1
102
RTVSPost2010Prop54
  1
strokes_ogs.tif
102
RTVSPost2010PropOp54
 70
     1
102
RTVSPost2010Prop55
280
     0
102
RTVSPost2010PropOp55
 70
     1
102
RTVSPost2010Prop56
140
1.0
102
RTVSPost2010PropOp56
 70
     1
102
RTVSPost2010Prop57
140
1.0
102
RTVSPost2010PropOp57
 70
     1
102
RTVSPropertyOp0
 70
     1
102
RTVSPropertyOp1
 70
     1
102
RTVSPropertyOp2
 70
     1
102
RTVSPropertyOp3
 70
     1
102
RTVSPropertyOp4
 70
     1
102
RTVSPropertyOp5
 70
     1
102
RTVSPropertyOp6
 70
     1
102
RTVSPropertyOp7
 70
     1
102
RTVSPropertyOp8
 70
     1
102
RTVSPropertyOp9
 70
     1
102
RTVSPropertyOp10
 70
     1
102
RTVSPropertyOp11
 70
     1
102
RTVSPropertyOp12
 70
     1
102
RTVSPropertyOp13
 70
     1
102
RTVSPropertyOp14
 70
     1
102
RTVSPropertyOp15
 70
     1
102
RTVSPropertyOp16
 70
     1
102
RTVSPropertyOp17
 70
     1
102
RTVSPropertyOp18
 70
     1
102
RTVSPropertyOp19
 70
     1
102
RTVSPropertyOp20
 70
     1
102
RTVSPropertyOp21
 70
     1
102
RTVSPropertyOp22
 70
     1
102
RTVSPropertyOp23
 70
     1
102
RTVSPropertyOp24
 70
     1
102
RTVSPropertyOp25
 70
     1
102
RTVSPropertyOp26
 70
     1
102
RTVSPropertyOp27
 70
     1
102
RTVSPropertyOp28
 70
     1
102
RTVSPropertyOp29
 70
     1
102
RTVSPropertyOp30
 70
     1
102
RTVSPropertyOp31
 70
     1
102
RTVSPropertyOp32
 70
     1
102
RTVSPropertyOp33
 70
     1
102
RTVSPropertyOp34
 70
     1
102
RTVSPropertyOp35
 70
     1
102
RTVSPropertyOp36
 70
     1
102
RTVSPropertyOp37
 70
     1
102
RTVSPropertyOp38
 70
     1
102
RTVSPropertyOp39
 70
     1
102
RTVSPropertyOp40
 70
     1
102
RTVSPropertyOp41
 70
     1
102
RTVSPropertyOp42
 70
     1
102
RTVSPropertyOp43
 70
     1
102
RTVSPropertyOp44
 70
     1
102
RTVSPropertyOp45
 70
     1
102
RTVSPropertyOp46
 70
     1
102
RTVSPropertyOp47
 70
     1
102
RTVSPropertyOp48
 70
     1
102
RTVSPropertyOp49
 70
     1
102
RTVSPropertyOp50
 70
     1
102
RTVSPropertyOp51
 70
     0
102
RTVSPropertyOp52
 70
     0
102
RTVSPropertyOp53
 70
     1
102
RTVSPropertyOp54
 70
     1
102
RTVSPropertyOp55
 70
     1
102
RTVSPropertyOp56
 70
     1
102
RTVSPropertyOp57
 70
     1
102
RTVSPropertyOp58
 70
     1
102
RTVSPropertyOp59
 70
     1
102
RTVSPropertyOp60
 70
     1
102
RTVSPropertyOp61
 70
     1
102
RTVSPropertyOp62
 70
     1
  0
XRECORD
  5
19F4
102
{ACAD_REACTORS
330
19F3
102
}
330
19F3
100
AcDbXrecord
280
     1
102
RTVSPost2010Prop28
280
     0
102
RTVSPost2010PropOp28
 70
     1
102
RTVSPost2010Prop29
280
     1
102
RTVSPost2010PropOp29
 70
     1
102
RTVSPost2010Prop30
280
     1
102
RTVSPost2010PropOp30
 70
     1
102
RTVSPost2010Prop31
280
     0
102
RTVSPost2010PropOp31
 70
     1
102
RTVSPost2010Prop32
280
     0
102
RTVSPost2010PropOp32
 70
     1
102
RTVSPost2010Prop33
280
     0
102
RTVSPost2010PropOp33
 70
     1
102
RTVSPost2010Prop34
280
     0
102
RTVSPost2010PropOp34
 70
     1
102
RTVSPost2010Prop35
280
     0
102
RTVSPost2010PropOp35
 70
     1
102
RTVSPost2010Prop36
280
     0
102
RTVSPost2010PropOp36
 70
     1
102
RTVSPost2010Prop37
 90
       50
102
RTVSPost2010PropOp37
 70
     1
102
RTVSPost2010Prop38
140
0.0
102
RTVSPost2010PropOp38
 70
     1
102
RTVSPost2010Prop39
140
1.0
102
RTVSPost2010PropOp39
 70
     1
102
RTVSPost2010Prop40
 90
        0
102
RTVSPost2010PropOp40
 70
     1
102
RTVSPost2010Prop41ColorIndex
 90
       18
102
RTVSPost2010Prop41ColorRGB
 90
        0
102
RTVSPost2010PropOp41
 70
     1
102
RTVSPost2010Prop42
 90
       50
102
RTVSPost2010PropOp42
 70
     1
102
RTVSPost2010Prop43
 90
        3
102
RTVSPost2010PropOp43
 70
     1
102
RTVSPost2010Prop44ColorIndex
 90
        5
102
RTVSPost2010Prop44ColorRGB
 90
      255
102
RTVSPost2010PropOp44
 70
     1
102
RTVSPost2010Prop45
280
     0
102
RTVSPost2010PropOp45
 70
     1
102
RTVSPost2010Prop46
 90
       50
102
RTVSPost2010PropOp46
 70
     1
102
RTVSPost2010Prop47
 90
       50
102
RTVSPost2010PropOp47
 70
     1
102
RTVSPost2010Prop48
 90
       50
102
RTVSPost2010PropOp48
 70
     1
102
RTVSPost2010Prop49
280
     0
102
RTVSPost2010PropOp49
 70
     1
102
RTVSPost2010Prop50
 90
       50
102
RTVSPost2010PropOp50
 70
     1
102
RTVSPost2010Prop51ColorIndex
 90
      256
102
RTVSPost2010Prop51ColorRGB
 90
-16777216
102
RTVSPost2010PropOp51
 70
     0
102
RTVSPost2010Prop52
140
1.0
102
RTVSPost2010PropOp52
 70
     0
102
RTVSPost2010Prop53
 90
        2
102
RTVSPost2010PropOp53
 70
     1
102
RTVSPost2010Prop54
  1
strokes_ogs.tif
102
RTVSPost2010PropOp54
 70
     1
102
RTVSPost2010Prop55
280
     0
102
RTVSPost2010PropOp55
 70
     1
102
RTVSPost2010Prop56
140
1.0
102
RTVSPost2010PropOp56
 70
     1
102
RTVSPost2010Prop57
140
1.0
102
RTVSPost2010PropOp57
 70
     1
102
RTVSPropertyOp0
 70
     1
102
RTVSPropertyOp1
 70
     1
102
RTVSPropertyOp2
 70
     1
102
RTVSPropertyOp3
 70
     1
102
RTVSPropertyOp4
 70
     1
102
RTVSPropertyOp5
 70
     1
102
RTVSPropertyOp6
 70
     1
102
RTVSPropertyOp7
 70
     1
102
RTVSPropertyOp8
 70
     1
102
RTVSPropertyOp9
 70
     1
102
RTVSPropertyOp10
 70
     1
102
RTVSPropertyOp11
 70
     1
102
RTVSPropertyOp12
 70
     1
102
RTVSPropertyOp13
 70
     1
102
RTVSPropertyOp14
 70
     1
102
RTVSPropertyOp15
 70
     1
102
RTVSPropertyOp16
 70
     1
102
RTVSPropertyOp17
 70
     1
102
RTVSPropertyOp18
 70
     1
102
RTVSPropertyOp19
 70
     1
102
RTVSPropertyOp20
 70
     1
102
RTVSPropertyOp21
 70
     1
102
RTVSPropertyOp22
 70
     1
102
RTVSPropertyOp23
 70
     1
102
RTVSPropertyOp24
 70
     1
102
RTVSPropertyOp25
 70
     1
102
RTVSPropertyOp26
 70
     1
102
RTVSPropertyOp27
 70
     1
102
RTVSPropertyOp28
 70
     1
102
RTVSPropertyOp29
 70
     1
102
RTVSPropertyOp30
 70
     1
102
RTVSPropertyOp31
 70
     1
102
RTVSPropertyOp32
 70
     1
102
RTVSPropertyOp33
 70
     1
102
RTVSPropertyOp34
 70
     1
102
RTVSPropertyOp35
 70
     1
102
RTVSPropertyOp36
 70
     1
102
RTVSPropertyOp37
 70
     1
102
RTVSPropertyOp38
 70
     1
102
RTVSPropertyOp39
 70
     1
102
RTVSPropertyOp40
 70
     1
102
RTVSPropertyOp41
 70
     1
102
RTVSPropertyOp42
 70
     1
102
RTVSPropertyOp43
 70
     1
102
RTVSPropertyOp44
 70
     1
102
RTVSPropertyOp45
 70
     1
102
RTVSPropertyOp46
 70
     1
102
RTVSPropertyOp47
 70
     1
102
RTVSPropertyOp48
 70
     1
102
RTVSPropertyOp49
 70
     1
102
RTVSPropertyOp50
 70
     1
102
RTVSPropertyOp51
 70
     0
102
RTVSPropertyOp52
 70
     0
102
RTVSPropertyOp53
 70
     1
102
RTVSPropertyOp54
 70
     1
102
RTVSPropertyOp55
 70
     1
102
RTVSPropertyOp56
 70
     1
102
RTVSPropertyOp57
 70
     1
102
RTVSPropertyOp58
 70
     1
102
RTVSPropertyOp59
 70
     1
102
RTVSPropertyOp60
 70
     1
102
RTVSPropertyOp61
 70
     1
102
RTVSPropertyOp62
 70
     1
  0
XRECORD
  5
1A0D
102
{ACAD_REACTORS
330
1A0C
102
}
330
1A0C
100
AcDbXrecord
280
     1
102
RTVSPost2010Prop28
280
     0
102
RTVSPost2010PropOp28
 70
     1
102
RTVSPost2010Prop29
280
     1
102
RTVSPost2010PropOp29
 70
     1
102
RTVSPost2010Prop30
280
     1
102
RTVSPost2010PropOp30
 70
     1
102
RTVSPost2010Prop31
280
     0
102
RTVSPost2010PropOp31
 70
     1
102
RTVSPost2010Prop32
280
     0
102
RTVSPost2010PropOp32
 70
     1
102
RTVSPost2010Prop33
280
     0
102
RTVSPost2010PropOp33
 70
     1
102
RTVSPost2010Prop34
280
     0
102
RTVSPost2010PropOp34
 70
     1
102
RTVSPost2010Prop35
280
     0
102
RTVSPost2010PropOp35
 70
     1
102
RTVSPost2010Prop36
280
     0
102
RTVSPost2010PropOp36
 70
     1
102
RTVSPost2010Prop37
 90
       50
102
RTVSPost2010PropOp37
 70
     1
102
RTVSPost2010Prop38
140
0.0
102
RTVSPost2010PropOp38
 70
     1
102
RTVSPost2010Prop39
140
1.0
102
RTVSPost2010PropOp39
 70
     1
102
RTVSPost2010Prop40
 90
        0
102
RTVSPost2010PropOp40
 70
     1
102
RTVSPost2010Prop41ColorIndex
 90
       18
102
RTVSPost2010Prop41ColorRGB
 90
        0
102
RTVSPost2010PropOp41
 70
     1
102
RTVSPost2010Prop42
 90
       50
102
RTVSPost2010PropOp42
 70
     1
102
RTVSPost2010Prop43
 90
        3
102
RTVSPost2010PropOp43
 70
     1
102
RTVSPost2010Prop44ColorIndex
 90
        5
102
RTVSPost2010Prop44ColorRGB
 90
      255
102
RTVSPost2010PropOp44
 70
     1
102
RTVSPost2010Prop45
280
     0
102
RTVSPost2010PropOp45
 70
     1
102
RTVSPost2010Prop46
 90
       50
102
RTVSPost2010PropOp46
 70
     1
102
RTVSPost2010Prop47
 90
       50
102
RTVSPost2010PropOp47
 70
     1
102
RTVSPost2010Prop48
 90
       50
102
RTVSPost2010PropOp48
 70
     1
102
RTVSPost2010Prop49
280
     0
102
RTVSPost2010PropOp49
 70
     1
102
RTVSPost2010Prop50
 90
       50
102
RTVSPost2010PropOp50
 70
     1
102
RTVSPost2010Prop51ColorIndex
 90
      256
102
RTVSPost2010Prop51ColorRGB
 90
-16777216
102
RTVSPost2010PropOp51
 70
     0
102
RTVSPost2010Prop52
140
1.0
102
RTVSPost2010PropOp52
 70
     0
102
RTVSPost2010Prop53
 90
        2
102
RTVSPost2010PropOp53
 70
     1
102
RTVSPost2010Prop54
  1
strokes_ogs.tif
102
RTVSPost2010PropOp54
 70
     1
102
RTVSPost2010Prop55
280
     0
102
RTVSPost2010PropOp55
 70
     1
102
RTVSPost2010Prop56
140
1.0
102
RTVSPost2010PropOp56
 70
     1
102
RTVSPost2010Prop57
140
1.0
102
RTVSPost2010PropOp57
 70
     1
102
RTVSPropertyOp0
 70
     0
102
RTVSPropertyOp1
 70
     0
102
RTVSPropertyOp2
 70
     0
102
RTVSPropertyOp3
 70
     0
102
RTVSPropertyOp4
 70
     0
102
RTVSPropertyOp5
 70
     0
102
RTVSPropertyOp6
 70
     0
102
RTVSPropertyOp7
 70
     0
102
RTVSPropertyOp8
 70
     0
102
RTVSPropertyOp9
 70
     0
102
RTVSPropertyOp10
 70
     0
102
RTVSPropertyOp11
 70
     0
102
RTVSPropertyOp12
 70
     0
102
RTVSPropertyOp13
 70
     0
102
RTVSPropertyOp14
 70
     2
102
RTVSPropertyOp15
 70
     0
102
RTVSPropertyOp16
 70
     0
102
RTVSPropertyOp17
 70
     0
102
RTVSPropertyOp18
 70
     0
102
RTVSPropertyOp19
 70
     0
102
RTVSPropertyOp20
 70
     0
102
RTVSPropertyOp21
 70
     0
102
RTVSPropertyOp22
 70
     0
102
RTVSPropertyOp23
 70
     0
102
RTVSPropertyOp24
 70
     0
102
RTVSPropertyOp25
 70
     0
102
RTVSPropertyOp26
 70
     0
102
RTVSPropertyOp27
 70
     0
102
RTVSPropertyOp28
 70
     1
102
RTVSPropertyOp29
 70
     1
102
RTVSPropertyOp30
 70
     1
102
RTVSPropertyOp31
 70
     1
102
RTVSPropertyOp32
 70
     1
102
RTVSPropertyOp33
 70
     1
102
RTVSPropertyOp34
 70
     1
102
RTVSPropertyOp35
 70
     1
102
RTVSPropertyOp36
 70
     1
102
RTVSPropertyOp37
 70
     1
102
RTVSPropertyOp38
 70
     1
102
RTVSPropertyOp39
 70
     1
102
RTVSPropertyOp40
 70
     1
102
RTVSPropertyOp41
 70
     1
102
RTVSPropertyOp42
 70
     1
102
RTVSPropertyOp43
 70
     1
102
RTVSPropertyOp44
 70
     1
102
RTVSPropertyOp45
 70
     1
102
RTVSPropertyOp46
 70
     1
102
RTVSPropertyOp47
 70
     1
102
RTVSPropertyOp48
 70
     1
102
RTVSPropertyOp49
 70
     1
102
RTVSPropertyOp50
 70
     1
102
RTVSPropertyOp51
 70
     0
102
RTVSPropertyOp52
 70
     0
102
RTVSPropertyOp53
 70
     1
102
RTVSPropertyOp54
 70
     1
102
RTVSPropertyOp55
 70
     1
102
RTVSPropertyOp56
 70
     1
102
RTVSPropertyOp57
 70
     1
102
RTVSPropertyOp58
 70
     1
102
RTVSPropertyOp59
 70
     1
102
RTVSPropertyOp60
 70
     1
102
RTVSPropertyOp61
 70
     1
102
RTVSPropertyOp62
 70
     1
  0
XRECORD
  5
19FC
102
{ACAD_REACTORS
330
19FB
102
}
330
19FB
100
AcDbXrecord
280
     1
102
RTVSPost2010Prop28
280
     0
102
RTVSPost2010PropOp28
 70
     1
102
RTVSPost2010Prop29
280
     1
102
RTVSPost2010PropOp29
 70
     1
102
RTVSPost2010Prop30
280
     1
102
RTVSPost2010PropOp30
 70
     1
102
RTVSPost2010Prop31
280
     0
102
RTVSPost2010PropOp31
 70
     1
102
RTVSPost2010Prop32
280
     0
102
RTVSPost2010PropOp32
 70
     1
102
RTVSPost2010Prop33
280
     0
102
RTVSPost2010PropOp33
 70
     1
102
RTVSPost2010Prop34
280
     0
102
RTVSPost2010PropOp34
 70
     1
102
RTVSPost2010Prop35
280
     0
102
RTVSPost2010PropOp35
 70
     1
102
RTVSPost2010Prop36
280
     0
102
RTVSPost2010PropOp36
 70
     1
102
RTVSPost2010Prop37
 90
       50
102
RTVSPost2010PropOp37
 70
     1
102
RTVSPost2010Prop38
140
0.0
102
RTVSPost2010PropOp38
 70
     1
102
RTVSPost2010Prop39
140
1.0
102
RTVSPost2010PropOp39
 70
     1
102
RTVSPost2010Prop40
 90
        0
102
RTVSPost2010PropOp40
 70
     1
102
RTVSPost2010Prop41ColorIndex
 90
       18
102
RTVSPost2010Prop41ColorRGB
 90
        0
102
RTVSPost2010PropOp41
 70
     1
102
RTVSPost2010Prop42
 90
       50
102
RTVSPost2010PropOp42
 70
     1
102
RTVSPost2010Prop43
 90
        3
102
RTVSPost2010PropOp43
 70
     1
102
RTVSPost2010Prop44ColorIndex
 90
        5
102
RTVSPost2010Prop44ColorRGB
 90
      255
102
RTVSPost2010PropOp44
 70
     1
102
RTVSPost2010Prop45
280
     0
102
RTVSPost2010PropOp45
 70
     1
102
RTVSPost2010Prop46
 90
       50
102
RTVSPost2010PropOp46
 70
     1
102
RTVSPost2010Prop47
 90
       50
102
RTVSPost2010PropOp47
 70
     1
102
RTVSPost2010Prop48
 90
       50
102
RTVSPost2010PropOp48
 70
     1
102
RTVSPost2010Prop49
280
     0
102
RTVSPost2010PropOp49
 70
     1
102
RTVSPost2010Prop50
 90
       50
102
RTVSPost2010PropOp50
 70
     1
102
RTVSPost2010Prop51ColorIndex
 90
      256
102
RTVSPost2010Prop51ColorRGB
 90
-16777216
102
RTVSPost2010PropOp51
 70
     0
102
RTVSPost2010Prop52
140
1.0
102
RTVSPost2010PropOp52
 70
     0
102
RTVSPost2010Prop53
 90
        2
102
RTVSPost2010PropOp53
 70
     1
102
RTVSPost2010Prop54
  1
strokes_ogs.tif
102
RTVSPost2010PropOp54
 70
     1
102
RTVSPost2010Prop55
280
     0
102
RTVSPost2010PropOp55
 70
     1
102
RTVSPost2010Prop56
140
1.0
102
RTVSPost2010PropOp56
 70
     1
102
RTVSPost2010Prop57
140
1.0
102
RTVSPost2010PropOp57
 70
     1
102
RTVSPropertyOp0
 70
     1
102
RTVSPropertyOp1
 70
     1
102
RTVSPropertyOp2
 70
     1
102
RTVSPropertyOp3
 70
     1
102
RTVSPropertyOp4
 70
     1
102
RTVSPropertyOp5
 70
     1
102
RTVSPropertyOp6
 70
     1
102
RTVSPropertyOp7
 70
     1
102
RTVSPropertyOp8
 70
     1
102
RTVSPropertyOp9
 70
     1
102
RTVSPropertyOp10
 70
     1
102
RTVSPropertyOp11
 70
     1
102
RTVSPropertyOp12
 70
     1
102
RTVSPropertyOp13
 70
     1
102
RTVSPropertyOp14
 70
     1
102
RTVSPropertyOp15
 70
     1
102
RTVSPropertyOp16
 70
     1
102
RTVSPropertyOp17
 70
     1
102
RTVSPropertyOp18
 70
     1
102
RTVSPropertyOp19
 70
     1
102
RTVSPropertyOp20
 70
     1
102
RTVSPropertyOp21
 70
     1
102
RTVSPropertyOp22
 70
     1
102
RTVSPropertyOp23
 70
     1
102
RTVSPropertyOp24
 70
     1
102
RTVSPropertyOp25
 70
     1
102
RTVSPropertyOp26
 70
     1
102
RTVSPropertyOp27
 70
     1
102
RTVSPropertyOp28
 70
     1
102
RTVSPropertyOp29
 70
     1
102
RTVSPropertyOp30
 70
     1
102
RTVSPropertyOp31
 70
     1
102
RTVSPropertyOp32
 70
     1
102
RTVSPropertyOp33
 70
     1
102
RTVSPropertyOp34
 70
     1
102
RTVSPropertyOp35
 70
     1
102
RTVSPropertyOp36
 70
     1
102
RTVSPropertyOp37
 70
     1
102
RTVSPropertyOp38
 70
     1
102
RTVSPropertyOp39
 70
     1
102
RTVSPropertyOp40
 70
     1
102
RTVSPropertyOp41
 70
     1
102
RTVSPropertyOp42
 70
     1
102
RTVSPropertyOp43
 70
     1
102
RTVSPropertyOp44
 70
     1
102
RTVSPropertyOp45
 70
     1
102
RTVSPropertyOp46
 70
     1
102
RTVSPropertyOp47
 70
     1
102
RTVSPropertyOp48
 70
     1
102
RTVSPropertyOp49
 70
     1
102
RTVSPropertyOp50
 70
     1
102
RTVSPropertyOp51
 70
     0
102
RTVSPropertyOp52
 70
     0
102
RTVSPropertyOp53
 70
     1
102
RTVSPropertyOp54
 70
     1
102
RTVSPropertyOp55
 70
     1
102
RTVSPropertyOp56
 70
     1
102
RTVSPropertyOp57
 70
     1
102
RTVSPropertyOp58
 70
     1
102
RTVSPropertyOp59
 70
     1
102
RTVSPropertyOp60
 70
     1
102
RTVSPropertyOp61
 70
     1
102
RTVSPropertyOp62
 70
     1
  0
XRECORD
  5
19E0
102
{ACAD_REACTORS
330
19DF
102
}
330
19DF
100
AcDbXrecord
280
     1
102
RTVSPost2010Prop28
280
     0
102
RTVSPost2010PropOp28
 70
     1
102
RTVSPost2010Prop29
280
     1
102
RTVSPost2010PropOp29
 70
     1
102
RTVSPost2010Prop30
280
     1
102
RTVSPost2010PropOp30
 70
     1
102
RTVSPost2010Prop31
280
     0
102
RTVSPost2010PropOp31
 70
     1
102
RTVSPost2010Prop32
280
     0
102
RTVSPost2010PropOp32
 70
     1
102
RTVSPost2010Prop33
280
     0
102
RTVSPost2010PropOp33
 70
     1
102
RTVSPost2010Prop34
280
     0
102
RTVSPost2010PropOp34
 70
     1
102
RTVSPost2010Prop35
280
     0
102
RTVSPost2010PropOp35
 70
     1
102
RTVSPost2010Prop36
280
     0
102
RTVSPost2010PropOp36
 70
     1
102
RTVSPost2010Prop37
 90
       50
102
RTVSPost2010PropOp37
 70
     1
102
RTVSPost2010Prop38
140
0.0
102
RTVSPost2010PropOp38
 70
     1
102
RTVSPost2010Prop39
140
1.0
102
RTVSPost2010PropOp39
 70
     1
102
RTVSPost2010Prop40
 90
        0
102
RTVSPost2010PropOp40
 70
     1
102
RTVSPost2010Prop41ColorIndex
 90
       18
102
RTVSPost2010Prop41ColorRGB
 90
        0
102
RTVSPost2010PropOp41
 70
     1
102
RTVSPost2010Prop42
 90
       50
102
RTVSPost2010PropOp42
 70
     1
102
RTVSPost2010Prop43
 90
        3
102
RTVSPost2010PropOp43
 70
     1
102
RTVSPost2010Prop44ColorIndex
 90
        5
102
RTVSPost2010Prop44ColorRGB
 90
      255
102
RTVSPost2010PropOp44
 70
     1
102
RTVSPost2010Prop45
280
     0
102
RTVSPost2010PropOp45
 70
     1
102
RTVSPost2010Prop46
 90
       50
102
RTVSPost2010PropOp46
 70
     1
102
RTVSPost2010Prop47
 90
       50
102
RTVSPost2010PropOp47
 70
     1
102
RTVSPost2010Prop48
 90
       50
102
RTVSPost2010PropOp48
 70
     1
102
RTVSPost2010Prop49
280
     0
102
RTVSPost2010PropOp49
 70
     1
102
RTVSPost2010Prop50
 90
       50
102
RTVSPost2010PropOp50
 70
     1
102
RTVSPost2010Prop51ColorIndex
 90
      256
102
RTVSPost2010Prop51ColorRGB
 90
-16777216
102
RTVSPost2010PropOp51
 70
     0
102
RTVSPost2010Prop52
140
1.0
102
RTVSPost2010PropOp52
 70
     0
102
RTVSPost2010Prop53
 90
        2
102
RTVSPost2010PropOp53
 70
     1
102
RTVSPost2010Prop54
  1
strokes_ogs.tif
102
RTVSPost2010PropOp54
 70
     1
102
RTVSPost2010Prop55
280
     0
102
RTVSPost2010PropOp55
 70
     1
102
RTVSPost2010Prop56
140
1.0
102
RTVSPost2010PropOp56
 70
     1
102
RTVSPost2010Prop57
140
1.0
102
RTVSPost2010PropOp57
 70
     1
102
RTVSPropertyOp0
 70
     1
102
RTVSPropertyOp1
 70
     1
102
RTVSPropertyOp2
 70
     1
102
RTVSPropertyOp3
 70
     1
102
RTVSPropertyOp4
 70
     1
102
RTVSPropertyOp5
 70
     1
102
RTVSPropertyOp6
 70
     1
102
RTVSPropertyOp7
 70
     1
102
RTVSPropertyOp8
 70
     1
102
RTVSPropertyOp9
 70
     1
102
RTVSPropertyOp10
 70
     1
102
RTVSPropertyOp11
 70
     1
102
RTVSPropertyOp12
 70
     1
102
RTVSPropertyOp13
 70
     1
102
RTVSPropertyOp14
 70
     1
102
RTVSPropertyOp15
 70
     1
102
RTVSPropertyOp16
 70
     1
102
RTVSPropertyOp17
 70
     1
102
RTVSPropertyOp18
 70
     1
102
RTVSPropertyOp19
 70
     1
102
RTVSPropertyOp20
 70
     1
102
RTVSPropertyOp21
 70
     1
102
RTVSPropertyOp22
 70
     1
102
RTVSPropertyOp23
 70
     1
102
RTVSPropertyOp24
 70
     1
102
RTVSPropertyOp25
 70
     1
102
RTVSPropertyOp26
 70
     1
102
RTVSPropertyOp27
 70
     1
102
RTVSPropertyOp28
 70
     1
102
RTVSPropertyOp29
 70
     1
102
RTVSPropertyOp30
 70
     1
102
RTVSPropertyOp31
 70
     1
102
RTVSPropertyOp32
 70
     1
102
RTVSPropertyOp33
 70
     1
102
RTVSPropertyOp34
 70
     1
102
RTVSPropertyOp35
 70
     1
102
RTVSPropertyOp36
 70
     1
102
RTVSPropertyOp37
 70
     1
102
RTVSPropertyOp38
 70
     1
102
RTVSPropertyOp39
 70
     1
102
RTVSPropertyOp40
 70
     1
102
RTVSPropertyOp41
 70
     1
102
RTVSPropertyOp42
 70
     1
102
RTVSPropertyOp43
 70
     1
102
RTVSPropertyOp44
 70
     1
102
RTVSPropertyOp45
 70
     1
102
RTVSPropertyOp46
 70
     1
102
RTVSPropertyOp47
 70
     1
102
RTVSPropertyOp48
 70
     1
102
RTVSPropertyOp49
 70
     1
102
RTVSPropertyOp50
 70
     1
102
RTVSPropertyOp51
 70
     0
102
RTVSPropertyOp52
 70
     0
102
RTVSPropertyOp53
 70
     1
102
RTVSPropertyOp54
 70
     1
102
RTVSPropertyOp55
 70
     1
102
RTVSPropertyOp56
 70
     1
102
RTVSPropertyOp57
 70
     1
102
RTVSPropertyOp58
 70
     1
102
RTVSPropertyOp59
 70
     1
102
RTVSPropertyOp60
 70
     1
102
RTVSPropertyOp61
 70
     1
102
RTVSPropertyOp62
 70
     1
  0
XRECORD
  5
19E2
102
{ACAD_REACTORS
330
19E1
102
}
330
19E1
100
AcDbXrecord
280
     1
102
RTVSPost2010Prop28
280
     0
102
RTVSPost2010PropOp28
 70
     1
102
RTVSPost2010Prop29
280
     1
102
RTVSPost2010PropOp29
 70
     1
102
RTVSPost2010Prop30
280
     1
102
RTVSPost2010PropOp30
 70
     1
102
RTVSPost2010Prop31
280
     0
102
RTVSPost2010PropOp31
 70
     1
102
RTVSPost2010Prop32
280
     0
102
RTVSPost2010PropOp32
 70
     1
102
RTVSPost2010Prop33
280
     0
102
RTVSPost2010PropOp33
 70
     1
102
RTVSPost2010Prop34
280
     0
102
RTVSPost2010PropOp34
 70
     1
102
RTVSPost2010Prop35
280
     0
102
RTVSPost2010PropOp35
 70
     1
102
RTVSPost2010Prop36
280
     0
102
RTVSPost2010PropOp36
 70
     1
102
RTVSPost2010Prop37
 90
       50
102
RTVSPost2010PropOp37
 70
     1
102
RTVSPost2010Prop38
140
0.0
102
RTVSPost2010PropOp38
 70
     1
102
RTVSPost2010Prop39
140
1.0
102
RTVSPost2010PropOp39
 70
     1
102
RTVSPost2010Prop40
 90
        0
102
RTVSPost2010PropOp40
 70
     1
102
RTVSPost2010Prop41ColorIndex
 90
       18
102
RTVSPost2010Prop41ColorRGB
 90
        0
102
RTVSPost2010PropOp41
 70
     1
102
RTVSPost2010Prop42
 90
       50
102
RTVSPost2010PropOp42
 70
     1
102
RTVSPost2010Prop43
 90
        3
102
RTVSPost2010PropOp43
 70
     1
102
RTVSPost2010Prop44ColorIndex
 90
        5
102
RTVSPost2010Prop44ColorRGB
 90
      255
102
RTVSPost2010PropOp44
 70
     1
102
RTVSPost2010Prop45
280
     0
102
RTVSPost2010PropOp45
 70
     1
102
RTVSPost2010Prop46
 90
       50
102
RTVSPost2010PropOp46
 70
     1
102
RTVSPost2010Prop47
 90
       50
102
RTVSPost2010PropOp47
 70
     1
102
RTVSPost2010Prop48
 90
       50
102
RTVSPost2010PropOp48
 70
     1
102
RTVSPost2010Prop49
280
     0
102
RTVSPost2010PropOp49
 70
     1
102
RTVSPost2010Prop50
 90
       50
102
RTVSPost2010PropOp50
 70
     1
102
RTVSPost2010Prop51ColorIndex
 90
      256
102
RTVSPost2010Prop51ColorRGB
 90
-16777216
102
RTVSPost2010PropOp51
 70
     0
102
RTVSPost2010Prop52
140
1.0
102
RTVSPost2010PropOp52
 70
     0
102
RTVSPost2010Prop53
 90
        2
102
RTVSPost2010PropOp53
 70
     1
102
RTVSPost2010Prop54
  1
strokes_ogs.tif
102
RTVSPost2010PropOp54
 70
     1
102
RTVSPost2010Prop55
280
     0
102
RTVSPost2010PropOp55
 70
     1
102
RTVSPost2010Prop56
140
1.0
102
RTVSPost2010PropOp56
 70
     1
102
RTVSPost2010Prop57
140
1.0
102
RTVSPost2010PropOp57
 70
     1
102
RTVSPropertyOp0
 70
     1
102
RTVSPropertyOp1
 70
     1
102
RTVSPropertyOp2
 70
     1
102
RTVSPropertyOp3
 70
     1
102
RTVSPropertyOp4
 70
     1
102
RTVSPropertyOp5
 70
     1
102
RTVSPropertyOp6
 70
     1
102
RTVSPropertyOp7
 70
     1
102
RTVSPropertyOp8
 70
     1
102
RTVSPropertyOp9
 70
     1
102
RTVSPropertyOp10
 70
     1
102
RTVSPropertyOp11
 70
     1
102
RTVSPropertyOp12
 70
     1
102
RTVSPropertyOp13
 70
     1
102
RTVSPropertyOp14
 70
     1
102
RTVSPropertyOp15
 70
     1
102
RTVSPropertyOp16
 70
     1
102
RTVSPropertyOp17
 70
     1
102
RTVSPropertyOp18
 70
     1
102
RTVSPropertyOp19
 70
     1
102
RTVSPropertyOp20
 70
     1
102
RTVSPropertyOp21
 70
     1
102
RTVSPropertyOp22
 70
     1
102
RTVSPropertyOp23
 70
     1
102
RTVSPropertyOp24
 70
     1
102
RTVSPropertyOp25
 70
     1
102
RTVSPropertyOp26
 70
     1
102
RTVSPropertyOp27
 70
     1
102
RTVSPropertyOp28
 70
     1
102
RTVSPropertyOp29
 70
     1
102
RTVSPropertyOp30
 70
     1
102
RTVSPropertyOp31
 70
     1
102
RTVSPropertyOp32
 70
     1
102
RTVSPropertyOp33
 70
     1
102
RTVSPropertyOp34
 70
     1
102
RTVSPropertyOp35
 70
     1
102
RTVSPropertyOp36
 70
     1
102
RTVSPropertyOp37
 70
     1
102
RTVSPropertyOp38
 70
     1
102
RTVSPropertyOp39
 70
     1
102
RTVSPropertyOp40
 70
     1
102
RTVSPropertyOp41
 70
     1
102
RTVSPropertyOp42
 70
     1
102
RTVSPropertyOp43
 70
     1
102
RTVSPropertyOp44
 70
     1
102
RTVSPropertyOp45
 70
     1
102
RTVSPropertyOp46
 70
     1
102
RTVSPropertyOp47
 70
     1
102
RTVSPropertyOp48
 70
     1
102
RTVSPropertyOp49
 70
     1
102
RTVSPropertyOp50
 70
     1
102
RTVSPropertyOp51
 70
     0
102
RTVSPropertyOp52
 70
     0
102
RTVSPropertyOp53
 70
     1
102
RTVSPropertyOp54
 70
     1
102
RTVSPropertyOp55
 70
     1
102
RTVSPropertyOp56
 70
     1
102
RTVSPropertyOp57
 70
     1
102
RTVSPropertyOp58
 70
     1
102
RTVSPropertyOp59
 70
     1
102
RTVSPropertyOp60
 70
     1
102
RTVSPropertyOp61
 70
     1
102
RTVSPropertyOp62
 70
     1
  0
XRECORD
  5
19E4
102
{ACAD_REACTORS
330
19E3
102
}
330
19E3
100
AcDbXrecord
280
     1
102
RTVSPost2010Prop28
280
     0
102
RTVSPost2010PropOp28
 70
     1
102
RTVSPost2010Prop29
280
     1
102
RTVSPost2010PropOp29
 70
     1
102
RTVSPost2010Prop30
280
     1
102
RTVSPost2010PropOp30
 70
     1
102
RTVSPost2010Prop31
280
     0
102
RTVSPost2010PropOp31
 70
     1
102
RTVSPost2010Prop32
280
     0
102
RTVSPost2010PropOp32
 70
     1
102
RTVSPost2010Prop33
280
     0
102
RTVSPost2010PropOp33
 70
     1
102
RTVSPost2010Prop34
280
     0
102
RTVSPost2010PropOp34
 70
     1
102
RTVSPost2010Prop35
280
     0
102
RTVSPost2010PropOp35
 70
     1
102
RTVSPost2010Prop36
280
     0
102
RTVSPost2010PropOp36
 70
     1
102
RTVSPost2010Prop37
 90
       50
102
RTVSPost2010PropOp37
 70
     1
102
RTVSPost2010Prop38
140
0.0
102
RTVSPost2010PropOp38
 70
     1
102
RTVSPost2010Prop39
140
1.0
102
RTVSPost2010PropOp39
 70
     1
102
RTVSPost2010Prop40
 90
        0
102
RTVSPost2010PropOp40
 70
     1
102
RTVSPost2010Prop41ColorIndex
 90
       18
102
RTVSPost2010Prop41ColorRGB
 90
        0
102
RTVSPost2010PropOp41
 70
     1
102
RTVSPost2010Prop42
 90
       50
102
RTVSPost2010PropOp42
 70
     1
102
RTVSPost2010Prop43
 90
        3
102
RTVSPost2010PropOp43
 70
     1
102
RTVSPost2010Prop44ColorIndex
 90
        5
102
RTVSPost2010Prop44ColorRGB
 90
      255
102
RTVSPost2010PropOp44
 70
     1
102
RTVSPost2010Prop45
280
     0
102
RTVSPost2010PropOp45
 70
     1
102
RTVSPost2010Prop46
 90
       50
102
RTVSPost2010PropOp46
 70
     1
102
RTVSPost2010Prop47
 90
       50
102
RTVSPost2010PropOp47
 70
     1
102
RTVSPost2010Prop48
 90
       50
102
RTVSPost2010PropOp48
 70
     1
102
RTVSPost2010Prop49
280
     0
102
RTVSPost2010PropOp49
 70
     1
102
RTVSPost2010Prop50
 90
       50
102
RTVSPost2010PropOp50
 70
     1
102
RTVSPost2010Prop51ColorIndex
 90
      256
102
RTVSPost2010Prop51ColorRGB
 90
-16777216
102
RTVSPost2010PropOp51
 70
     0
102
RTVSPost2010Prop52
140
1.0
102
RTVSPost2010PropOp52
 70
     0
102
RTVSPost2010Prop53
 90
        2
102
RTVSPost2010PropOp53
 70
     1
102
RTVSPost2010Prop54
  1
strokes_ogs.tif
102
RTVSPost2010PropOp54
 70
     1
102
RTVSPost2010Prop55
280
     0
102
RTVSPost2010PropOp55
 70
     1
102
RTVSPost2010Prop56
140
1.0
102
RTVSPost2010PropOp56
 70
     1
102
RTVSPost2010Prop57
140
1.0
102
RTVSPost2010PropOp57
 70
     1
102
RTVSPropertyOp0
 70
     1
102
RTVSPropertyOp1
 70
     1
102
RTVSPropertyOp2
 70
     1
102
RTVSPropertyOp3
 70
     1
102
RTVSPropertyOp4
 70
     1
102
RTVSPropertyOp5
 70
     1
102
RTVSPropertyOp6
 70
     1
102
RTVSPropertyOp7
 70
     1
102
RTVSPropertyOp8
 70
     1
102
RTVSPropertyOp9
 70
     1
102
RTVSPropertyOp10
 70
     1
102
RTVSPropertyOp11
 70
     1
102
RTVSPropertyOp12
 70
     1
102
RTVSPropertyOp13
 70
     1
102
RTVSPropertyOp14
 70
     1
102
RTVSPropertyOp15
 70
     1
102
RTVSPropertyOp16
 70
     1
102
RTVSPropertyOp17
 70
     1
102
RTVSPropertyOp18
 70
     1
102
RTVSPropertyOp19
 70
     1
102
RTVSPropertyOp20
 70
     1
102
RTVSPropertyOp21
 70
     1
102
RTVSPropertyOp22
 70
     1
102
RTVSPropertyOp23
 70
     1
102
RTVSPropertyOp24
 70
     1
102
RTVSPropertyOp25
 70
     1
102
RTVSPropertyOp26
 70
     1
102
RTVSPropertyOp27
 70
     1
102
RTVSPropertyOp28
 70
     1
102
RTVSPropertyOp29
 70
     1
102
RTVSPropertyOp30
 70
     1
102
RTVSPropertyOp31
 70
     1
102
RTVSPropertyOp32
 70
     1
102
RTVSPropertyOp33
 70
     1
102
RTVSPropertyOp34
 70
     1
102
RTVSPropertyOp35
 70
     1
102
RTVSPropertyOp36
 70
     1
102
RTVSPropertyOp37
 70
     1
102
RTVSPropertyOp38
 70
     1
102
RTVSPropertyOp39
 70
     1
102
RTVSPropertyOp40
 70
     1
102
RTVSPropertyOp41
 70
     1
102
RTVSPropertyOp42
 70
     1
102
RTVSPropertyOp43
 70
     1
102
RTVSPropertyOp44
 70
     1
102
RTVSPropertyOp45
 70
     1
102
RTVSPropertyOp46
 70
     1
102
RTVSPropertyOp47
 70
     1
102
RTVSPropertyOp48
 70
     1
102
RTVSPropertyOp49
 70
     1
102
RTVSPropertyOp50
 70
     1
102
RTVSPropertyOp51
 70
     0
102
RTVSPropertyOp52
 70
     0
102
RTVSPropertyOp53
 70
     1
102
RTVSPropertyOp54
 70
     1
102
RTVSPropertyOp55
 70
     1
102
RTVSPropertyOp56
 70
     1
102
RTVSPropertyOp57
 70
     1
102
RTVSPropertyOp58
 70
     1
102
RTVSPropertyOp59
 70
     1
102
RTVSPropertyOp60
 70
     1
102
RTVSPropertyOp61
 70
     1
102
RTVSPropertyOp62
 70
     1
  0
XRECORD
  5
19E6
102
{ACAD_REACTORS
330
19E5
102
}
330
19E5
100
AcDbXrecord
280
     1
102
RTVSPost2010Prop28
280
     0
102
RTVSPost2010PropOp28
 70
     1
102
RTVSPost2010Prop29
280
     1
102
RTVSPost2010PropOp29
 70
     1
102
RTVSPost2010Prop30
280
     1
102
RTVSPost2010PropOp30
 70
     1
102
RTVSPost2010Prop31
280
     0
102
RTVSPost2010PropOp31
 70
     1
102
RTVSPost2010Prop32
280
     0
102
RTVSPost2010PropOp32
 70
     1
102
RTVSPost2010Prop33
280
     0
102
RTVSPost2010PropOp33
 70
     1
102
RTVSPost2010Prop34
280
     0
102
RTVSPost2010PropOp34
 70
     1
102
RTVSPost2010Prop35
280
     0
102
RTVSPost2010PropOp35
 70
     1
102
RTVSPost2010Prop36
280
     0
102
RTVSPost2010PropOp36
 70
     1
102
RTVSPost2010Prop37
 90
       50
102
RTVSPost2010PropOp37
 70
     1
102
RTVSPost2010Prop38
140
0.0
102
RTVSPost2010PropOp38
 70
     1
102
RTVSPost2010Prop39
140
1.0
102
RTVSPost2010PropOp39
 70
     1
102
RTVSPost2010Prop40
 90
        0
102
RTVSPost2010PropOp40
 70
     1
102
RTVSPost2010Prop41ColorIndex
 90
       18
102
RTVSPost2010Prop41ColorRGB
 90
        0
102
RTVSPost2010PropOp41
 70
     1
102
RTVSPost2010Prop42
 90
       50
102
RTVSPost2010PropOp42
 70
     1
102
RTVSPost2010Prop43
 90
        3
102
RTVSPost2010PropOp43
 70
     1
102
RTVSPost2010Prop44ColorIndex
 90
        5
102
RTVSPost2010Prop44ColorRGB
 90
      255
102
RTVSPost2010PropOp44
 70
     1
102
RTVSPost2010Prop45
280
     0
102
RTVSPost2010PropOp45
 70
     1
102
RTVSPost2010Prop46
 90
       50
102
RTVSPost2010PropOp46
 70
     1
102
RTVSPost2010Prop47
 90
       50
102
RTVSPost2010PropOp47
 70
     1
102
RTVSPost2010Prop48
 90
       50
102
RTVSPost2010PropOp48
 70
     1
102
RTVSPost2010Prop49
280
     0
102
RTVSPost2010PropOp49
 70
     1
102
RTVSPost2010Prop50
 90
       50
102
RTVSPost2010PropOp50
 70
     1
102
RTVSPost2010Prop51ColorIndex
 90
      256
102
RTVSPost2010Prop51ColorRGB
 90
-16777216
102
RTVSPost2010PropOp51
 70
     0
102
RTVSPost2010Prop52
140
1.0
102
RTVSPost2010PropOp52
 70
     0
102
RTVSPost2010Prop53
 90
        2
102
RTVSPost2010PropOp53
 70
     1
102
RTVSPost2010Prop54
  1
strokes_ogs.tif
102
RTVSPost2010PropOp54
 70
     1
102
RTVSPost2010Prop55
280
     0
102
RTVSPost2010PropOp55
 70
     1
102
RTVSPost2010Prop56
140
1.0
102
RTVSPost2010PropOp56
 70
     1
102
RTVSPost2010Prop57
140
1.0
102
RTVSPost2010PropOp57
 70
     1
102
RTVSPropertyOp0
 70
     1
102
RTVSPropertyOp1
 70
     1
102
RTVSPropertyOp2
 70
     1
102
RTVSPropertyOp3
 70
     1
102
RTVSPropertyOp4
 70
     1
102
RTVSPropertyOp5
 70
     1
102
RTVSPropertyOp6
 70
     1
102
RTVSPropertyOp7
 70
     1
102
RTVSPropertyOp8
 70
     1
102
RTVSPropertyOp9
 70
     1
102
RTVSPropertyOp10
 70
     1
102
RTVSPropertyOp11
 70
     1
102
RTVSPropertyOp12
 70
     1
102
RTVSPropertyOp13
 70
     1
102
RTVSPropertyOp14
 70
     1
102
RTVSPropertyOp15
 70
     1
102
RTVSPropertyOp16
 70
     1
102
RTVSPropertyOp17
 70
     1
102
RTVSPropertyOp18
 70
     1
102
RTVSPropertyOp19
 70
     1
102
RTVSPropertyOp20
 70
     1
102
RTVSPropertyOp21
 70
     1
102
RTVSPropertyOp22
 70
     1
102
RTVSPropertyOp23
 70
     1
102
RTVSPropertyOp24
 70
     1
102
RTVSPropertyOp25
 70
     1
102
RTVSPropertyOp26
 70
     1
102
RTVSPropertyOp27
 70
     1
102
RTVSPropertyOp28
 70
     1
102
RTVSPropertyOp29
 70
     1
102
RTVSPropertyOp30
 70
     1
102
RTVSPropertyOp31
 70
     1
102
RTVSPropertyOp32
 70
     1
102
RTVSPropertyOp33
 70
     1
102
RTVSPropertyOp34
 70
     1
102
RTVSPropertyOp35
 70
     1
102
RTVSPropertyOp36
 70
     1
102
RTVSPropertyOp37
 70
     1
102
RTVSPropertyOp38
 70
     1
102
RTVSPropertyOp39
 70
     1
102
RTVSPropertyOp40
 70
     1
102
RTVSPropertyOp41
 70
     1
102
RTVSPropertyOp42
 70
     1
102
RTVSPropertyOp43
 70
     1
102
RTVSPropertyOp44
 70
     1
102
RTVSPropertyOp45
 70
     1
102
RTVSPropertyOp46
 70
     1
102
RTVSPropertyOp47
 70
     1
102
RTVSPropertyOp48
 70
     1
102
RTVSPropertyOp49
 70
     1
102
RTVSPropertyOp50
 70
     1
102
RTVSPropertyOp51
 70
     0
102
RTVSPropertyOp52
 70
     0
102
RTVSPropertyOp53
 70
     1
102
RTVSPropertyOp54
 70
     1
102
RTVSPropertyOp55
 70
     1
102
RTVSPropertyOp56
 70
     1
102
RTVSPropertyOp57
 70
     1
102
RTVSPropertyOp58
 70
     1
102
RTVSPropertyOp59
 70
     1
102
RTVSPropertyOp60
 70
     1
102
RTVSPropertyOp61
 70
     1
102
RTVSPropertyOp62
 70
     1
  0
XRECORD
  5
1A11
102
{ACAD_REACTORS
330
1A10
102
}
330
1A10
100
AcDbXrecord
280
     1
102
RTVSPost2010Prop28
280
     0
102
RTVSPost2010PropOp28
 70
     1
102
RTVSPost2010Prop29
280
     1
102
RTVSPost2010PropOp29
 70
     1
102
RTVSPost2010Prop30
280
     1
102
RTVSPost2010PropOp30
 70
     1
102
RTVSPost2010Prop31
280
     0
102
RTVSPost2010PropOp31
 70
     1
102
RTVSPost2010Prop32
280
     0
102
RTVSPost2010PropOp32
 70
     1
102
RTVSPost2010Prop33
280
     0
102
RTVSPost2010PropOp33
 70
     1
102
RTVSPost2010Prop34
280
     0
102
RTVSPost2010PropOp34
 70
     1
102
RTVSPost2010Prop35
280
     0
102
RTVSPost2010PropOp35
 70
     1
102
RTVSPost2010Prop36
280
     0
102
RTVSPost2010PropOp36
 70
     1
102
RTVSPost2010Prop37
 90
       50
102
RTVSPost2010PropOp37
 70
     1
102
RTVSPost2010Prop38
140
0.0
102
RTVSPost2010PropOp38
 70
     1
102
RTVSPost2010Prop39
140
1.0
102
RTVSPost2010PropOp39
 70
     1
102
RTVSPost2010Prop40
 90
        0
102
RTVSPost2010PropOp40
 70
     1
102
RTVSPost2010Prop41ColorIndex
 90
       18
102
RTVSPost2010Prop41ColorRGB
 90
        0
102
RTVSPost2010PropOp41
 70
     1
102
RTVSPost2010Prop42
 90
       50
102
RTVSPost2010PropOp42
 70
     1
102
RTVSPost2010Prop43
 90
        3
102
RTVSPost2010PropOp43
 70
     1
102
RTVSPost2010Prop44ColorIndex
 90
        5
102
RTVSPost2010Prop44ColorRGB
 90
      255
102
RTVSPost2010PropOp44
 70
     1
102
RTVSPost2010Prop45
280
     0
102
RTVSPost2010PropOp45
 70
     1
102
RTVSPost2010Prop46
 90
       50
102
RTVSPost2010PropOp46
 70
     1
102
RTVSPost2010Prop47
 90
       50
102
RTVSPost2010PropOp47
 70
     1
102
RTVSPost2010Prop48
 90
       50
102
RTVSPost2010PropOp48
 70
     1
102
RTVSPost2010Prop49
280
     0
102
RTVSPost2010PropOp49
 70
     1
102
RTVSPost2010Prop50
 90
       50
102
RTVSPost2010PropOp50
 70
     1
102
RTVSPost2010Prop51ColorIndex
 90
      256
102
RTVSPost2010Prop51ColorRGB
 90
-16777216
102
RTVSPost2010PropOp51
 70
     0
102
RTVSPost2010Prop52
140
1.0
102
RTVSPost2010PropOp52
 70
     0
102
RTVSPost2010Prop53
 90
        2
102
RTVSPost2010PropOp53
 70
     1
102
RTVSPost2010Prop54
  1
strokes_ogs.tif
102
RTVSPost2010PropOp54
 70
     1
102
RTVSPost2010Prop55
280
     0
102
RTVSPost2010PropOp55
 70
     1
102
RTVSPost2010Prop56
140
1.0
102
RTVSPost2010PropOp56
 70
     1
102
RTVSPost2010Prop57
140
1.0
102
RTVSPost2010PropOp57
 70
     1
102
RTVSPropertyOp0
 70
     1
102
RTVSPropertyOp1
 70
     1
102
RTVSPropertyOp2
 70
     1
102
RTVSPropertyOp3
 70
     1
102
RTVSPropertyOp4
 70
     1
102
RTVSPropertyOp5
 70
     1
102
RTVSPropertyOp6
 70
     1
102
RTVSPropertyOp7
 70
     1
102
RTVSPropertyOp8
 70
     1
102
RTVSPropertyOp9
 70
     1
102
RTVSPropertyOp10
 70
     1
102
RTVSPropertyOp11
 70
     1
102
RTVSPropertyOp12
 70
     1
102
RTVSPropertyOp13
 70
     1
102
RTVSPropertyOp14
 70
     1
102
RTVSPropertyOp15
 70
     1
102
RTVSPropertyOp16
 70
     1
102
RTVSPropertyOp17
 70
     1
102
RTVSPropertyOp18
 70
     1
102
RTVSPropertyOp19
 70
     1
102
RTVSPropertyOp20
 70
     1
102
RTVSPropertyOp21
 70
     1
102
RTVSPropertyOp22
 70
     1
102
RTVSPropertyOp23
 70
     1
102
RTVSPropertyOp24
 70
     1
102
RTVSPropertyOp25
 70
     1
102
RTVSPropertyOp26
 70
     1
102
RTVSPropertyOp27
 70
     1
102
RTVSPropertyOp28
 70
     1
102
RTVSPropertyOp29
 70
     1
102
RTVSPropertyOp30
 70
     1
102
RTVSPropertyOp31
 70
     1
102
RTVSPropertyOp32
 70
     1
102
RTVSPropertyOp33
 70
     1
102
RTVSPropertyOp34
 70
     1
102
RTVSPropertyOp35
 70
     1
102
RTVSPropertyOp36
 70
     1
102
RTVSPropertyOp37
 70
     1
102
RTVSPropertyOp38
 70
     1
102
RTVSPropertyOp39
 70
     1
102
RTVSPropertyOp40
 70
     1
102
RTVSPropertyOp41
 70
     1
102
RTVSPropertyOp42
 70
     1
102
RTVSPropertyOp43
 70
     1
102
RTVSPropertyOp44
 70
     1
102
RTVSPropertyOp45
 70
     1
102
RTVSPropertyOp46
 70
     1
102
RTVSPropertyOp47
 70
     1
102
RTVSPropertyOp48
 70
     1
102
RTVSPropertyOp49
 70
     1
102
RTVSPropertyOp50
 70
     1
102
RTVSPropertyOp51
 70
     0
102
RTVSPropertyOp52
 70
     0
102
RTVSPropertyOp53
 70
     1
102
RTVSPropertyOp54
 70
     1
102
RTVSPropertyOp55
 70
     1
102
RTVSPropertyOp56
 70
     1
102
RTVSPropertyOp57
 70
     1
102
RTVSPropertyOp58
 70
     1
102
RTVSPropertyOp59
 70
     1
102
RTVSPropertyOp60
 70
     1
102
RTVSPropertyOp61
 70
     1
102
RTVSPropertyOp62
 70
     1
  0
XRECORD
  5
1A09
102
{ACAD_REACTORS
330
1A08
102
}
330
1A08
100
AcDbXrecord
280
     1
102
RTVSPost2010Prop28
280
     0
102
RTVSPost2010PropOp28
 70
     1
102
RTVSPost2010Prop29
280
     1
102
RTVSPost2010PropOp29
 70
     1
102
RTVSPost2010Prop30
280
     1
102
RTVSPost2010PropOp30
 70
     1
102
RTVSPost2010Prop31
280
     0
102
RTVSPost2010PropOp31
 70
     1
102
RTVSPost2010Prop32
280
     0
102
RTVSPost2010PropOp32
 70
     1
102
RTVSPost2010Prop33
280
     0
102
RTVSPost2010PropOp33
 70
     1
102
RTVSPost2010Prop34
280
     0
102
RTVSPost2010PropOp34
 70
     1
102
RTVSPost2010Prop35
280
     0
102
RTVSPost2010PropOp35
 70
     1
102
RTVSPost2010Prop36
280
     0
102
RTVSPost2010PropOp36
 70
     1
102
RTVSPost2010Prop37
 90
       50
102
RTVSPost2010PropOp37
 70
     1
102
RTVSPost2010Prop38
140
0.0
102
RTVSPost2010PropOp38
 70
     1
102
RTVSPost2010Prop39
140
1.0
102
RTVSPost2010PropOp39
 70
     1
102
RTVSPost2010Prop40
 90
        0
102
RTVSPost2010PropOp40
 70
     1
102
RTVSPost2010Prop41ColorIndex
 90
       18
102
RTVSPost2010Prop41ColorRGB
 90
        0
102
RTVSPost2010PropOp41
 70
     1
102
RTVSPost2010Prop42
 90
       50
102
RTVSPost2010PropOp42
 70
     1
102
RTVSPost2010Prop43
 90
        3
102
RTVSPost2010PropOp43
 70
     1
102
RTVSPost2010Prop44ColorIndex
 90
        5
102
RTVSPost2010Prop44ColorRGB
 90
      255
102
RTVSPost2010PropOp44
 70
     1
102
RTVSPost2010Prop45
280
     0
102
RTVSPost2010PropOp45
 70
     1
102
RTVSPost2010Prop46
 90
       50
102
RTVSPost2010PropOp46
 70
     1
102
RTVSPost2010Prop47
 90
       50
102
RTVSPost2010PropOp47
 70
     1
102
RTVSPost2010Prop48
 90
       50
102
RTVSPost2010PropOp48
 70
     1
102
RTVSPost2010Prop49
280
     0
102
RTVSPost2010PropOp49
 70
     1
102
RTVSPost2010Prop50
 90
       50
102
RTVSPost2010PropOp50
 70
     1
102
RTVSPost2010Prop51ColorIndex
 90
      256
102
RTVSPost2010Prop51ColorRGB
 90
-16777216
102
RTVSPost2010PropOp51
 70
     0
102
RTVSPost2010Prop52
140
1.0
102
RTVSPost2010PropOp52
 70
     0
102
RTVSPost2010Prop53
 90
        2
102
RTVSPost2010PropOp53
 70
     1
102
RTVSPost2010Prop54
  1
strokes_ogs.tif
102
RTVSPost2010PropOp54
 70
     1
102
RTVSPost2010Prop55
280
     0
102
RTVSPost2010PropOp55
 70
     1
102
RTVSPost2010Prop56
140
1.0
102
RTVSPost2010PropOp56
 70
     1
102
RTVSPost2010Prop57
140
1.0
102
RTVSPost2010PropOp57
 70
     1
102
RTVSPropertyOp0
 70
     0
102
RTVSPropertyOp1
 70
     0
102
RTVSPropertyOp2
 70
     0
102
RTVSPropertyOp3
 70
     0
102
RTVSPropertyOp4
 70
     0
102
RTVSPropertyOp5
 70
     0
102
RTVSPropertyOp6
 70
     0
102
RTVSPropertyOp7
 70
     0
102
RTVSPropertyOp8
 70
     0
102
RTVSPropertyOp9
 70
     0
102
RTVSPropertyOp10
 70
     0
102
RTVSPropertyOp11
 70
     0
102
RTVSPropertyOp12
 70
     0
102
RTVSPropertyOp13
 70
     0
102
RTVSPropertyOp14
 70
     2
102
RTVSPropertyOp15
 70
     0
102
RTVSPropertyOp16
 70
     0
102
RTVSPropertyOp17
 70
     0
102
RTVSPropertyOp18
 70
     0
102
RTVSPropertyOp19
 70
     0
102
RTVSPropertyOp20
 70
     0
102
RTVSPropertyOp21
 70
     0
102
RTVSPropertyOp22
 70
     0
102
RTVSPropertyOp23
 70
     0
102
RTVSPropertyOp24
 70
     0
102
RTVSPropertyOp25
 70
     0
102
RTVSPropertyOp26
 70
     0
102
RTVSPropertyOp27
 70
     0
102
RTVSPropertyOp28
 70
     1
102
RTVSPropertyOp29
 70
     1
102
RTVSPropertyOp30
 70
     1
102
RTVSPropertyOp31
 70
     1
102
RTVSPropertyOp32
 70
     1
102
RTVSPropertyOp33
 70
     1
102
RTVSPropertyOp34
 70
     1
102
RTVSPropertyOp35
 70
     1
102
RTVSPropertyOp36
 70
     1
102
RTVSPropertyOp37
 70
     1
102
RTVSPropertyOp38
 70
     1
102
RTVSPropertyOp39
 70
     1
102
RTVSPropertyOp40
 70
     1
102
RTVSPropertyOp41
 70
     1
102
RTVSPropertyOp42
 70
     1
102
RTVSPropertyOp43
 70
     1
102
RTVSPropertyOp44
 70
     1
102
RTVSPropertyOp45
 70
     1
102
RTVSPropertyOp46
 70
     1
102
RTVSPropertyOp47
 70
     1
102
RTVSPropertyOp48
 70
     1
102
RTVSPropertyOp49
 70
     1
102
RTVSPropertyOp50
 70
     1
102
RTVSPropertyOp51
 70
     0
102
RTVSPropertyOp52
 70
     0
102
RTVSPropertyOp53
 70
     1
102
RTVSPropertyOp54
 70
     1
102
RTVSPropertyOp55
 70
     1
102
RTVSPropertyOp56
 70
     1
102
RTVSPropertyOp57
 70
     1
102
RTVSPropertyOp58
 70
     1
102
RTVSPropertyOp59
 70
     1
102
RTVSPropertyOp60
 70
     1
102
RTVSPropertyOp61
 70
     1
102
RTVSPropertyOp62
 70
     1
  0
XRECORD
  5
19FA
102
{ACAD_REACTORS
330
19F9
102
}
330
19F9
100
AcDbXrecord
280
     1
102
RTVSPost2010Prop28
280
     0
102
RTVSPost2010PropOp28
 70
     1
102
RTVSPost2010Prop29
280
     1
102
RTVSPost2010PropOp29
 70
     1
102
RTVSPost2010Prop30
280
     1
102
RTVSPost2010PropOp30
 70
     1
102
RTVSPost2010Prop31
280
     0
102
RTVSPost2010PropOp31
 70
     1
102
RTVSPost2010Prop32
280
     0
102
RTVSPost2010PropOp32
 70
     1
102
RTVSPost2010Prop33
280
     0
102
RTVSPost2010PropOp33
 70
     1
102
RTVSPost2010Prop34
280
     0
102
RTVSPost2010PropOp34
 70
     1
102
RTVSPost2010Prop35
280
     0
102
RTVSPost2010PropOp35
 70
     1
102
RTVSPost2010Prop36
280
     0
102
RTVSPost2010PropOp36
 70
     1
102
RTVSPost2010Prop37
 90
       50
102
RTVSPost2010PropOp37
 70
     1
102
RTVSPost2010Prop38
140
0.0
102
RTVSPost2010PropOp38
 70
     1
102
RTVSPost2010Prop39
140
1.0
102
RTVSPost2010PropOp39
 70
     1
102
RTVSPost2010Prop40
 90
        0
102
RTVSPost2010PropOp40
 70
     1
102
RTVSPost2010Prop41ColorIndex
 90
       18
102
RTVSPost2010Prop41ColorRGB
 90
        0
102
RTVSPost2010PropOp41
 70
     1
102
RTVSPost2010Prop42
 90
       50
102
RTVSPost2010PropOp42
 70
     1
102
RTVSPost2010Prop43
 90
        3
102
RTVSPost2010PropOp43
 70
     1
102
RTVSPost2010Prop44ColorIndex
 90
        5
102
RTVSPost2010Prop44ColorRGB
 90
      255
102
RTVSPost2010PropOp44
 70
     1
102
RTVSPost2010Prop45
280
     0
102
RTVSPost2010PropOp45
 70
     1
102
RTVSPost2010Prop46
 90
       50
102
RTVSPost2010PropOp46
 70
     1
102
RTVSPost2010Prop47
 90
       50
102
RTVSPost2010PropOp47
 70
     1
102
RTVSPost2010Prop48
 90
       50
102
RTVSPost2010PropOp48
 70
     1
102
RTVSPost2010Prop49
280
     0
102
RTVSPost2010PropOp49
 70
     1
102
RTVSPost2010Prop50
 90
       50
102
RTVSPost2010PropOp50
 70
     1
102
RTVSPost2010Prop51ColorIndex
 90
      256
102
RTVSPost2010Prop51ColorRGB
 90
-16777216
102
RTVSPost2010PropOp51
 70
     0
102
RTVSPost2010Prop52
140
1.0
102
RTVSPost2010PropOp52
 70
     0
102
RTVSPost2010Prop53
 90
        2
102
RTVSPost2010PropOp53
 70
     1
102
RTVSPost2010Prop54
  1
strokes_ogs.tif
102
RTVSPost2010PropOp54
 70
     1
102
RTVSPost2010Prop55
280
     0
102
RTVSPost2010PropOp55
 70
     1
102
RTVSPost2010Prop56
140
1.0
102
RTVSPost2010PropOp56
 70
     1
102
RTVSPost2010Prop57
140
1.0
102
RTVSPost2010PropOp57
 70
     1
102
RTVSPropertyOp0
 70
     1
102
RTVSPropertyOp1
 70
     1
102
RTVSPropertyOp2
 70
     1
102
RTVSPropertyOp3
 70
     1
102
RTVSPropertyOp4
 70
     1
102
RTVSPropertyOp5
 70
     1
102
RTVSPropertyOp6
 70
     1
102
RTVSPropertyOp7
 70
     1
102
RTVSPropertyOp8
 70
     1
102
RTVSPropertyOp9
 70
     1
102
RTVSPropertyOp10
 70
     1
102
RTVSPropertyOp11
 70
     1
102
RTVSPropertyOp12
 70
     1
102
RTVSPropertyOp13
 70
     1
102
RTVSPropertyOp14
 70
     1
102
RTVSPropertyOp15
 70
     1
102
RTVSPropertyOp16
 70
     1
102
RTVSPropertyOp17
 70
     1
102
RTVSPropertyOp18
 70
     1
102
RTVSPropertyOp19
 70
     1
102
RTVSPropertyOp20
 70
     1
102
RTVSPropertyOp21
 70
     1
102
RTVSPropertyOp22
 70
     1
102
RTVSPropertyOp23
 70
     1
102
RTVSPropertyOp24
 70
     1
102
RTVSPropertyOp25
 70
     1
102
RTVSPropertyOp26
 70
     1
102
RTVSPropertyOp27
 70
     1
102
RTVSPropertyOp28
 70
     1
102
RTVSPropertyOp29
 70
     1
102
RTVSPropertyOp30
 70
     1
102
RTVSPropertyOp31
 70
     1
102
RTVSPropertyOp32
 70
     1
102
RTVSPropertyOp33
 70
     1
102
RTVSPropertyOp34
 70
     1
102
RTVSPropertyOp35
 70
     1
102
RTVSPropertyOp36
 70
     1
102
RTVSPropertyOp37
 70
     1
102
RTVSPropertyOp38
 70
     1
102
RTVSPropertyOp39
 70
     1
102
RTVSPropertyOp40
 70
     1
102
RTVSPropertyOp41
 70
     1
102
RTVSPropertyOp42
 70
     1
102
RTVSPropertyOp43
 70
     1
102
RTVSPropertyOp44
 70
     1
102
RTVSPropertyOp45
 70
     1
102
RTVSPropertyOp46
 70
     1
102
RTVSPropertyOp47
 70
     1
102
RTVSPropertyOp48
 70
     1
102
RTVSPropertyOp49
 70
     1
102
RTVSPropertyOp50
 70
     1
102
RTVSPropertyOp51
 70
     0
102
RTVSPropertyOp52
 70
     0
102
RTVSPropertyOp53
 70
     1
102
RTVSPropertyOp54
 70
     1
102
RTVSPropertyOp55
 70
     1
102
RTVSPropertyOp56
 70
     1
102
RTVSPropertyOp57
 70
     1
102
RTVSPropertyOp58
 70
     1
102
RTVSPropertyOp59
 70
     1
102
RTVSPropertyOp60
 70
     1
102
RTVSPropertyOp61
 70
     1
102
RTVSPropertyOp62
 70
     1
  0
XRECORD
  5
1A0B
102
{ACAD_REACTORS
330
1A0A
102
}
330
1A0A
100
AcDbXrecord
280
     1
102
RTVSPost2010Prop28
280
     0
102
RTVSPost2010PropOp28
 70
     1
102
RTVSPost2010Prop29
280
     1
102
RTVSPost2010PropOp29
 70
     1
102
RTVSPost2010Prop30
280
     1
102
RTVSPost2010PropOp30
 70
     1
102
RTVSPost2010Prop31
280
     0
102
RTVSPost2010PropOp31
 70
     1
102
RTVSPost2010Prop32
280
     0
102
RTVSPost2010PropOp32
 70
     1
102
RTVSPost2010Prop33
280
     0
102
RTVSPost2010PropOp33
 70
     1
102
RTVSPost2010Prop34
280
     0
102
RTVSPost2010PropOp34
 70
     1
102
RTVSPost2010Prop35
280
     0
102
RTVSPost2010PropOp35
 70
     1
102
RTVSPost2010Prop36
280
     0
102
RTVSPost2010PropOp36
 70
     1
102
RTVSPost2010Prop37
 90
       50
102
RTVSPost2010PropOp37
 70
     1
102
RTVSPost2010Prop38
140
0.0
102
RTVSPost2010PropOp38
 70
     1
102
RTVSPost2010Prop39
140
1.0
102
RTVSPost2010PropOp39
 70
     1
102
RTVSPost2010Prop40
 90
        0
102
RTVSPost2010PropOp40
 70
     1
102
RTVSPost2010Prop41ColorIndex
 90
       18
102
RTVSPost2010Prop41ColorRGB
 90
        0
102
RTVSPost2010PropOp41
 70
     1
102
RTVSPost2010Prop42
 90
       50
102
RTVSPost2010PropOp42
 70
     1
102
RTVSPost2010Prop43
 90
        3
102
RTVSPost2010PropOp43
 70
     1
102
RTVSPost2010Prop44ColorIndex
 90
        5
102
RTVSPost2010Prop44ColorRGB
 90
      255
102
RTVSPost2010PropOp44
 70
     1
102
RTVSPost2010Prop45
280
     0
102
RTVSPost2010PropOp45
 70
     1
102
RTVSPost2010Prop46
 90
       50
102
RTVSPost2010PropOp46
 70
     1
102
RTVSPost2010Prop47
 90
       50
102
RTVSPost2010PropOp47
 70
     1
102
RTVSPost2010Prop48
 90
       50
102
RTVSPost2010PropOp48
 70
     1
102
RTVSPost2010Prop49
280
     0
102
RTVSPost2010PropOp49
 70
     1
102
RTVSPost2010Prop50
 90
       50
102
RTVSPost2010PropOp50
 70
     1
102
RTVSPost2010Prop51ColorIndex
 90
      256
102
RTVSPost2010Prop51ColorRGB
 90
-16777216
102
RTVSPost2010PropOp51
 70
     0
102
RTVSPost2010Prop52
140
1.0
102
RTVSPost2010PropOp52
 70
     0
102
RTVSPost2010Prop53
 90
        2
102
RTVSPost2010PropOp53
 70
     1
102
RTVSPost2010Prop54
  1
strokes_ogs.tif
102
RTVSPost2010PropOp54
 70
     1
102
RTVSPost2010Prop55
280
     0
102
RTVSPost2010PropOp55
 70
     1
102
RTVSPost2010Prop56
140
1.0
102
RTVSPost2010PropOp56
 70
     1
102
RTVSPost2010Prop57
140
1.0
102
RTVSPost2010PropOp57
 70
     1
102
RTVSPropertyOp0
 70
     0
102
RTVSPropertyOp1
 70
     0
102
RTVSPropertyOp2
 70
     0
102
RTVSPropertyOp3
 70
     0
102
RTVSPropertyOp4
 70
     0
102
RTVSPropertyOp5
 70
     0
102
RTVSPropertyOp6
 70
     0
102
RTVSPropertyOp7
 70
     0
102
RTVSPropertyOp8
 70
     0
102
RTVSPropertyOp9
 70
     0
102
RTVSPropertyOp10
 70
     0
102
RTVSPropertyOp11
 70
     0
102
RTVSPropertyOp12
 70
     0
102
RTVSPropertyOp13
 70
     0
102
RTVSPropertyOp14
 70
     2
102
RTVSPropertyOp15
 70
     0
102
RTVSPropertyOp16
 70
     0
102
RTVSPropertyOp17
 70
     0
102
RTVSPropertyOp18
 70
     0
102
RTVSPropertyOp19
 70
     0
102
RTVSPropertyOp20
 70
     0
102
RTVSPropertyOp21
 70
     0
102
RTVSPropertyOp22
 70
     0
102
RTVSPropertyOp23
 70
     0
102
RTVSPropertyOp24
 70
     0
102
RTVSPropertyOp25
 70
     0
102
RTVSPropertyOp26
 70
     0
102
RTVSPropertyOp27
 70
     0
102
RTVSPropertyOp28
 70
     1
102
RTVSPropertyOp29
 70
     1
102
RTVSPropertyOp30
 70
     1
102
RTVSPropertyOp31
 70
     1
102
RTVSPropertyOp32
 70
     1
102
RTVSPropertyOp33
 70
     1
102
RTVSPropertyOp34
 70
     1
102
RTVSPropertyOp35
 70
     1
102
RTVSPropertyOp36
 70
     1
102
RTVSPropertyOp37
 70
     1
102
RTVSPropertyOp38
 70
     1
102
RTVSPropertyOp39
 70
     1
102
RTVSPropertyOp40
 70
     1
102
RTVSPropertyOp41
 70
     1
102
RTVSPropertyOp42
 70
     1
102
RTVSPropertyOp43
 70
     1
102
RTVSPropertyOp44
 70
     1
102
RTVSPropertyOp45
 70
     1
102
RTVSPropertyOp46
 70
     1
102
RTVSPropertyOp47
 70
     1
102
RTVSPropertyOp48
 70
     1
102
RTVSPropertyOp49
 70
     1
102
RTVSPropertyOp50
 70
     1
102
RTVSPropertyOp51
 70
     0
102
RTVSPropertyOp52
 70
     0
102
RTVSPropertyOp53
 70
     1
102
RTVSPropertyOp54
 70
     1
102
RTVSPropertyOp55
 70
     1
102
RTVSPropertyOp56
 70
     1
102
RTVSPropertyOp57
 70
     1
102
RTVSPropertyOp58
 70
     1
102
RTVSPropertyOp59
 70
     1
102
RTVSPropertyOp60
 70
     1
102
RTVSPropertyOp61
 70
     1
102
RTVSPropertyOp62
 70
     1
  0
XRECORD
  5
19F2
102
{ACAD_REACTORS
330
19F1
102
}
330
19F1
100
AcDbXrecord
280
     1
102
RTVSPost2010Prop28
280
     0
102
RTVSPost2010PropOp28
 70
     1
102
RTVSPost2010Prop29
280
     1
102
RTVSPost2010PropOp29
 70
     1
102
RTVSPost2010Prop30
280
     1
102
RTVSPost2010PropOp30
 70
     1
102
RTVSPost2010Prop31
280
     0
102
RTVSPost2010PropOp31
 70
     1
102
RTVSPost2010Prop32
280
     0
102
RTVSPost2010PropOp32
 70
     1
102
RTVSPost2010Prop33
280
     0
102
RTVSPost2010PropOp33
 70
     1
102
RTVSPost2010Prop34
280
     0
102
RTVSPost2010PropOp34
 70
     1
102
RTVSPost2010Prop35
280
     0
102
RTVSPost2010PropOp35
 70
     1
102
RTVSPost2010Prop36
280
     0
102
RTVSPost2010PropOp36
 70
     1
102
RTVSPost2010Prop37
 90
       50
102
RTVSPost2010PropOp37
 70
     1
102
RTVSPost2010Prop38
140
0.0
102
RTVSPost2010PropOp38
 70
     1
102
RTVSPost2010Prop39
140
1.0
102
RTVSPost2010PropOp39
 70
     1
102
RTVSPost2010Prop40
 90
        0
102
RTVSPost2010PropOp40
 70
     1
102
RTVSPost2010Prop41ColorIndex
 90
       18
102
RTVSPost2010Prop41ColorRGB
 90
        0
102
RTVSPost2010PropOp41
 70
     1
102
RTVSPost2010Prop42
 90
       50
102
RTVSPost2010PropOp42
 70
     1
102
RTVSPost2010Prop43
 90
        3
102
RTVSPost2010PropOp43
 70
     1
102
RTVSPost2010Prop44ColorIndex
 90
        5
102
RTVSPost2010Prop44ColorRGB
 90
      255
102
RTVSPost2010PropOp44
 70
     1
102
RTVSPost2010Prop45
280
     0
102
RTVSPost2010PropOp45
 70
     1
102
RTVSPost2010Prop46
 90
       50
102
RTVSPost2010PropOp46
 70
     1
102
RTVSPost2010Prop47
 90
       50
102
RTVSPost2010PropOp47
 70
     1
102
RTVSPost2010Prop48
 90
       50
102
RTVSPost2010PropOp48
 70
     1
102
RTVSPost2010Prop49
280
     0
102
RTVSPost2010PropOp49
 70
     1
102
RTVSPost2010Prop50
 90
       50
102
RTVSPost2010PropOp50
 70
     1
102
RTVSPost2010Prop51ColorIndex
 90
      256
102
RTVSPost2010Prop51ColorRGB
 90
-16777216
102
RTVSPost2010PropOp51
 70
     0
102
RTVSPost2010Prop52
140
1.0
102
RTVSPost2010PropOp52
 70
     0
102
RTVSPost2010Prop53
 90
        2
102
RTVSPost2010PropOp53
 70
     1
102
RTVSPost2010Prop54
  1
strokes_ogs.tif
102
RTVSPost2010PropOp54
 70
     1
102
RTVSPost2010Prop55
280
     0
102
RTVSPost2010PropOp55
 70
     1
102
RTVSPost2010Prop56
140
1.0
102
RTVSPost2010PropOp56
 70
     1
102
RTVSPost2010Prop57
140
1.0
102
RTVSPost2010PropOp57
 70
     1
102
RTVSPropertyOp0
 70
     1
102
RTVSPropertyOp1
 70
     1
102
RTVSPropertyOp2
 70
     1
102
RTVSPropertyOp3
 70
     1
102
RTVSPropertyOp4
 70
     1
102
RTVSPropertyOp5
 70
     1
102
RTVSPropertyOp6
 70
     1
102
RTVSPropertyOp7
 70
     1
102
RTVSPropertyOp8
 70
     1
102
RTVSPropertyOp9
 70
     1
102
RTVSPropertyOp10
 70
     1
102
RTVSPropertyOp11
 70
     1
102
RTVSPropertyOp12
 70
     1
102
RTVSPropertyOp13
 70
     1
102
RTVSPropertyOp14
 70
     1
102
RTVSPropertyOp15
 70
     1
102
RTVSPropertyOp16
 70
     1
102
RTVSPropertyOp17
 70
     1
102
RTVSPropertyOp18
 70
     1
102
RTVSPropertyOp19
 70
     1
102
RTVSPropertyOp20
 70
     1
102
RTVSPropertyOp21
 70
     1
102
RTVSPropertyOp22
 70
     1
102
RTVSPropertyOp23
 70
     1
102
RTVSPropertyOp24
 70
     1
102
RTVSPropertyOp25
 70
     1
102
RTVSPropertyOp26
 70
     1
102
RTVSPropertyOp27
 70
     1
102
RTVSPropertyOp28
 70
     1
102
RTVSPropertyOp29
 70
     1
102
RTVSPropertyOp30
 70
     1
102
RTVSPropertyOp31
 70
     1
102
RTVSPropertyOp32
 70
     1
102
RTVSPropertyOp33
 70
     1
102
RTVSPropertyOp34
 70
     1
102
RTVSPropertyOp35
 70
     1
102
RTVSPropertyOp36
 70
     1
102
RTVSPropertyOp37
 70
     1
102
RTVSPropertyOp38
 70
     1
102
RTVSPropertyOp39
 70
     1
102
RTVSPropertyOp40
 70
     1
102
RTVSPropertyOp41
 70
     1
102
RTVSPropertyOp42
 70
     1
102
RTVSPropertyOp43
 70
     1
102
RTVSPropertyOp44
 70
     1
102
RTVSPropertyOp45
 70
     1
102
RTVSPropertyOp46
 70
     1
102
RTVSPropertyOp47
 70
     1
102
RTVSPropertyOp48
 70
     1
102
RTVSPropertyOp49
 70
     1
102
RTVSPropertyOp50
 70
     1
102
RTVSPropertyOp51
 70
     0
102
RTVSPropertyOp52
 70
     0
102
RTVSPropertyOp53
 70
     1
102
RTVSPropertyOp54
 70
     1
102
RTVSPropertyOp55
 70
     1
102
RTVSPropertyOp56
 70
     1
102
RTVSPropertyOp57
 70
     1
102
RTVSPropertyOp58
 70
     1
102
RTVSPropertyOp59
 70
     1
102
RTVSPropertyOp60
 70
     1
102
RTVSPropertyOp61
 70
     1
102
RTVSPropertyOp62
 70
     1
  0
XRECORD
  5
1A1B
102
{ACAD_REACTORS
330
1A1A
102
}
330
1A1A
100
AcDbXrecord
280
     1
102
RTVSPost2010Prop28
280
     0
102
RTVSPost2010PropOp28
 70
     1
102
RTVSPost2010Prop29
280
     1
102
RTVSPost2010PropOp29
 70
     1
102
RTVSPost2010Prop30
280
     1
102
RTVSPost2010PropOp30
 70
     1
102
RTVSPost2010Prop31
280
     0
102
RTVSPost2010PropOp31
 70
     1
102
RTVSPost2010Prop32
280
     0
102
RTVSPost2010PropOp32
 70
     1
102
RTVSPost2010Prop33
280
     0
102
RTVSPost2010PropOp33
 70
     1
102
RTVSPost2010Prop34
280
     0
102
RTVSPost2010PropOp34
 70
     1
102
RTVSPost2010Prop35
280
     0
102
RTVSPost2010PropOp35
 70
     1
102
RTVSPost2010Prop36
280
     0
102
RTVSPost2010PropOp36
 70
     1
102
RTVSPost2010Prop37
 90
       50
102
RTVSPost2010PropOp37
 70
     1
102
RTVSPost2010Prop38
140
0.0
102
RTVSPost2010PropOp38
 70
     1
102
RTVSPost2010Prop39
140
1.0
102
RTVSPost2010PropOp39
 70
     1
102
RTVSPost2010Prop40
 90
        0
102
RTVSPost2010PropOp40
 70
     1
102
RTVSPost2010Prop41ColorIndex
 90
       18
102
RTVSPost2010Prop41ColorRGB
 90
        0
102
RTVSPost2010PropOp41
 70
     1
102
RTVSPost2010Prop42
 90
       50
102
RTVSPost2010PropOp42
 70
     1
102
RTVSPost2010Prop43
 90
        3
102
RTVSPost2010PropOp43
 70
     1
102
RTVSPost2010Prop44ColorIndex
 90
        5
102
RTVSPost2010Prop44ColorRGB
 90
      255
102
RTVSPost2010PropOp44
 70
     1
102
RTVSPost2010Prop45
280
     0
102
RTVSPost2010PropOp45
 70
     1
102
RTVSPost2010Prop46
 90
       50
102
RTVSPost2010PropOp46
 70
     1
102
RTVSPost2010Prop47
 90
       50
102
RTVSPost2010PropOp47
 70
     1
102
RTVSPost2010Prop48
 90
       50
102
RTVSPost2010PropOp48
 70
     1
102
RTVSPost2010Prop49
280
     0
102
RTVSPost2010PropOp49
 70
     1
102
RTVSPost2010Prop50
 90
       50
102
RTVSPost2010PropOp50
 70
     1
102
RTVSPost2010Prop51ColorIndex
 90
      256
102
RTVSPost2010Prop51ColorRGB
 90
-16777216
102
RTVSPost2010PropOp51
 70
     0
102
RTVSPost2010Prop52
140
1.0
102
RTVSPost2010PropOp52
 70
     0
102
RTVSPost2010Prop53
 90
        2
102
RTVSPost2010PropOp53
 70
     1
102
RTVSPost2010Prop54
  1
strokes_ogs.tif
102
RTVSPost2010PropOp54
 70
     1
102
RTVSPost2010Prop55
280
     0
102
RTVSPost2010PropOp55
 70
     1
102
RTVSPost2010Prop56
140
1.0
102
RTVSPost2010PropOp56
 70
     1
102
RTVSPost2010Prop57
140
1.0
102
RTVSPost2010PropOp57
 70
     1
102
RTVSPropertyOp0
 70
     1
102
RTVSPropertyOp1
 70
     1
102
RTVSPropertyOp2
 70
     1
102
RTVSPropertyOp3
 70
     1
102
RTVSPropertyOp4
 70
     1
102
RTVSPropertyOp5
 70
     1
102
RTVSPropertyOp6
 70
     1
102
RTVSPropertyOp7
 70
     1
102
RTVSPropertyOp8
 70
     1
102
RTVSPropertyOp9
 70
     1
102
RTVSPropertyOp10
 70
     1
102
RTVSPropertyOp11
 70
     1
102
RTVSPropertyOp12
 70
     1
102
RTVSPropertyOp13
 70
     1
102
RTVSPropertyOp14
 70
     1
102
RTVSPropertyOp15
 70
     1
102
RTVSPropertyOp16
 70
     1
102
RTVSPropertyOp17
 70
     1
102
RTVSPropertyOp18
 70
     1
102
RTVSPropertyOp19
 70
     1
102
RTVSPropertyOp20
 70
     1
102
RTVSPropertyOp21
 70
     1
102
RTVSPropertyOp22
 70
     1
102
RTVSPropertyOp23
 70
     1
102
RTVSPropertyOp24
 70
     1
102
RTVSPropertyOp25
 70
     1
102
RTVSPropertyOp26
 70
     1
102
RTVSPropertyOp27
 70
     1
102
RTVSPropertyOp28
 70
     1
102
RTVSPropertyOp29
 70
     1
102
RTVSPropertyOp30
 70
     1
102
RTVSPropertyOp31
 70
     1
102
RTVSPropertyOp32
 70
     1
102
RTVSPropertyOp33
 70
     1
102
RTVSPropertyOp34
 70
     1
102
RTVSPropertyOp35
 70
     1
102
RTVSPropertyOp36
 70
     1
102
RTVSPropertyOp37
 70
     1
102
RTVSPropertyOp38
 70
     1
102
RTVSPropertyOp39
 70
     1
102
RTVSPropertyOp40
 70
     1
102
RTVSPropertyOp41
 70
     1
102
RTVSPropertyOp42
 70
     1
102
RTVSPropertyOp43
 70
     1
102
RTVSPropertyOp44
 70
     1
102
RTVSPropertyOp45
 70
     1
102
RTVSPropertyOp46
 70
     1
102
RTVSPropertyOp47
 70
     1
102
RTVSPropertyOp48
 70
     1
102
RTVSPropertyOp49
 70
     1
102
RTVSPropertyOp50
 70
     1
102
RTVSPropertyOp51
 70
     0
102
RTVSPropertyOp52
 70
     0
102
RTVSPropertyOp53
 70
     1
102
RTVSPropertyOp54
 70
     1
102
RTVSPropertyOp55
 70
     1
102
RTVSPropertyOp56
 70
     1
102
RTVSPropertyOp57
 70
     1
102
RTVSPropertyOp58
 70
     1
102
RTVSPropertyOp59
 70
     1
102
RTVSPropertyOp60
 70
     1
102
RTVSPropertyOp61
 70
     1
102
RTVSPropertyOp62
 70
     1
  0
XRECORD
  5
1A19
102
{ACAD_REACTORS
330
1A18
102
}
330
1A18
100
AcDbXrecord
280
     1
102
RTVSPost2010Prop28
280
     0
102
RTVSPost2010PropOp28
 70
     1
102
RTVSPost2010Prop29
280
     1
102
RTVSPost2010PropOp29
 70
     1
102
RTVSPost2010Prop30
280
     1
102
RTVSPost2010PropOp30
 70
     1
102
RTVSPost2010Prop31
280
     0
102
RTVSPost2010PropOp31
 70
     1
102
RTVSPost2010Prop32
280
     0
102
RTVSPost2010PropOp32
 70
     1
102
RTVSPost2010Prop33
280
     0
102
RTVSPost2010PropOp33
 70
     1
102
RTVSPost2010Prop34
280
     0
102
RTVSPost2010PropOp34
 70
     1
102
RTVSPost2010Prop35
280
     0
102
RTVSPost2010PropOp35
 70
     1
102
RTVSPost2010Prop36
280
     0
102
RTVSPost2010PropOp36
 70
     1
102
RTVSPost2010Prop37
 90
       50
102
RTVSPost2010PropOp37
 70
     1
102
RTVSPost2010Prop38
140
0.0
102
RTVSPost2010PropOp38
 70
     1
102
RTVSPost2010Prop39
140
1.0
102
RTVSPost2010PropOp39
 70
     1
102
RTVSPost2010Prop40
 90
        0
102
RTVSPost2010PropOp40
 70
     1
102
RTVSPost2010Prop41ColorIndex
 90
       18
102
RTVSPost2010Prop41ColorRGB
 90
        0
102
RTVSPost2010PropOp41
 70
     1
102
RTVSPost2010Prop42
 90
       50
102
RTVSPost2010PropOp42
 70
     1
102
RTVSPost2010Prop43
 90
        3
102
RTVSPost2010PropOp43
 70
     1
102
RTVSPost2010Prop44ColorIndex
 90
        5
102
RTVSPost2010Prop44ColorRGB
 90
      255
102
RTVSPost2010PropOp44
 70
     1
102
RTVSPost2010Prop45
280
     0
102
RTVSPost2010PropOp45
 70
     1
102
RTVSPost2010Prop46
 90
       50
102
RTVSPost2010PropOp46
 70
     1
102
RTVSPost2010Prop47
 90
       50
102
RTVSPost2010PropOp47
 70
     1
102
RTVSPost2010Prop48
 90
       50
102
RTVSPost2010PropOp48
 70
     1
102
RTVSPost2010Prop49
280
     0
102
RTVSPost2010PropOp49
 70
     1
102
RTVSPost2010Prop50
 90
       50
102
RTVSPost2010PropOp50
 70
     1
102
RTVSPost2010Prop51ColorIndex
 90
      256
102
RTVSPost2010Prop51ColorRGB
 90
-16777216
102
RTVSPost2010PropOp51
 70
     0
102
RTVSPost2010Prop52
140
1.0
102
RTVSPost2010PropOp52
 70
     0
102
RTVSPost2010Prop53
 90
        2
102
RTVSPost2010PropOp53
 70
     1
102
RTVSPost2010Prop54
  1
strokes_ogs.tif
102
RTVSPost2010PropOp54
 70
     1
102
RTVSPost2010Prop55
280
     0
102
RTVSPost2010PropOp55
 70
     1
102
RTVSPost2010Prop56
140
1.0
102
RTVSPost2010PropOp56
 70
     1
102
RTVSPost2010Prop57
140
1.0
102
RTVSPost2010PropOp57
 70
     1
102
RTVSPropertyOp0
 70
     1
102
RTVSPropertyOp1
 70
     1
102
RTVSPropertyOp2
 70
     1
102
RTVSPropertyOp3
 70
     1
102
RTVSPropertyOp4
 70
     1
102
RTVSPropertyOp5
 70
     1
102
RTVSPropertyOp6
 70
     1
102
RTVSPropertyOp7
 70
     1
102
RTVSPropertyOp8
 70
     1
102
RTVSPropertyOp9
 70
     1
102
RTVSPropertyOp10
 70
     1
102
RTVSPropertyOp11
 70
     1
102
RTVSPropertyOp12
 70
     1
102
RTVSPropertyOp13
 70
     1
102
RTVSPropertyOp14
 70
     1
102
RTVSPropertyOp15
 70
     1
102
RTVSPropertyOp16
 70
     1
102
RTVSPropertyOp17
 70
     1
102
RTVSPropertyOp18
 70
     1
102
RTVSPropertyOp19
 70
     1
102
RTVSPropertyOp20
 70
     1
102
RTVSPropertyOp21
 70
     1
102
RTVSPropertyOp22
 70
     1
102
RTVSPropertyOp23
 70
     1
102
RTVSPropertyOp24
 70
     1
102
RTVSPropertyOp25
 70
     1
102
RTVSPropertyOp26
 70
     1
102
RTVSPropertyOp27
 70
     1
102
RTVSPropertyOp28
 70
     1
102
RTVSPropertyOp29
 70
     1
102
RTVSPropertyOp30
 70
     1
102
RTVSPropertyOp31
 70
     1
102
RTVSPropertyOp32
 70
     1
102
RTVSPropertyOp33
 70
     1
102
RTVSPropertyOp34
 70
     1
102
RTVSPropertyOp35
 70
     1
102
RTVSPropertyOp36
 70
     1
102
RTVSPropertyOp37
 70
     1
102
RTVSPropertyOp38
 70
     1
102
RTVSPropertyOp39
 70
     1
102
RTVSPropertyOp40
 70
     1
102
RTVSPropertyOp41
 70
     1
102
RTVSPropertyOp42
 70
     1
102
RTVSPropertyOp43
 70
     1
102
RTVSPropertyOp44
 70
     1
102
RTVSPropertyOp45
 70
     1
102
RTVSPropertyOp46
 70
     1
102
RTVSPropertyOp47
 70
     1
102
RTVSPropertyOp48
 70
     1
102
RTVSPropertyOp49
 70
     1
102
RTVSPropertyOp50
 70
     1
102
RTVSPropertyOp51
 70
     0
102
RTVSPropertyOp52
 70
     0
102
RTVSPropertyOp53
 70
     1
102
RTVSPropertyOp54
 70
     1
102
RTVSPropertyOp55
 70
     1
102
RTVSPropertyOp56
 70
     1
102
RTVSPropertyOp57
 70
     1
102
RTVSPropertyOp58
 70
     1
102
RTVSPropertyOp59
 70
     1
102
RTVSPropertyOp60
 70
     1
102
RTVSPropertyOp61
 70
     1
102
RTVSPropertyOp62
 70
     1
  0
XRECORD
  5
1A13
102
{ACAD_REACTORS
330
1A12
102
}
330
1A12
100
AcDbXrecord
280
     1
102
RTVSPost2010Prop28
280
     0
102
RTVSPost2010PropOp28
 70
     1
102
RTVSPost2010Prop29
280
     1
102
RTVSPost2010PropOp29
 70
     1
102
RTVSPost2010Prop30
280
     1
102
RTVSPost2010PropOp30
 70
     1
102
RTVSPost2010Prop31
280
     0
102
RTVSPost2010PropOp31
 70
     1
102
RTVSPost2010Prop32
280
     0
102
RTVSPost2010PropOp32
 70
     1
102
RTVSPost2010Prop33
280
     0
102
RTVSPost2010PropOp33
 70
     1
102
RTVSPost2010Prop34
280
     0
102
RTVSPost2010PropOp34
 70
     1
102
RTVSPost2010Prop35
280
     0
102
RTVSPost2010PropOp35
 70
     1
102
RTVSPost2010Prop36
280
     0
102
RTVSPost2010PropOp36
 70
     1
102
RTVSPost2010Prop37
 90
       50
102
RTVSPost2010PropOp37
 70
     1
102
RTVSPost2010Prop38
140
0.0
102
RTVSPost2010PropOp38
 70
     1
102
RTVSPost2010Prop39
140
1.0
102
RTVSPost2010PropOp39
 70
     1
102
RTVSPost2010Prop40
 90
        0
102
RTVSPost2010PropOp40
 70
     1
102
RTVSPost2010Prop41ColorIndex
 90
       18
102
RTVSPost2010Prop41ColorRGB
 90
        0
102
RTVSPost2010PropOp41
 70
     1
102
RTVSPost2010Prop42
 90
       50
102
RTVSPost2010PropOp42
 70
     1
102
RTVSPost2010Prop43
 90
        3
102
RTVSPost2010PropOp43
 70
     1
102
RTVSPost2010Prop44ColorIndex
 90
        5
102
RTVSPost2010Prop44ColorRGB
 90
      255
102
RTVSPost2010PropOp44
 70
     1
102
RTVSPost2010Prop45
280
     0
102
RTVSPost2010PropOp45
 70
     1
102
RTVSPost2010Prop46
 90
       50
102
RTVSPost2010PropOp46
 70
     1
102
RTVSPost2010Prop47
 90
       50
102
RTVSPost2010PropOp47
 70
     1
102
RTVSPost2010Prop48
 90
       50
102
RTVSPost2010PropOp48
 70
     1
102
RTVSPost2010Prop49
280
     0
102
RTVSPost2010PropOp49
 70
     1
102
RTVSPost2010Prop50
 90
       50
102
RTVSPost2010PropOp50
 70
     1
102
RTVSPost2010Prop51ColorIndex
 90
      256
102
RTVSPost2010Prop51ColorRGB
 90
-16777216
102
RTVSPost2010PropOp51
 70
     0
102
RTVSPost2010Prop52
140
1.0
102
RTVSPost2010PropOp52
 70
     0
102
RTVSPost2010Prop53
 90
        2
102
RTVSPost2010PropOp53
 70
     1
102
RTVSPost2010Prop54
  1
strokes_ogs.tif
102
RTVSPost2010PropOp54
 70
     1
102
RTVSPost2010Prop55
280
     0
102
RTVSPost2010PropOp55
 70
     1
102
RTVSPost2010Prop56
140
1.0
102
RTVSPost2010PropOp56
 70
     1
102
RTVSPost2010Prop57
140
1.0
102
RTVSPost2010PropOp57
 70
     1
102
RTVSPropertyOp0
 70
     1
102
RTVSPropertyOp1
 70
     1
102
RTVSPropertyOp2
 70
     1
102
RTVSPropertyOp3
 70
     1
102
RTVSPropertyOp4
 70
     1
102
RTVSPropertyOp5
 70
     1
102
RTVSPropertyOp6
 70
     1
102
RTVSPropertyOp7
 70
     1
102
RTVSPropertyOp8
 70
     1
102
RTVSPropertyOp9
 70
     1
102
RTVSPropertyOp10
 70
     1
102
RTVSPropertyOp11
 70
     1
102
RTVSPropertyOp12
 70
     1
102
RTVSPropertyOp13
 70
     1
102
RTVSPropertyOp14
 70
     1
102
RTVSPropertyOp15
 70
     1
102
RTVSPropertyOp16
 70
     1
102
RTVSPropertyOp17
 70
     1
102
RTVSPropertyOp18
 70
     1
102
RTVSPropertyOp19
 70
     1
102
RTVSPropertyOp20
 70
     1
102
RTVSPropertyOp21
 70
     1
102
RTVSPropertyOp22
 70
     1
102
RTVSPropertyOp23
 70
     1
102
RTVSPropertyOp24
 70
     1
102
RTVSPropertyOp25
 70
     1
102
RTVSPropertyOp26
 70
     1
102
RTVSPropertyOp27
 70
     1
102
RTVSPropertyOp28
 70
     1
102
RTVSPropertyOp29
 70
     1
102
RTVSPropertyOp30
 70
     1
102
RTVSPropertyOp31
 70
     1
102
RTVSPropertyOp32
 70
     1
102
RTVSPropertyOp33
 70
     1
102
RTVSPropertyOp34
 70
     1
102
RTVSPropertyOp35
 70
     1
102
RTVSPropertyOp36
 70
     1
102
RTVSPropertyOp37
 70
     1
102
RTVSPropertyOp38
 70
     1
102
RTVSPropertyOp39
 70
     1
102
RTVSPropertyOp40
 70
     1
102
RTVSPropertyOp41
 70
     1
102
RTVSPropertyOp42
 70
     1
102
RTVSPropertyOp43
 70
     1
102
RTVSPropertyOp44
 70
     1
102
RTVSPropertyOp45
 70
     1
102
RTVSPropertyOp46
 70
     1
102
RTVSPropertyOp47
 70
     1
102
RTVSPropertyOp48
 70
     1
102
RTVSPropertyOp49
 70
     1
102
RTVSPropertyOp50
 70
     1
102
RTVSPropertyOp51
 70
     0
102
RTVSPropertyOp52
 70
     0
102
RTVSPropertyOp53
 70
     1
102
RTVSPropertyOp54
 70
     1
102
RTVSPropertyOp55
 70
     1
102
RTVSPropertyOp56
 70
     1
102
RTVSPropertyOp57
 70
     1
102
RTVSPropertyOp58
 70
     1
102
RTVSPropertyOp59
 70
     1
102
RTVSPropertyOp60
 70
     1
102
RTVSPropertyOp61
 70
     1
102
RTVSPropertyOp62
 70
     1
  0
XRECORD
  5
1A15
102
{ACAD_REACTORS
330
1A14
102
}
330
1A14
100
AcDbXrecord
280
     1
102
RTVSPost2010Prop28
280
     0
102
RTVSPost2010PropOp28
 70
     1
102
RTVSPost2010Prop29
280
     1
102
RTVSPost2010PropOp29
 70
     1
102
RTVSPost2010Prop30
280
     1
102
RTVSPost2010PropOp30
 70
     1
102
RTVSPost2010Prop31
280
     0
102
RTVSPost2010PropOp31
 70
     1
102
RTVSPost2010Prop32
280
     0
102
RTVSPost2010PropOp32
 70
     1
102
RTVSPost2010Prop33
280
     0
102
RTVSPost2010PropOp33
 70
     1
102
RTVSPost2010Prop34
280
     0
102
RTVSPost2010PropOp34
 70
     1
102
RTVSPost2010Prop35
280
     0
102
RTVSPost2010PropOp35
 70
     1
102
RTVSPost2010Prop36
280
     0
102
RTVSPost2010PropOp36
 70
     1
102
RTVSPost2010Prop37
 90
       50
102
RTVSPost2010PropOp37
 70
     1
102
RTVSPost2010Prop38
140
0.0
102
RTVSPost2010PropOp38
 70
     1
102
RTVSPost2010Prop39
140
1.0
102
RTVSPost2010PropOp39
 70
     1
102
RTVSPost2010Prop40
 90
        0
102
RTVSPost2010PropOp40
 70
     1
102
RTVSPost2010Prop41ColorIndex
 90
       18
102
RTVSPost2010Prop41ColorRGB
 90
        0
102
RTVSPost2010PropOp41
 70
     1
102
RTVSPost2010Prop42
 90
       50
102
RTVSPost2010PropOp42
 70
     1
102
RTVSPost2010Prop43
 90
        3
102
RTVSPost2010PropOp43
 70
     1
102
RTVSPost2010Prop44ColorIndex
 90
        5
102
RTVSPost2010Prop44ColorRGB
 90
      255
102
RTVSPost2010PropOp44
 70
     1
102
RTVSPost2010Prop45
280
     0
102
RTVSPost2010PropOp45
 70
     1
102
RTVSPost2010Prop46
 90
       50
102
RTVSPost2010PropOp46
 70
     1
102
RTVSPost2010Prop47
 90
       50
102
RTVSPost2010PropOp47
 70
     1
102
RTVSPost2010Prop48
 90
       50
102
RTVSPost2010PropOp48
 70
     1
102
RTVSPost2010Prop49
280
     0
102
RTVSPost2010PropOp49
 70
     1
102
RTVSPost2010Prop50
 90
       50
102
RTVSPost2010PropOp50
 70
     1
102
RTVSPost2010Prop51ColorIndex
 90
      256
102
RTVSPost2010Prop51ColorRGB
 90
-16777216
102
RTVSPost2010PropOp51
 70
     0
102
RTVSPost2010Prop52
140
1.0
102
RTVSPost2010PropOp52
 70
     0
102
RTVSPost2010Prop53
 90
        2
102
RTVSPost2010PropOp53
 70
     1
102
RTVSPost2010Prop54
  1
strokes_ogs.tif
102
RTVSPost2010PropOp54
 70
     1
102
RTVSPost2010Prop55
280
     0
102
RTVSPost2010PropOp55
 70
     1
102
RTVSPost2010Prop56
140
1.0
102
RTVSPost2010PropOp56
 70
     1
102
RTVSPost2010Prop57
140
1.0
102
RTVSPost2010PropOp57
 70
     1
102
RTVSPropertyOp0
 70
     1
102
RTVSPropertyOp1
 70
     1
102
RTVSPropertyOp2
 70
     1
102
RTVSPropertyOp3
 70
     1
102
RTVSPropertyOp4
 70
     1
102
RTVSPropertyOp5
 70
     1
102
RTVSPropertyOp6
 70
     1
102
RTVSPropertyOp7
 70
     1
102
RTVSPropertyOp8
 70
     1
102
RTVSPropertyOp9
 70
     1
102
RTVSPropertyOp10
 70
     1
102
RTVSPropertyOp11
 70
     1
102
RTVSPropertyOp12
 70
     1
102
RTVSPropertyOp13
 70
     1
102
RTVSPropertyOp14
 70
     1
102
RTVSPropertyOp15
 70
     1
102
RTVSPropertyOp16
 70
     1
102
RTVSPropertyOp17
 70
     1
102
RTVSPropertyOp18
 70
     1
102
RTVSPropertyOp19
 70
     1
102
RTVSPropertyOp20
 70
     1
102
RTVSPropertyOp21
 70
     1
102
RTVSPropertyOp22
 70
     1
102
RTVSPropertyOp23
 70
     1
102
RTVSPropertyOp24
 70
     1
102
RTVSPropertyOp25
 70
     1
102
RTVSPropertyOp26
 70
     1
102
RTVSPropertyOp27
 70
     1
102
RTVSPropertyOp28
 70
     1
102
RTVSPropertyOp29
 70
     1
102
RTVSPropertyOp30
 70
     1
102
RTVSPropertyOp31
 70
     1
102
RTVSPropertyOp32
 70
     1
102
RTVSPropertyOp33
 70
     1
102
RTVSPropertyOp34
 70
     1
102
RTVSPropertyOp35
 70
     1
102
RTVSPropertyOp36
 70
     1
102
RTVSPropertyOp37
 70
     1
102
RTVSPropertyOp38
 70
     1
102
RTVSPropertyOp39
 70
     1
102
RTVSPropertyOp40
 70
     1
102
RTVSPropertyOp41
 70
     1
102
RTVSPropertyOp42
 70
     1
102
RTVSPropertyOp43
 70
     1
102
RTVSPropertyOp44
 70
     1
102
RTVSPropertyOp45
 70
     1
102
RTVSPropertyOp46
 70
     1
102
RTVSPropertyOp47
 70
     1
102
RTVSPropertyOp48
 70
     1
102
RTVSPropertyOp49
 70
     1
102
RTVSPropertyOp50
 70
     1
102
RTVSPropertyOp51
 70
     0
102
RTVSPropertyOp52
 70
     0
102
RTVSPropertyOp53
 70
     1
102
RTVSPropertyOp54
 70
     1
102
RTVSPropertyOp55
 70
     1
102
RTVSPropertyOp56
 70
     1
102
RTVSPropertyOp57
 70
     1
102
RTVSPropertyOp58
 70
     1
102
RTVSPropertyOp59
 70
     1
102
RTVSPropertyOp60
 70
     1
102
RTVSPropertyOp61
 70
     1
102
RTVSPropertyOp62
 70
     1
  0
XRECORD
  5
19F8
102
{ACAD_REACTORS
330
19F7
102
}
330
19F7
100
AcDbXrecord
280
     1
102
RTVSPost2010Prop28
280
     0
102
RTVSPost2010PropOp28
 70
     1
102
RTVSPost2010Prop29
280
     1
102
RTVSPost2010PropOp29
 70
     1
102
RTVSPost2010Prop30
280
     1
102
RTVSPost2010PropOp30
 70
     1
102
RTVSPost2010Prop31
280
     0
102
RTVSPost2010PropOp31
 70
     1
102
RTVSPost2010Prop32
280
     0
102
RTVSPost2010PropOp32
 70
     1
102
RTVSPost2010Prop33
280
     0
102
RTVSPost2010PropOp33
 70
     1
102
RTVSPost2010Prop34
280
     0
102
RTVSPost2010PropOp34
 70
     1
102
RTVSPost2010Prop35
280
     0
102
RTVSPost2010PropOp35
 70
     1
102
RTVSPost2010Prop36
280
     0
102
RTVSPost2010PropOp36
 70
     1
102
RTVSPost2010Prop37
 90
       50
102
RTVSPost2010PropOp37
 70
     1
102
RTVSPost2010Prop38
140
0.0
102
RTVSPost2010PropOp38
 70
     1
102
RTVSPost2010Prop39
140
1.0
102
RTVSPost2010PropOp39
 70
     1
102
RTVSPost2010Prop40
 90
        0
102
RTVSPost2010PropOp40
 70
     1
102
RTVSPost2010Prop41ColorIndex
 90
       18
102
RTVSPost2010Prop41ColorRGB
 90
        0
102
RTVSPost2010PropOp41
 70
     1
102
RTVSPost2010Prop42
 90
       50
102
RTVSPost2010PropOp42
 70
     1
102
RTVSPost2010Prop43
 90
        3
102
RTVSPost2010PropOp43
 70
     1
102
RTVSPost2010Prop44ColorIndex
 90
        5
102
RTVSPost2010Prop44ColorRGB
 90
      255
102
RTVSPost2010PropOp44
 70
     1
102
RTVSPost2010Prop45
280
     0
102
RTVSPost2010PropOp45
 70
     1
102
RTVSPost2010Prop46
 90
       50
102
RTVSPost2010PropOp46
 70
     1
102
RTVSPost2010Prop47
 90
       50
102
RTVSPost2010PropOp47
 70
     1
102
RTVSPost2010Prop48
 90
       50
102
RTVSPost2010PropOp48
 70
     1
102
RTVSPost2010Prop49
280
     0
102
RTVSPost2010PropOp49
 70
     1
102
RTVSPost2010Prop50
 90
       50
102
RTVSPost2010PropOp50
 70
     1
102
RTVSPost2010Prop51ColorIndex
 90
      256
102
RTVSPost2010Prop51ColorRGB
 90
-16777216
102
RTVSPost2010PropOp51
 70
     0
102
RTVSPost2010Prop52
140
1.0
102
RTVSPost2010PropOp52
 70
     0
102
RTVSPost2010Prop53
 90
        2
102
RTVSPost2010PropOp53
 70
     1
102
RTVSPost2010Prop54
  1
strokes_ogs.tif
102
RTVSPost2010PropOp54
 70
     1
102
RTVSPost2010Prop55
280
     0
102
RTVSPost2010PropOp55
 70
     1
102
RTVSPost2010Prop56
140
1.0
102
RTVSPost2010PropOp56
 70
     1
102
RTVSPost2010Prop57
140
1.0
102
RTVSPost2010PropOp57
 70
     1
102
RTVSPropertyOp0
 70
     1
102
RTVSPropertyOp1
 70
     1
102
RTVSPropertyOp2
 70
     1
102
RTVSPropertyOp3
 70
     1
102
RTVSPropertyOp4
 70
     1
102
RTVSPropertyOp5
 70
     1
102
RTVSPropertyOp6
 70
     1
102
RTVSPropertyOp7
 70
     1
102
RTVSPropertyOp8
 70
     1
102
RTVSPropertyOp9
 70
     1
102
RTVSPropertyOp10
 70
     1
102
RTVSPropertyOp11
 70
     1
102
RTVSPropertyOp12
 70
     1
102
RTVSPropertyOp13
 70
     1
102
RTVSPropertyOp14
 70
     1
102
RTVSPropertyOp15
 70
     1
102
RTVSPropertyOp16
 70
     1
102
RTVSPropertyOp17
 70
     1
102
RTVSPropertyOp18
 70
     1
102
RTVSPropertyOp19
 70
     1
102
RTVSPropertyOp20
 70
     1
102
RTVSPropertyOp21
 70
     1
102
RTVSPropertyOp22
 70
     1
102
RTVSPropertyOp23
 70
     1
102
RTVSPropertyOp24
 70
     1
102
RTVSPropertyOp25
 70
     1
102
RTVSPropertyOp26
 70
     1
102
RTVSPropertyOp27
 70
     1
102
RTVSPropertyOp28
 70
     1
102
RTVSPropertyOp29
 70
     1
102
RTVSPropertyOp30
 70
     1
102
RTVSPropertyOp31
 70
     1
102
RTVSPropertyOp32
 70
     1
102
RTVSPropertyOp33
 70
     1
102
RTVSPropertyOp34
 70
     1
102
RTVSPropertyOp35
 70
     1
102
RTVSPropertyOp36
 70
     1
102
RTVSPropertyOp37
 70
     1
102
RTVSPropertyOp38
 70
     1
102
RTVSPropertyOp39
 70
     1
102
RTVSPropertyOp40
 70
     1
102
RTVSPropertyOp41
 70
     1
102
RTVSPropertyOp42
 70
     1
102
RTVSPropertyOp43
 70
     1
102
RTVSPropertyOp44
 70
     1
102
RTVSPropertyOp45
 70
     1
102
RTVSPropertyOp46
 70
     1
102
RTVSPropertyOp47
 70
     1
102
RTVSPropertyOp48
 70
     1
102
RTVSPropertyOp49
 70
     1
102
RTVSPropertyOp50
 70
     1
102
RTVSPropertyOp51
 70
     0
102
RTVSPropertyOp52
 70
     0
102
RTVSPropertyOp53
 70
     1
102
RTVSPropertyOp54
 70
     1
102
RTVSPropertyOp55
 70
     1
102
RTVSPropertyOp56
 70
     1
102
RTVSPropertyOp57
 70
     1
102
RTVSPropertyOp58
 70
     1
102
RTVSPropertyOp59
 70
     1
102
RTVSPropertyOp60
 70
     1
102
RTVSPropertyOp61
 70
     1
102
RTVSPropertyOp62
 70
     1
  0
XRECORD
  5
1A0F
102
{ACAD_REACTORS
330
1A0E
102
}
330
1A0E
100
AcDbXrecord
280
     1
102
RTVSPost2010Prop28
280
     0
102
RTVSPost2010PropOp28
 70
     1
102
RTVSPost2010Prop29
280
     1
102
RTVSPost2010PropOp29
 70
     1
102
RTVSPost2010Prop30
280
     1
102
RTVSPost2010PropOp30
 70
     1
102
RTVSPost2010Prop31
280
     0
102
RTVSPost2010PropOp31
 70
     1
102
RTVSPost2010Prop32
280
     0
102
RTVSPost2010PropOp32
 70
     1
102
RTVSPost2010Prop33
280
     0
102
RTVSPost2010PropOp33
 70
     1
102
RTVSPost2010Prop34
280
     0
102
RTVSPost2010PropOp34
 70
     1
102
RTVSPost2010Prop35
280
     0
102
RTVSPost2010PropOp35
 70
     1
102
RTVSPost2010Prop36
280
     0
102
RTVSPost2010PropOp36
 70
     1
102
RTVSPost2010Prop37
 90
       50
102
RTVSPost2010PropOp37
 70
     1
102
RTVSPost2010Prop38
140
0.0
102
RTVSPost2010PropOp38
 70
     1
102
RTVSPost2010Prop39
140
1.0
102
RTVSPost2010PropOp39
 70
     1
102
RTVSPost2010Prop40
 90
        0
102
RTVSPost2010PropOp40
 70
     1
102
RTVSPost2010Prop41ColorIndex
 90
       18
102
RTVSPost2010Prop41ColorRGB
 90
        0
102
RTVSPost2010PropOp41
 70
     1
102
RTVSPost2010Prop42
 90
       50
102
RTVSPost2010PropOp42
 70
     1
102
RTVSPost2010Prop43
 90
        3
102
RTVSPost2010PropOp43
 70
     1
102
RTVSPost2010Prop44ColorIndex
 90
        5
102
RTVSPost2010Prop44ColorRGB
 90
      255
102
RTVSPost2010PropOp44
 70
     1
102
RTVSPost2010Prop45
280
     0
102
RTVSPost2010PropOp45
 70
     1
102
RTVSPost2010Prop46
 90
       50
102
RTVSPost2010PropOp46
 70
     1
102
RTVSPost2010Prop47
 90
       50
102
RTVSPost2010PropOp47
 70
     1
102
RTVSPost2010Prop48
 90
       50
102
RTVSPost2010PropOp48
 70
     1
102
RTVSPost2010Prop49
280
     0
102
RTVSPost2010PropOp49
 70
     1
102
RTVSPost2010Prop50
 90
       50
102
RTVSPost2010PropOp50
 70
     1
102
RTVSPost2010Prop51ColorIndex
 90
      256
102
RTVSPost2010Prop51ColorRGB
 90
-16777216
102
RTVSPost2010PropOp51
 70
     0
102
RTVSPost2010Prop52
140
1.0
102
RTVSPost2010PropOp52
 70
     0
102
RTVSPost2010Prop53
 90
        2
102
RTVSPost2010PropOp53
 70
     1
102
RTVSPost2010Prop54
  1
strokes_ogs.tif
102
RTVSPost2010PropOp54
 70
     1
102
RTVSPost2010Prop55
280
     0
102
RTVSPost2010PropOp55
 70
     1
102
RTVSPost2010Prop56
140
1.0
102
RTVSPost2010PropOp56
 70
     1
102
RTVSPost2010Prop57
140
1.0
102
RTVSPost2010PropOp57
 70
     1
102
RTVSPropertyOp0
 70
     1
102
RTVSPropertyOp1
 70
     1
102
RTVSPropertyOp2
 70
     1
102
RTVSPropertyOp3
 70
     1
102
RTVSPropertyOp4
 70
     1
102
RTVSPropertyOp5
 70
     1
102
RTVSPropertyOp6
 70
     1
102
RTVSPropertyOp7
 70
     1
102
RTVSPropertyOp8
 70
     1
102
RTVSPropertyOp9
 70
     1
102
RTVSPropertyOp10
 70
     1
102
RTVSPropertyOp11
 70
     1
102
RTVSPropertyOp12
 70
     1
102
RTVSPropertyOp13
 70
     1
102
RTVSPropertyOp14
 70
     1
102
RTVSPropertyOp15
 70
     1
102
RTVSPropertyOp16
 70
     1
102
RTVSPropertyOp17
 70
     1
102
RTVSPropertyOp18
 70
     1
102
RTVSPropertyOp19
 70
     1
102
RTVSPropertyOp20
 70
     1
102
RTVSPropertyOp21
 70
     1
102
RTVSPropertyOp22
 70
     1
102
RTVSPropertyOp23
 70
     1
102
RTVSPropertyOp24
 70
     1
102
RTVSPropertyOp25
 70
     1
102
RTVSPropertyOp26
 70
     1
102
RTVSPropertyOp27
 70
     1
102
RTVSPropertyOp28
 70
     1
102
RTVSPropertyOp29
 70
     1
102
RTVSPropertyOp30
 70
     1
102
RTVSPropertyOp31
 70
     1
102
RTVSPropertyOp32
 70
     1
102
RTVSPropertyOp33
 70
     1
102
RTVSPropertyOp34
 70
     1
102
RTVSPropertyOp35
 70
     1
102
RTVSPropertyOp36
 70
     1
102
RTVSPropertyOp37
 70
     1
102
RTVSPropertyOp38
 70
     1
102
RTVSPropertyOp39
 70
     1
102
RTVSPropertyOp40
 70
     1
102
RTVSPropertyOp41
 70
     1
102
RTVSPropertyOp42
 70
     1
102
RTVSPropertyOp43
 70
     1
102
RTVSPropertyOp44
 70
     1
102
RTVSPropertyOp45
 70
     1
102
RTVSPropertyOp46
 70
     1
102
RTVSPropertyOp47
 70
     1
102
RTVSPropertyOp48
 70
     1
102
RTVSPropertyOp49
 70
     1
102
RTVSPropertyOp50
 70
     1
102
RTVSPropertyOp51
 70
     0
102
RTVSPropertyOp52
 70
     0
102
RTVSPropertyOp53
 70
     1
102
RTVSPropertyOp54
 70
     1
102
RTVSPropertyOp55
 70
     1
102
RTVSPropertyOp56
 70
     1
102
RTVSPropertyOp57
 70
     1
102
RTVSPropertyOp58
 70
     1
102
RTVSPropertyOp59
 70
     1
102
RTVSPropertyOp60
 70
     1
102
RTVSPropertyOp61
 70
     1
102
RTVSPropertyOp62
 70
     1
  0
XRECORD
  5
1A17
102
{ACAD_REACTORS
330
1A16
102
}
330
1A16
100
AcDbXrecord
280
     1
102
RTVSPost2010Prop28
280
     0
102
RTVSPost2010PropOp28
 70
     1
102
RTVSPost2010Prop29
280
     1
102
RTVSPost2010PropOp29
 70
     1
102
RTVSPost2010Prop30
280
     1
102
RTVSPost2010PropOp30
 70
     1
102
RTVSPost2010Prop31
280
     0
102
RTVSPost2010PropOp31
 70
     1
102
RTVSPost2010Prop32
280
     0
102
RTVSPost2010PropOp32
 70
     1
102
RTVSPost2010Prop33
280
     0
102
RTVSPost2010PropOp33
 70
     1
102
RTVSPost2010Prop34
280
     0
102
RTVSPost2010PropOp34
 70
     1
102
RTVSPost2010Prop35
280
     0
102
RTVSPost2010PropOp35
 70
     1
102
RTVSPost2010Prop36
280
     0
102
RTVSPost2010PropOp36
 70
     1
102
RTVSPost2010Prop37
 90
       50
102
RTVSPost2010PropOp37
 70
     1
102
RTVSPost2010Prop38
140
0.0
102
RTVSPost2010PropOp38
 70
     1
102
RTVSPost2010Prop39
140
1.0
102
RTVSPost2010PropOp39
 70
     1
102
RTVSPost2010Prop40
 90
        0
102
RTVSPost2010PropOp40
 70
     1
102
RTVSPost2010Prop41ColorIndex
 90
       18
102
RTVSPost2010Prop41ColorRGB
 90
        0
102
RTVSPost2010PropOp41
 70
     1
102
RTVSPost2010Prop42
 90
       50
102
RTVSPost2010PropOp42
 70
     1
102
RTVSPost2010Prop43
 90
        3
102
RTVSPost2010PropOp43
 70
     1
102
RTVSPost2010Prop44ColorIndex
 90
        5
102
RTVSPost2010Prop44ColorRGB
 90
      255
102
RTVSPost2010PropOp44
 70
     1
102
RTVSPost2010Prop45
280
     0
102
RTVSPost2010PropOp45
 70
     1
102
RTVSPost2010Prop46
 90
       50
102
RTVSPost2010PropOp46
 70
     1
102
RTVSPost2010Prop47
 90
       50
102
RTVSPost2010PropOp47
 70
     1
102
RTVSPost2010Prop48
 90
       50
102
RTVSPost2010PropOp48
 70
     1
102
RTVSPost2010Prop49
280
     0
102
RTVSPost2010PropOp49
 70
     1
102
RTVSPost2010Prop50
 90
       50
102
RTVSPost2010PropOp50
 70
     1
102
RTVSPost2010Prop51ColorIndex
 90
      256
102
RTVSPost2010Prop51ColorRGB
 90
-16777216
102
RTVSPost2010PropOp51
 70
     0
102
RTVSPost2010Prop52
140
1.0
102
RTVSPost2010PropOp52
 70
     0
102
RTVSPost2010Prop53
 90
        2
102
RTVSPost2010PropOp53
 70
     1
102
RTVSPost2010Prop54
  1
strokes_ogs.tif
102
RTVSPost2010PropOp54
 70
     1
102
RTVSPost2010Prop55
280
     0
102
RTVSPost2010PropOp55
 70
     1
102
RTVSPost2010Prop56
140
1.0
102
RTVSPost2010PropOp56
 70
     1
102
RTVSPost2010Prop57
140
1.0
102
RTVSPost2010PropOp57
 70
     1
102
RTVSPropertyOp0
 70
     1
102
RTVSPropertyOp1
 70
     1
102
RTVSPropertyOp2
 70
     1
102
RTVSPropertyOp3
 70
     1
102
RTVSPropertyOp4
 70
     1
102
RTVSPropertyOp5
 70
     1
102
RTVSPropertyOp6
 70
     1
102
RTVSPropertyOp7
 70
     1
102
RTVSPropertyOp8
 70
     1
102
RTVSPropertyOp9
 70
     1
102
RTVSPropertyOp10
 70
     1
102
RTVSPropertyOp11
 70
     1
102
RTVSPropertyOp12
 70
     1
102
RTVSPropertyOp13
 70
     1
102
RTVSPropertyOp14
 70
     1
102
RTVSPropertyOp15
 70
     1
102
RTVSPropertyOp16
 70
     1
102
RTVSPropertyOp17
 70
     1
102
RTVSPropertyOp18
 70
     1
102
RTVSPropertyOp19
 70
     1
102
RTVSPropertyOp20
 70
     1
102
RTVSPropertyOp21
 70
     1
102
RTVSPropertyOp22
 70
     1
102
RTVSPropertyOp23
 70
     1
102
RTVSPropertyOp24
 70
     1
102
RTVSPropertyOp25
 70
     1
102
RTVSPropertyOp26
 70
     1
102
RTVSPropertyOp27
 70
     1
102
RTVSPropertyOp28
 70
     1
102
RTVSPropertyOp29
 70
     1
102
RTVSPropertyOp30
 70
     1
102
RTVSPropertyOp31
 70
     1
102
RTVSPropertyOp32
 70
     1
102
RTVSPropertyOp33
 70
     1
102
RTVSPropertyOp34
 70
     1
102
RTVSPropertyOp35
 70
     1
102
RTVSPropertyOp36
 70
     1
102
RTVSPropertyOp37
 70
     1
102
RTVSPropertyOp38
 70
     1
102
RTVSPropertyOp39
 70
     1
102
RTVSPropertyOp40
 70
     1
102
RTVSPropertyOp41
 70
     1
102
RTVSPropertyOp42
 70
     1
102
RTVSPropertyOp43
 70
     1
102
RTVSPropertyOp44
 70
     1
102
RTVSPropertyOp45
 70
     1
102
RTVSPropertyOp46
 70
     1
102
RTVSPropertyOp47
 70
     1
102
RTVSPropertyOp48
 70
     1
102
RTVSPropertyOp49
 70
     1
102
RTVSPropertyOp50
 70
     1
102
RTVSPropertyOp51
 70
     0
102
RTVSPropertyOp52
 70
     0
102
RTVSPropertyOp53
 70
     1
102
RTVSPropertyOp54
 70
     1
102
RTVSPropertyOp55
 70
     1
102
RTVSPropertyOp56
 70
     1
102
RTVSPropertyOp57
 70
     1
102
RTVSPropertyOp58
 70
     1
102
RTVSPropertyOp59
 70
     1
102
RTVSPropertyOp60
 70
     1
102
RTVSPropertyOp61
 70
     1
102
RTVSPropertyOp62
 70
     1
  0
ACAD_PROXY_OBJECT
  5
4E0
330
4DD
100
AcDbProxyObject
 90
      499
 91
      559
 95
 10158113
 70
     0
 93
      250
310
73C0000000000000C400000000000000310200800030C0200C00030C0111FB8C
 94
        0
1001
ACAD
1000
AcRTDxfName
1000
AMDTEDGESTANDARDDIN13715
1000
AcRTDxfName
1000
AMDTEDGESTANDARDDIN13715
1000
AcRTDxfName
1000
AMDTEDGESTANDARDDIN13715
1000
AcRTDxfName
1000
AMDTEDGESTANDARDDIN13715
  0
ACAD_PROXY_OBJECT
  5
4E1
330
4DD
100
AcDbProxyObject
 90
      499
 91
      560
 95
 10158113
 70
     0
 93
     3142
310
73C0000000000000C400000000000000310200800030C0200C00030C0111FD41D01405014050140501E83C80A0481A0882A0C862195554000000000000062052120AA400C20040006A00600082A9003080100019001A8020EA400C20040006200640058006A00832900308010001B001600198020CA400C200400066005800
310
640083290030801000188016001B0020CA400C200400060005800700083290030801000180016001A0020CA400C20040006000580064008329003080100018001600188020EA400C20040006000580060006A008429003080100018001600180019001A8020AA400C20040006A00600082A9003080100019001A8020EA400C
310
20040006200640058006A00832900308010001B001600198020CA400C200400066005800640083290030801000188016001B0020CA400C200400060005800700083290030801000180016001A0020CA400C20040006000580064008329003080100018001600188020EA400C20040006000580060006A00842900308010001
310
8001600180019001A8018054
 94
        0
1001
ACAD
1000
AcRTDxfName
1000
ACMSURFSTANDARDDIN2002
1000
AcRTDxfName
1000
ACMSURFSTANDARDDIN2002
1000
AcRTDxfName
1000
ACMSURFSTANDARDDIN2002
1000
AcRTDxfName
1000
ACMSURFSTANDARDDIN2002
  0
ACAD_PROXY_OBJECT
  5
4E2
330
4DD
100
AcDbProxyObject
 90
      499
 91
      561
 95
 10158113
 70
     0
 93
      587
310
73C0000000000000C400000000000000310200800030C0200C00030C0111FA1C80A0280A0280A0280A0280A0280A0280A0281A0280A0258000000000000008000000000000006205214C
340
4EE
 94
        0
1001
ACAD
1000
AcRTDxfName
1000
ACMFCFSTANDARDDIN
1000
AcRTDxfName
1000
ACMFCFSTANDARDDIN
1000
AcRTDxfName
1000
ACMFCFSTANDARDDIN
1000
AcRTDxfName
1000
ACMFCFSTANDARDDIN
  0
ACAD_PROXY_OBJECT
  5
4E3
330
4DD
100
AcDbProxyObject
 90
      499
 91
      562
 95
 10158113
 70
     0
 93
      875
310
73C0000000000000C400000000000000310200800030C0200C00030C0111FD0CCCCCCCCCCCF4CFC333333333333D33FA4680A0280A0280A0280A0280A0280A0280A0280A0280A0280A0280A0280A0280A0280A0280A0280A0280A02808666666666666F63F3373333333333C0FCC
340
4EF
 94
        0
1001
ACAD
1000
AcRTDxfName
1000
ACMWELDSTANDARDDIN
1000
AcRTDxfName
1000
ACMWELDSTANDARDDIN
1000
AcRTDxfName
1000
ACMWELDSTANDARDDIN
1000
AcRTDxfName
1000
ACMWELDSTANDARDDIN
  0
ACAD_PROXY_OBJECT
  5
4E4
330
4DD
100
AcDbProxyObject
 90
      499
 91
      563
 95
 10158113
 70
     0
 93
      316
310
73C0000000000000C400000000000000310200800030C0200C00030C0111FC0000000000003C2FCC
340
0
 94
        0
1001
ACAD
1000
AcRTDxfName
1000
ACMIDSTANDARDDIN
1000
AcRTDxfName
1000
ACMIDSTANDARDDIN
1000
AcRTDxfName
1000
ACMIDSTANDARDDIN
1000
AcRTDxfName
1000
ACMIDSTANDARDDIN
  0
ACAD_PROXY_OBJECT
  5
4E5
330
4DD
100
AcDbProxyObject
 90
      499
 91
      564
 95
 10158113
 70
     0
 93
      494
310
73C0000000000000C400000000000000310200800030C0200C00030C0111FC521D4454FB21E93F00000000000002102800000000000008408020000C3000
340
4F0
340
4F1
 94
        0
1001
ACAD
1000
AcRTDxfName
1000
ACMDATUMSTANDARDDIN
1000
AcRTDxfName
1000
ACMDATUMSTANDARDDIN
1000
AcRTDxfName
1000
ACMDATUMSTANDARDDIN
1000
AcRTDxfName
1000
ACMDATUMSTANDARDDIN
  0
ACAD_PROXY_OBJECT
  5
4E6
330
4DD
100
AcDbProxyObject
 90
      499
 91
      565
 95
 10158113
 70
     0
 93
    29778
310
73C0000000000000C400000000000000310200800030C0200C00030C0111FA1E80A0280A0280A0280D20240CAA1C5B67394A0203202405014050140901405014050190139FEEA7C74B349D010190120280A0280A3880C80C81500000000000009C8080C80901405014051D40640640E8000000000080514040640480A0280A
310
028EA03203209400000000000024A0203202405014050147501901905A1C4F42B5E8DC115010190120280A0280A3A80C80C83500000000000007C8080880901405014051D40640641E80000000000003E4040440480A0280A028EA03203211400000000004028A0202202405014050147501901909A0000000000001250101
310
10120280A0280A3A80C80C8550E27A15AF46E08A8080880901405014051D405024050242D034080000000000003E4040440480A0280A028EA028120281218812040000000000001F20202202405014050147501409014090D40D020000000000000F9010190120280A0280A3C80C80C87500000000000007C8080C80901405
310
0F445020000000000000510201C00030C00010180000000000003E400000000000000F901014060000000000000F9000000000000003E4040501800000000000034400000000000000D101014060000000000000D1000000000000003440405029010000000000000F9000000000000003E40405014060000000000000F900
310
0000000000003E4040501800000000000034400000000000000D10101404000000000000003E400000000000000F90288800000000000020810060001860179FFFE8220681A048120280A20852108820321480C8452028521485214814000000000000F0BF0000000000003C2FD018020000C3008070000C30026A66666666
310
67D4FC9A9999999999F53F26A6666666667D4FC333333333333F33F337333333333370FC333333333333F33F26A6666666667D4FC333333333333F33F337333333333370FC333333333333F33F0000000000000310080A028120B20281A0882A0340000000000000C408020000C3008020000C3008010000C300291440BF9F
310
FFE7FFF9FFFE4050140515405014050140501405014050140501405014050140501405014064068320481A0882A1A872089200A8008A009A0083278031003500328035803A0026A8E008A009C00A800A400820086009E00580088008A00AA005800600058009E00C400D400CA00D600E80058008E008A009C00A800A400820
310
0A800B00058004A00E600580050008E008A009C009A00A6008E004000CE00CA00DC00C800EE00CE0040006400640064005201481A8802A002C8020A9A00CA00DC00CE00CA009A2380228027002A0029002080218027801600220022802A801600180016002680328037003380328016002380228027002A00290020802A002
310
C0016001280398016001400238022802700268029802380100033803280370032003B8033801000190019001980148052089C0082009A008A008227003080368032802668E008A009C00A800A400820086009E00580088008A00AA005800600058009C00C200DA00CA0058008E008A009C00A800A4008200A800B00058004A
310
00E600580050008E008A009C009A00A6008E004000CE00CA00DC00C800EE00CE004000640064006C005200961E80248023001400248029802100260020802700258014002800208029002A001D00270020802680228014801600210026002780218025801D00270020802680228016002800208029002A001D002700208026
310
8022801480482A20022802980218029002188400CA00E600C600D000E400CA00D200C400EA00DC00CE009DA380228027002A0029002080218027801600220022802A801600180016002100328039803180340039003280348031003A803700338016002380228027002A00290020802A002C00160012803980160014002380
310
22802700268029802380100033803280370032003B8033801000190018801B8014805210A600A80082009C0088008200A40088008227003780390036802668E008A009C00A800A400820086009E00580088008A00AA005800600058009C00DE00E400DA0058008E008A009C00A800A4008200A800B00058004A00E60058005
310
0008E008A009C009A00A6008E004000CE00CA00DC00C800EE00CE0040006400620070005201484268020802A00228029002480208026002109A00C200E800CA00E400D200C200D8009BA380228027002A0029002080218027801600220022802A80160018001600268030803A0032803900348030803600160023802280270
310
02A00290020802A002C0016001280398016001400238022802700268029802380100033803280370032003B8033801000190019001880148052089C009E00A8008A0084A100328036803280390035803A80370033802708E008A009C00A800A400820086009E00580088008A00AA005800600058008400CA00DA00CA00E400
310
D600EA00DC00CE0058008E008A009C00A800A4008200A800B00058004A00E600580050008E008A009C009A00A6008E004000CE00CA00DC00C800EE00CE004000640064006A0052014832B00228027002200278029002129800D200CA00CC00CA00E400C200DC00E8009C2380228027002A0029002080218027801600220022
310
802A80160018001600260034803280330032803900308037003A0016002380228027002A00290020802A002C0016001280398016001400238022802700268029802380100033803280370032003B8033801000190019001A001480520C88008A00A6008600A4006400872100328039803180340039003280348031003A8037
310
003380100019002788E008A009C00A800A400820086009E00580088008A00AA005800600058008400CA00E600C600D000E400CA00D200C400EA00DC00CE004000640058008E008A009C00A800A4008200A800B00058004A00E600580050008E008A009C009A00A6008E004000CE00CA00DC00C800EE00CE00400066006C005
310
201484A9802A00208027002200208029002200190020C9C00DE00E400DA00400064009AA380228027002A0029002080218027801600220022802A8016001800160027003780390036801000190016002380228027002A00290020802A002C00160012803980160014002380228027002680298023801000338032803700320
310
03B8033801000190019001800148052129A008200A8008A00A400920082009800640085268030803A0032803900348030803600100019002708E008A009C00A800A400820086009E00580088008A00AA005800600058009A00C200E800CA00E400D200C200D8004000640058008E008A009C00A800A4008200A800B0005800
310
4A00E600580050008E008A009C009A00A6008E004000CE00CA00DC00C800EE00CE004000680060005201482268020802980298020A9A00C200E600E600CA0099A380228027002A0029002080218027801600220022802A801600180016002680308039803980328016002380228027002A00290020802A002C001600128039
310
8016001400238022802700268029802380100033803280370032003B80338010001A0019001480520AA000A400920086008A0082A80039003280348039802668E008A009C00A800A400820086009E00580088008A00AA00580060005800A000E400CA00D200E60058008E008A009C00A800A4008200A800B00058004A00E60
310
0580050008E008A009C009A00A6008E004000CE00CA00DC00C800EE00CE004000680066005201481A200248026802168200C400DA00CA00E600E600EA00DC00CE00CA00DC009CA380228027002A0029002080218027801600220022802A801600180016002080310036803280398039803A803700338032803700160023802
310
28027002A00290020802A002C0016001280398016001400238022802700268029802380100033803280370032003B80338010001A001A001480521284009E009A00BE00AA009C009200A800A60084A280348037003400328034803A003280370054839E801E0024802A00228026801F0020E7A0078009200A8008A009A007C
310
00839E801E0024802A00228026801F0020E7A0078009200A8008A009A007C00839E801E0024802A00228026801F0020C7A007800A200A800B2007C00839E801E0024802A00228026801F0020E7A0078009200A8008A009A007C015552026201216CA00C2001200CA00C20012009400CA00C800CA0014008AB9803880368004
310
80398038803680048028803A8030803200390030803A00368032803A00328039000500238E600E200C600DA001200E600E200C600DA001200A200EA00C200C800E400C200E800F400CA00DC00E800D200DA00CA00E800CA00E40014008AB980388033003A0004803980388033003A00048028803A8030803200390030803A0
310
033003A806F80050022CE600E200D200DC001200E600E200D200DC001200A200EA00C200C800E400C200E800F400DE00D800D8001400883380308036000480338030803600048023803080360036003780370032800500218E200E8001200E200E8001200A200EA00C200E400E8001400933600388032002F8037803D00048
310
03600388032002F8037803D00048027803A8037003180328010001400230036007E0039803980348033803580328034803A003980368030806F8014800500214D8001200D80012009800D200E800CA00E400140088B6803600048036803600048026803480360036003480360034803A00328039000500216F200C8001200F
310
200C8001200B200C200E400C80014008533003A00048033003A00048023003A806F800500216D200DC001200D200DC001200B400DE00D800D8001400853680048036800480268032803A00328039000500222C600DA001200C600DA001200B400CA00DC00E800D200DA00CA00E800CA00E400140088B680368004803680368
310
0048026803480360036003480368032803A00328039000500218D800C4001200D800C4001200A000CC00EA00DC00C80014008637803D00048037803D00048027803A803700318032800500214CE001200CE0012008E00E400C200DA00DA00140088B6803380048036803380048026803480360036003480338039003080368
310
03680050021CC400F0001200C400F0001200A200EA00C200C800E400C200E80014008096807A2D4C
340
13
340
0
340
0
340
0
340
13
340
13
340
13
 94
        0
1001
ACAD
1000
AcRTDxfName
1000
ACMBOMSTANDARDDIN
1000
AcRTDxfName
1000
ACMBOMSTANDARDDIN
1000
AcRTDxfName
1000
ACMBOMSTANDARDDIN
1000
AcRTDxfName
1000
ACMBOMSTANDARDDIN
  0
ACAD_PROXY_OBJECT
  5
4E7
330
4DD
100
AcDbProxyObject
 90
      499
 91
      566
 95
 10158113
 70
     0
 93
      256
310
73C00000000000014400000000000000510201C00030C020000003000111EA3ACC
340
D06
 94
        0
1001
ACAD
1000
AcRTDxfName
1000
ACMDETAILSTANDARDDIN
1000
AcRTDxfName
1000
ACMDETAILSTANDARDDIN
1000
AcRTDxfName
1000
ACMDETAILSTANDARDDIN
1000
AcRTDxfName
1000
ACMDETAILSTANDARDDIN
  0
ACAD_PROXY_OBJECT
  5
D05
330
4DD
100
AcDbProxyObject
 90
      499
 91
      588
 95
 10158113
 70
     0
 93
      248
310
73C00000000000014400000000000000510200000030002000000300012A04CC
340
CF0
 94
        0
1001
ACAD
1000
AcRTDxfName
1000
ACMDETAILTANDARDCUSTOM
1000
AcRTDxfName
1000
ACMDETAILTANDARDCUSTOM
1000
AcRTDxfName
1000
ACMDETAILTANDARDCUSTOM
  0
ACAD_PROXY_OBJECT
  5
4E8
330
4DD
100
AcDbProxyObject
 90
      499
 91
      567
 95
 10158113
 70
     0
 93
      256
310
73C0000000000001C400000000000000510207800030C0201C00030C01120226CC
340
D15
 94
        0
1001
ACAD
1000
AcRTDxfName
1000
ACMSECTIONSTANDARDDIN
1000
AcRTDxfName
1000
ACMSECTIONSTANDARDDIN
1000
AcRTDxfName
1000
ACMSECTIONSTANDARDDIN
1000
AcRTDxfName
1000
ACMSECTIONSTANDARDDIN
  0
ACAD_PROXY_OBJECT
  5
D04
330
4DD
100
AcDbProxyObject
 90
      499
 91
      587
 95
 10158113
 70
     0
 93
      248
310
73C00000000000014400000000000000510200000030002000000300012A04CC
340
CEE
 94
        0
1001
ACAD
1000
AcRTDxfName
1000
ACMSECTIONSTANDARDCUSTOM
1000
AcRTDxfName
1000
ACMSECTIONSTANDARDCUSTOM
1000
AcRTDxfName
1000
ACMSECTIONSTANDARDCUSTOM
  0
ACAD_PROXY_OBJECT
  5
4E9
330
4DD
100
AcDbProxyObject
 90
      499
 91
      568
 95
 10158113
 70
     0
 93
      389
310
73C0000000000000C400000000000000310200800030C0200C00030C0111FD0000000000000108147A14AE47E17A3E4014
 94
        0
1001
ACAD
1000
AcRTDxfName
1000
ACMCENTERLINESTANDARDDIN
1000
AcRTDxfName
1000
ACMCENTERLINESTANDARDDIN
1000
AcRTDxfName
1000
ACMCENTERLINESTANDARDDIN
1000
AcRTDxfName
1000
ACMCENTERLINESTANDARDDIN
  0
ACAD_PROXY_OBJECT
  5
4EA
330
4DD
100
AcDbProxyObject
 90
      499
 91
      569
 95
 10158113
 70
     0
 93
      250
310
73C0000000000000C400000000000000310200800030C0200C00030C0111FC0C
340
0
 94
        0
1001
ACAD
1000
AcRTDxfName
1000
ACMTHREADLINESTANDARDDIN
1000
AcRTDxfName
1000
ACMTHREADLINESTANDARDDIN
1000
AcRTDxfName
1000
ACMTHREADLINESTANDARDDIN
1000
AcRTDxfName
1000
ACMTHREADLINESTANDARDDIN
  0
ACAD_PROXY_OBJECT
  5
4EB
330
4DD
100
AcDbProxyObject
 90
      499
 91
      570
 95
 10158113
 70
     0
 93
    14628
310
73C0000000000000C400000000000000310200800030C0200C00030C0111FA1080A17480A15480A0480A0280E9014050340501407480A0280A0280A03A405014790340501D20280A901405481A028AD5567EA1284AB0037803900360030803380328010001880014027A004A004A00C60078009000DE00D800CA007400C600
310
E800C800D200C2007C004000F000400078009000DE00D800CA007400C600E800C800CA00E000E800D0007C004000AA00B800A0007800D200CC005000CA00E200EA00C200D80050009000DE00D800CA007400E800C200E000E000CA00C80058004400600044005200580044004A004A00C600440040009000DE00D800CA0074
310
00C800D200C20058009000DE00D800CA007400DC00DE00DA00D200DC00C200D80052007C007800D200CC005000CA00E200EA00C200D80050009000DE00D800CA007400E800C200E000E000CA00C80058004400620044005200580044004000F0004000440040009000DE00D800CA007400A800C200E0008800CA00E000E800
310
D00058004400440052007C007800D200CC005000CA00E200EA00C200D80050009000DE00D800CA007400E800CA00E400DA00D200DC00C200E800D200DE00DC00580044006000440052005800D200CC005000CA00E200EA00C200D80050009000DE00D800CA007400E800C200E000E000CA00C8005800440060004400520058
310
0044004000F000400044005800440040005E0040004400520058004400440052007C007800D200CC005000CA00E200EA00C200D80050009000DE00D800CA007400E800CA00E400DA00D200DC00C200E800D200DE00DC005800440060004400520058009000DE00D800CA007400C800CA00E000E800D0005800440044005200
310
7C0084AB0037803900360030803380328010001880016027A004A004A00C60078009000DE00D800CA007400C600E800C800D200C2007C004000F000400078009000DE00D800CA007400C600E800C200DC00CE00D800CA007C004A004A00C800B800A0007800D200CC005000CA00E200EA00C200D80050009000DE00D800CA0
310
07400E800C200E000E000CA00C80058004400600044005200580044004A004A00C600440040009000DE00D800CA007400C800D200C20058009000DE00D800CA007400DC00DE00DA00D200DC00C200D80052007C007800D200CC005000CA00E200EA00C200D80050009000DE00D800CA007400E800C200E000E000CA00C8005
310
8004400620044005200580044004000F0004000440040009000DE00D800CA007400A800C200E0008800CA00E000E800D00058004400440052007C007800D200CC005000CA00E200EA00C200D80050009000DE00D800CA007400E800CA00E400DA00D200DC00C200E800D200DE00DC00580044006000440052005800D200CC0
310
05000CA00E200EA00C200D80050009000DE00D800CA007400E800C200E000E000CA00C80058004400600044005200580044004000F000400044005800440040005E0040004400520058004400440052007C007800D200CC005000CA00E200EA00C200D80050009000DE00D800CA007400E800CA00E400DA00D200DC00C200E
310
800D200DE00DC005800440060004400520058009000DE00D800CA007400C800CA00E000E800D00058004400440052007C0084AB00378039003600308033803280100018803CC7A007800D200CC005000CA00E200EA00C200D80050009000DE00D800CA007400E800C200E000E000CA00C80058004400600044005200580044
310
004A004A00C600440040009000DE00D800CA007400C800D200C20058009000DE00D800CA007400DC00DE00DA00D200DC00C200D80052007C007800D200CC005000CA00E200EA00C200D80050009000DE00D800CA007400E800C200E000E000CA00C80058004400620044005200580044004000F0004000440040009000DE00
310
D800CA007400A800C200E0008800CA00E000E800D00058004400440052007C007800D200CC005000CA00E200EA00C200D80050009000DE00D800CA007400E800CA00E400DA00D200DC00C200E800D200DE00DC00580044006000440052005800D200CC005000CA00E200EA00C200D80050009000DE00D800CA007400E800C2
310
00E000E000CA00C80058004400600044005200580044004000F000400044005800440040005E0040004400520058004400440052007C007800D200CC005000CA00E200EA00C200D80050009000DE00D800CA007400E800CA00E400DA00D200DC00C200E800D200DE00DC005800440060004400520058009000DE00D800CA00
310
7400C800CA00E000E800D00058004400440052007C0084AB003780390036003080338032801000190022E7A007800A600A8008800A000740088008A00A60086007C0040007800A600A8008800A0007400A600A80088007C0084AB00378039003600308033803280100018802187A007800A600A8008800A000740088008A00
310
A60086007C0084AB00378039003600308033803280100019802167A007800A600A8008800A0007400A600A80088007C00F06DC
360
4F8
330
4F8
360
4F9
330
4F9
360
4F7
330
4F7
360
4F5
360
4F4
360
4F6
330
4F5
330
4F4
330
4F6
 94
        0
1001
ACAD
1000
AcRTDxfName
1000
ACMNOTESTANDARDDIN
1000
AcRTDxfName
1000
ACMNOTESTANDARDDIN
1000
AcRTDxfName
1000
ACMNOTESTANDARDDIN
1000
AcRTDxfName
1000
ACMNOTESTANDARDDIN
  0
ACAD_PROXY_OBJECT
  5
4EC
330
4DD
100
AcDbProxyObject
 90
      499
 91
      571
 95
 10158113
 70
     0
 93
      348
310
73C0000000000000C400000000000000310200800030C0200C00030C0111FA175203480A035520274003401C
 94
        0
1001
ACAD
1000
AcRTDxfName
1000
ACMTAPERSTANDARDDIN
1000
AcRTDxfName
1000
ACMTAPERSTANDARDDIN
1000
AcRTDxfName
1000
ACMTAPERSTANDARDDIN
1000
AcRTDxfName
1000
ACMTAPERSTANDARDDIN
  0
ACAD_PROXY_OBJECT
  5
4ED
330
4DD
100
AcDbProxyObject
 90
      499
 91
      572
 95
 10158113
 70
     0
 93
     1415
310
73C00000000000014400000000000000310201C00030C0200C00030C0111FA028100000000000006881508F400F0014C015001480154010C015000E8010C013C01340140017C013801040134011400F8008000F0014C015001480154010C015000E8015801240114015C017C013801040134011400F80080010401B801CC01
310
A4018C01A001D0008000A000F0014C015001480154010C015000E8014C0158017C014C010C01040130011400F800A400A812
340
4DF
 94
        0
1001
ACAD
1000
AcRTDxfName
1000
ACMANOOTATIONVIEWSTANDARDDIN
1000
AcRTDxfName
1000
ACMANOOTATIONVIEWSTANDARDDIN
1000
AcRTDxfName
1000
ACMANOOTATIONVIEWSTANDARDDIN
1000
AcRTDxfName
1000
ACMANOOTATIONVIEWSTANDARDDIN
  0
ACAD_PROXY_OBJECT
  5
4FA
330
4DD
100
AcDbProxyObject
 90
      499
 91
      574
 95
 10158113
 70
     0
 93
      262
310
73C0000000000000C400000000000000310200800030C0200C00030C0111FA0750
340
4DE
 94
        0
1001
ACAD
1000
AcRTDxfName
1000
ACAMGLAYSTD
1000
AcRTDxfName
1000
ACAMGLAYSTD
1000
AcRTDxfName
1000
ACAMGLAYSTD
1000
AcRTDxfName
1000
ACAMGLAYSTD
  0
ACAD_PROXY_OBJECT
  5
4FB
330
4DD
100
AcDbProxyObject
 90
      499
 91
      575
 95
 10158113
 70
     0
 93
      551
310
73C0000000000000C400000000000000310200800030C0200C00030C0111FA080000000000001420000000000000048807FFFC408F000F801023C003E00409A000DC01F802
340
4FC
340
0
340
0
340
4FD
340
4FE
340
4FF
340
500
340
501
340
506
340
0
340
4FE
340
0
 94
        0
1001
ACAD
1000
AcRTDxfName
1000
ACAMGDIMSTD
1000
AcRTDxfName
1000
ACAMGDIMSTD
1000
AcRTDxfName
1000
ACAMGDIMSTD
1000
AcRTDxfName
1000
ACAMGDIMSTD
  0
ACAD_PROXY_OBJECT
  5
507
330
4DD
100
AcDbProxyObject
 90
      499
 91
      576
 95
 10158113
 70
     0
 93
    29414
310
73C0000000000000C400000000000000310200800030C0200C00030C0111FA46307FFFFFFFA0606000600000000000006204010000618068181800180000000000001881004000186018080F0001800000000000000000000000000000002000000000000062040100006180200000000000006204010000618040378080F0
310
00180000000000000000000000000000000200000000000006204010000618020000000000000620401000061804037A1C88222812068220A83A1886A1E80A1C89A2A81A2483A28880000808000808200110A00010101010104002234000202000202000040A8000404000404000081D0000808000808000104A0001010001
310
01030020B4000202000202020041E80004040004001000865000080800080020010DA000101010101040021F40002020002020A01406800040400040414028750000808000808280113A000101000101050022B4000202000202080044A800040400040418008A5220000000000000001CA04FFFFFFFF030000000000000D1
310
027FFFFFFF80800000000000068813FFFFFFFC0400000000000034409FFFFFFFE040000000000001A204FFFFFFFF020000000000000D1027FFFFFFF81800000000000072813FFFFFFFC0C00000000000049409FFFFFFFE0600000000004028A04FFFFFFFF000000000000000D1027FFFFFFF80000000000000048813FFFFFF
310
FC0000000000000034409FFFFFFFE000000000000001A204FFFFFFFF000000000000000D1027FFFFFFF80000000000000068813FFFFFFFC0C00000000000028409FFFFFFFE8800000000000000072813FFFFFFFC0C00000000000034409FFFFFFFE060000000000001A204FFFFFFFF030000000000000D1027FFFFFFF81800
310
000000000068813FFFFFFFC0C00000000000034409FFFFFFFE060000000000001CA04FFFFFFFF03000000000000125027FFFFFFF818000000000100A2813FFFFFFFC0000000000000034409FFFFFFFE0000000000000012204FFFFFFFF000000000000000D1027FFFFFFF80000000000000068813FFFFFFFC0000000000000
310
034409FFFFFFFE060000000000001A204FFFFFFFF030000000000000A1027FFFFFFFA0E8800000021E000000810000002060000008200000020A00000083800000202890000001FFFFFFFE81202000283A2000000087800000204000000818000002080000008280000020E000000810000A068800000021E0000008A80000
310
01FFFFFFFF2209600DE00DE00E400C800D200DC00C200E800CA00DC00D800D200E600E800CA009FA380228027002A0029002080218027801600220022802A80160018001600258037803780390032003480370030803A00328037003600348039803A00328016002380228027002A00290020802A002C00160012803980160
310
0140023802280270026802980238010003380328037003200348036803D00100019801800148021E7A0078008800CA00CC00C200EA00D800E800A800D200E800D800CA007C008921003780340039003A803700338039803200328033003480370034803A003480378037002828E008A009C00A800A400820086009E0058008
310
8008A00AA005800600058008400DE00D000E400EA00DC00CE00E600C800CA00CC00D200DC00D200E800D200DE00DC0058008E008A009C00A800A4008200A800B00058004A00E600580050008E008A009C009A00A6008E004000CE00CA00DC00C800D200DA00F4004000660062005200879E801E0022003280330030803A803
310
6003A002A0034803A00360032801F00210AA00E400E600E000E400EA00DC00CE009B2380228027002A0029002080218027801600220022802A801600180016002A8039003980380039003A803700338016002380228027002A00290020802A002C001600128039801600140023802280270026802980238010003380328037
310
003200348036803D00100018801480208A000DE00E6005C00992380228027002A0029002080218027801600220022802A80160018001600280037803980170016002380228027002A00290020802A002C001600128039801600140023802280270026802980238010003380328037003200348036803D0010001900148027E
310
7A0078009E00E400D200CE00D200DC007C00780092008C0050009E00A40050009200A6008400980082009C00960050009E00E400D200CE00D200DC00520058009200A6008400980082009C00960050009200DC00C800CA00F00052005200580044004400580044005C00440052007C0078009200DC00C800CA00F0007C0080
310
AC0025E8E008A009C00A800A400820086009E00580088008A00AA00580060005800B00058008E008A009C00A800A4008200A800B00058004A00E600580050008E008A009C009A00A6008E004000CE00CA00DC00C800D200DA00F40040006600520080AC8025E8E008A009C00A800A400820086009E00580088008A00AA0058
310
0060005800B20058008E008A009C00A800A4008200A800B00058004A00E600580050008E008A009C009A00A6008E004000CE00CA00DC00C800D200DA00F40040006800520080B90025E8E008A009C00A800A400820086009E00580088008A00AA00580060005800E40058008E008A009C00A800A4008200A800B00058004A0
310
0E600580050008E008A009C009A00A6008E004000CE00CA00DC00C800D200DA00F40040006C0052008C3D802E00330029803C8036803100378036003E00310018003E00348018003E00318019003E00380018001D8035003E8028C8E008A009C00A800A400820086009E00580088008A00AA00580060005800F600B800CC00
310
A600F200DA00C400DE00D800F800C4006000F800D2006000F800C6006400F800E00060007600D400FA0058008E008A009C00A800A4008200A800B00058004A00E600580050008E008A009C009A00A6008E004000CE00CA00DC00C800D200DA00F40040006E005200819280128031802628E008A009C00A800A400820086009
310
E00580088008A00AA005800600058004A004A00C60058008E008A009C00A800A4008200A800B00058004A00E600580050008E008A009C009A00A6008E004000CE00CA00DC00C800D200DA00F400400070005200862100328039803180340039003280348031003A80370033802768E008A009C00A800A400820086009E0058
310
0088008A00AA005800600058008400CA00E600C600D000E400CA00D200C400EA00DC00CE0058008E008A009C00A800A4008200A800B00058004A00E600580050008E008A009C009A00A6008E004000CE00CA00DC00C800D200DA00F40040006400600052008227003780390036802668E008A009C00A800A400820086009E0
310
0580088008A00AA005800600058009C00DE00E400DA0058008E008A009C00A800A4008200A800B00058004A00E600580050008E008A009C009A00A6008E004000CE00CA00DC00C800D200DA00F4004000640062005200842A8039003980380039003A803700338026C8E008A009C00A800A400820086009E00580088008A00
310
AA00580060005800AA00E400E600E000E400EA00DC00CE0058008E008A009C00A800A4008200A800B00058004A00E600580050008E008A009C009A00A6008E004000CE00CA00DC00C800D200DA00F400400062005200809880208A000DE00E6005C0099A380228027002A0029002080218027801600220022802A801600180
310
01600280037803980170016002380228027002A00290020802A002C001600128039801600140023802280270026802980238010003380328037003200348036803D00100018801A00148020A9200DC00C800CA00F0009A2380228027002A0029002080218027801600220022802A8016001800160024803700320032803C00
310
16002380228027002A00290020802A002C001600128039801600140023802280270026802980238010003380328037003200348036803D00100018801A80148021C8400DE00D000E400EA00DC00CE00E600DC00EA00DA00DA00CA00E4009EA380228027002A0029002080218027801600220022802A8016001800160021003
310
780340039003A8037003380398037003A80368036803280390016002380228027002A00290020802A002C001600128039801600140023802280270026802980238010003380328037003200348036803D00100018801B80148021E8400CA00DC00EA00E800F400CA00E400CA00D800CA00DA00CA00DC00E8009F2380228027
310
002A0029002080218027801600220022802A801600180016002100328037003A803A003D00328039003280360032803680328037003A0016002380228027002A00290020802A002C001600128039801600140023802280270026802980238010003380328037003200348036803D00100019001900148020E8400DE00D000E
310
400EA00DC00CE009B2380228027002A0029002080218027801600220022802A8016001800160021003780340039003A803700338016002380228027002A00290020802A002C001600128039801600140023802280270026802980238010003380328037003200348036803D00100018801B00148020A9A00CA00DC00CE00CA
310
009A2380228027002A0029002080218027801600220022802A801600180016002680328037003380328016002380228027002A00290020802A002C001600128039801600140023802280270026802980238010003380328037003200348036803D00100018801C80148027E7A0078009E00E400D200CE00D200DC007C00780
310
092008C0050009E00A40050009200A6008400980082009C00960050009E00E400D200CE00D200DC00520058009200A6008400980082009C00960050009200DC00C800CA00F00052005200580044004400580044005C00440052007C0078009200DC00C800CA00F0007C00A29E801E002780390034803380348037001F001E0
310
02480230014002780290014002480298021002600208027002580140027803900348033803480370014801600248029802100260020802700258014002A8039803280390024803A003280368014801480160011001100160011001700110014801F001E002A8039803280390024803A00328036801F00722B4
340
0
340
0
340
0
340
0
340
4DF
340
4DF
 94
        0
1001
ACAD
1000
AcRTDxfName
1000
ACAMGHOLECHARTSTDDIN
1000
AcRTDxfName
1000
ACAMGHOLECHARTSTDDIN
1000
AcRTDxfName
1000
ACAMGHOLECHARTSTDDIN
1000
AcRTDxfName
1000
ACAMGHOLECHARTSTDDIN
  0
ACAD_PROXY_OBJECT
  5
508
330
4DD
100
AcDbProxyObject
 90
      499
 91
      577
 95
 10158113
 70
     0
 93
     7995
310
73C0000000000000C400000000000000310200800030C0200C00030C0111FB2E852028220540000000000201590000000000000032400000000000000890103440049004E004191001240138017C010400CC0109440049004E005F005400490054004C00450044D1001240138017C01080148017C0148019401D801A401CC0
310
1A401BC01B801B001A401CC01D0011041003000200028003800340031007800310031003800390020006D006D0029004191001240138017C010400C00111410033003000200028003200390037007800310032003300300020006D006D00290041D1001240138017C010400CC00C0011141003200300020002800340032003
310
0007800310031003800390020006D006D00290041D1001240138017C010400C800C0010F4100330032002000280032003900370078003500390034006D006D00290041D1001240138017C010400CC00C8011041003200310020002800340032003000780038003400310020006D006D00290041D1001240138017C010400C8
310
00C4010F4100330020002800320039003700780034003200300020006D006D0029004191001240138017C010400CC011041003300310020002800320039003700780038003400310020006D006D00290041D1001240138017C010400CC00C4010F4100320020002800340032003000780035003900340020006D006D002900
310
4191001240138017C010400C8010F4100310020002800350039003400780038003400310020006D006D0029004191001240138017C010400C4010F4100340020002800320039003700780032003100300020006D006D0029004191001240138017C010400D001164D006500740072006900730063006800650073002000530
310
0630068007200690066007400660065006C0064004251001240138017C0150012401500130011401145200650076006900730069006F006E0073007600650072006D00650072006B005F0042004C005F0044D1001240138017C01080130017C0148019401D801A401CC01A401BC01B801B001A401CC01D0011452006500760
310
06900730069006F006E0073007600650072006D00650072006B005F0054004C005F0044D1001240138017C01500130017C0148019401D801A401CC01A401BC01B801B001A401CC01D001145200650076006900730069006F006E0073007600650072006D00650072006B005F00420052005F0044D1001240138017C0108014
310
8017C0148019401D801A401CC01A401BC01B801B001A401CC01D001145200650076006900730069006F006E0073007600650072006D00650072006B005F00540052005F0044D1001240138017C01500148017C0148019401D801A401CC01A401BC01B801B001A401CC01D0028E076C
 94
        0
1001
ACAD
1000
AcRTDxfName
1000
ACAMGTITLESTD
1000
AcRTDxfName
1000
ACAMGTITLESTD
1000
AcRTDxfName
1000
ACAMGTITLESTD
1000
AcRTDxfName
1000
ACAMGTITLESTD
  0
FIELD
  5
D11
102
{ACAD_REACTORS
330
D10
102
}
330
D10
100
AcDbField
  1
_text
  2
%<\_FldIdx 0>% %<\_FldIdx 1>%
 90
        2
360
D12
360
D14
 97
        0
  4

 91
       63
 92
        0
 94
        9
 95
        2
 96
        0
300

 93
        0
  7
ACFD_FIELD_VALUE
 90
        0
 91
        0
301

 98
        0
  0
FIELD
  5
D1C
102
{ACAD_REACTORS
330
D1B
102
}
330
D1B
100
AcDbField
  1
_text
  2
%<\_FldIdx 0>%-%<\_FldIdx 1>%
 90
        2
360
D1D
360
D1E
 97
        0
  4

 91
       63
 92
        0
 94
        9
 95
        2
 96
        0
300

 93
        0
  7
ACFD_FIELD_VALUE
 90
        0
 91
        0
301

 98
        0
  0
ACAD_PROXY_OBJECT
  5
4F8
330
0
100
AcDbProxyObject
 90
      499
 91
      573
 95
 10158113
 70
     0
 93
     4474
310
73E0101212AC00DE00E400D800C200CE00CA004000620005009E801280128031801E0024003780360032801D0031803A003200348030801F0010003C0010001E0024003780360032801D0031803A003200328038003A0034001F0010002A802E0028001E00348033001400328038803A803080360014002400378036003280
310
1D003A003080380038003280320016001100180011001480160011001280128031801100100024003780360032801D00320034803080160024003780360032801D00370037803680348037003080360014801F001E00348033001400328038803A8030803600140024003780360032801D003A003080380038003280320016
310
0011001880110014801600110010003C0010001100100024003780360032801D002A00308038002200328038003A00340016001100110014801F001E00348033001400328038803A8030803600140024003780360032801D003A003280390036803480370030803A0034803780370016001100180011001480160034803300
310
1400328038803A8030803600140024003780360032801D003A0030803800380032803200160011001800110014801600110010003C0010001100160011001000178010001100148016001100110014801F001E00348033001400328038803A8030803600140024003780360032801D003A003280390036803480370030803A
310
0034803780370016001100180011001480160024003780360032801D003200328038003A00340016001100110014801F002608CC
 94
        0
1001
ACAD
1000
AcRTDxfName
1000
AMDTNOTETEMPLATEDB
1000
AcRTDxfName
1000
AMDTNOTETEMPLATEDB
1000
AcRTDxfName
1000
AMDTNOTETEMPLATEDB
1000
AcRTDxfName
1000
AMDTNOTETEMPLATEDB
  0
ACAD_PROXY_OBJECT
  5
4F9
330
0
100
AcDbProxyObject
 90
      499
 91
      573
 95
 10158113
 70
     0
 93
     4490
310
73E0101212AC00DE00E400D800C200CE00CA004000620005809E801280128031801E0024003780360032801D0031803A003200348030801F0010003C0010001E0024003780360032801D0031803A00308037003380360032801F001280128032002E0028001E00348033001400328038803A80308036001400240037803600
310
32801D003A003080380038003280320016001100180011001480160011001280128031801100100024003780360032801D00320034803080160024003780360032801D00370037803680348037003080360014801F001E00348033001400328038803A8030803600140024003780360032801D003A00308038003800328032
310
00160011001880110014801600110010003C0010001100100024003780360032801D002A00308038002200328038003A00340016001100110014801F001E00348033001400328038803A8030803600140024003780360032801D003A003280390036803480370030803A003480378037001600110018001100148016003480
310
33001400328038803A8030803600140024003780360032801D003A0030803800380032803200160011001800110014801600110010003C0010001100160011001000178010001100148016001100110014801F001E00348033001400328038803A8030803600140024003780360032801D003A003280390036803480370030
310
803A0034803780370016001100180011001480160024003780360032801D003200328038003A00340016001100110014801F002E08CC
 94
        0
1001
ACAD
1000
AcRTDxfName
1000
AMDTNOTETEMPLATEDB
1000
AcRTDxfName
1000
AMDTNOTETEMPLATEDB
1000
AcRTDxfName
1000
AMDTNOTETEMPLATEDB
1000
AcRTDxfName
1000
AMDTNOTETEMPLATEDB
  0
ACAD_PROXY_OBJECT
  5
4F7
330
0
100
AcDbProxyObject
 90
      499
 91
      573
 95
 10158113
 70
     0
 93
     3890
310
73E0101212AC00DE00E400D800C200CE00CA0040006200F31E801E00348033001400328038803A8030803600140024003780360032801D003A003080380038003280320016001100180011001480160011001280128031801100100024003780360032801D00320034803080160024003780360032801D0037003780368034
310
8037003080360014801F001E00348033001400328038803A8030803600140024003780360032801D003A0030803800380032803200160011001880110014801600110010003C0010001100100024003780360032801D002A00308038002200328038003A00340016001100110014801F001E00348033001400328038803A80
310
30803600140024003780360032801D003A003280390036803480370030803A00348037803700160011001800110014801600348033001400328038803A8030803600140024003780360032801D003A0030803800380032803200160011001800110014801600110010003C0010001100160011001000178010001100148016
310
001100110014801F001E00348033001400328038803A8030803600140024003780360032801D003A003280390036803480370030803A0034803780370016001100180011001480160024003780360032801D003200328038003A00340016001100110014801F000207CC
 94
        0
1001
ACAD
1000
AcRTDxfName
1000
AMDTNOTETEMPLATEDB
1000
AcRTDxfName
1000
AMDTNOTETEMPLATEDB
1000
AcRTDxfName
1000
AMDTNOTETEMPLATEDB
1000
AcRTDxfName
1000
AMDTNOTETEMPLATEDB
  0
ACAD_PROXY_OBJECT
  5
4F5
330
0
100
AcDbProxyObject
 90
      499
 91
      573
 95
 10158113
 70
     0
 93
      578
310
73E0101212AC00DE00E400D800C200CE00CA00400064008B9E801E0029802A00220028001D0022002280298021801F0010001E0029802A00220028001D0029802A0022001F000A014C
 94
        0
1001
ACAD
1000
AcRTDxfName
1000
AMDTNOTETEMPLATEDB
1000
AcRTDxfName
1000
AMDTNOTETEMPLATEDB
1000
AcRTDxfName
1000
AMDTNOTETEMPLATEDB
1000
AcRTDxfName
1000
AMDTNOTETEMPLATEDB
  0
ACAD_PROXY_OBJECT
  5
4F4
330
0
100
AcDbProxyObject
 90
      499
 91
      573
 95
 10158113
 70
     0
 93
      402
310
73E0101212AC00DE00E400D800C200CE00CA0040006200861E801E0029802A00220028001D0022002280298021801F003200CC
 94
        0
1001
ACAD
1000
AcRTDxfName
1000
AMDTNOTETEMPLATEDB
1000
AcRTDxfName
1000
AMDTNOTETEMPLATEDB
1000
AcRTDxfName
1000
AMDTNOTETEMPLATEDB
1000
AcRTDxfName
1000
AMDTNOTETEMPLATEDB
  0
ACAD_PROXY_OBJECT
  5
4F6
330
0
100
AcDbProxyObject
 90
      499
 91
      573
 95
 10158113
 70
     0
 93
      386
310
73E0101212AC00DE00E400D800C200CE00CA0040006600859E801E0029802A00220028001D0029802A0022001F002A00CC
 94
        0
1001
ACAD
1000
AcRTDxfName
1000
AMDTNOTETEMPLATEDB
1000
AcRTDxfName
1000
AMDTNOTETEMPLATEDB
1000
AcRTDxfName
1000
AMDTNOTETEMPLATEDB
1000
AcRTDxfName
1000
AMDTNOTETEMPLATEDB
  0
FIELD
  5
D12
330
D11
100
AcDbField
  1
AcVar
  2
\AcVar ViewDetailId
 90
        0
 97
        0
  4

 91
       63
 92
        0
 94
       11
 95
        2
 96
        0
300

 93
        1
  6
Variable
 90
        4
  1
ViewDetailId
  7
ACFD_FIELD_VALUE
 90
        0
 91
        0
301

 98
        4
  0
FIELD
  5
D14
330
D11
100
AcDbField
  1
AcVar
  2
\AcVar ViewScale \f "%sn"
 90
        0
 97
        0
  4
%sn
 91
       63
 92
        0
 94
       11
 95
        2
 96
        0
300

 93
        1
  6
Variable
 90
        4
  1
ViewScale
  7
ACFD_FIELD_VALUE
 90
        0
 91
        0
301

 98
        4
  0
FIELD
  5
D1D
330
D1C
100
AcDbField
  1
AcVar
  2
\AcVar ViewSectionStartId
 90
        0
 97
        0
  4

 91
       63
 92
        0
 94
       11
 95
        2
 96
        0
300

 93
        1
  6
Variable
 90
        4
  1
ViewSectionStartId
  7
ACFD_FIELD_VALUE
 90
        0
 91
        0
301

 98
        4
  0
FIELD
  5
D1E
330
D1C
100
AcDbField
  1
AcVar
  2
\AcVar ViewSectionEndId
 90
        0
 97
        0
  4

 91
       63
 92
        0
 94
       11
 95
        2
 96
        0
300

 93
        1
  6
Variable
 90
        4
  1
ViewSectionEndId
  7
ACFD_FIELD_VALUE
 90
        0
 91
        0
301

 98
        4
  0
ENDSEC
  0
EOF
