  0
SECTION
  2
HEADER
  9
$ACADVER
  1
AC1015
  9
$ACADMAINTVER
 70
    20
  9
$DWGCODEPAGE
  3
ANSI_1252
  9
$INSBASE
 10
0.0
 20
0.0
 30
0.0
  9
$EXTMIN
 10
-66.04443186852677
 20
-39.80453375937009
 30
-0.0000000000000058
  9
$EXTMAX
 10
122.0386058784074
 20
95.98114094694755
 30
0.0000000000000104
  9
$LIMMIN
 10
-170.0
 20
-170.0
  9
$LIMMAX
 10
519.0
 20
260.0
  9
$ORTHOMODE
 70
     1
  9
$REGENMODE
 70
     1
  9
$FILLMODE
 70
     1
  9
$QTEXTMODE
 70
     0
  9
$MIRRTEXT
 70
     0
  9
$LTSCALE
 40
1.0
  9
$ATTMODE
 70
     1
  9
$TEXTSIZE
 40
2.5
  9
$TRACEWID
 40
1.0
  9
$TEXTSTYLE
  7
USER1
  9
$CLAYER
  8
2
  9
$CELTYPE
  6
BYLAYER
  9
$CECOLOR
 62
   256
  9
$CELTSCALE
 40
1.0
  9
$DISPSILH
 70
     0
  9
$DIMSCALE
 40
1.0
  9
$DIMASZ
 40
2.5
  9
$DIMEXO
 40
1.0
  9
$DIMDLI
 40
15.0
  9
$DIMRND
 40
0.0
  9
$DIMDLE
 40
0.0
  9
$DIMEXE
 40
2.0
  9
$DIMTP
 40
0.0
  9
$DIMTM
 40
0.000000001
  9
$DIMTXT
 40
3.5
  9
$DIMCEN
 40
0.09
  9
$DIMTSZ
 40
0.0
  9
$DIMTOL
 70
     0
  9
$DIMLIM
 70
     0
  9
$DIMTIH
 70
     0
  9
$DIMTOH
 70
     0
  9
$DIMSE1
 70
     0
  9
$DIMSE2
 70
     0
  9
$DIMTAD
 70
     1
  9
$DIMZIN
 70
     0
  9
$DIMBLK
  1

  9
$DIMASO
 70
     1
  9
$DIMSHO
 70
     1
  9
$DIMPOST
  1

  9
$DIMAPOST
  1

  9
$DIMALT
 70
     0
  9
$DIMALTD
 70
     3
  9
$DIMALTF
 40
0.0393701
  9
$DIMLFAC
 40
1.0
  9
$DIMTOFL
 70
     1
  9
$DIMTVP
 40
0.0
  9
$DIMTIX
 70
     0
  9
$DIMSOXD
 70
     0
  9
$DIMSAH
 70
     0
  9
$DIMBLK1
  1

  9
$DIMBLK2
  1

  9
$DIMSTYLE
  2
AM_DIN
  9
$DIMCLRD
 70
     0
  9
$DIMCLRE
 70
     0
  9
$DIMCLRT
 70
     0
  9
$DIMTFAC
 40
0.7071069999999999
  9
$DIMGAP
 40
1.0
  9
$DIMJUST
 70
     0
  9
$DIMSD1
 70
     0
  9
$DIMSD2
 70
     0
  9
$DIMTOLJ
 70
     1
  9
$DIMTZIN
 70
     0
  9
$DIMALTZ
 70
    11
  9
$DIMALTTZ
 70
     8
  9
$DIMUPT
 70
     0
  9
$DIMDEC
 70
     1
  9
$DIMTDEC
 70
     2
  9
$DIMALTU
 70
     3
  9
$DIMALTTD
 70
     3
  9
$DIMTXSTY
  7
STANDARD 3.5 mm
  9
$DIMAUNIT
 70
     0
  9
$DIMADEC
 70
     0
  9
$DIMALTRND
 40
0.0
  9
$DIMAZIN
 70
     2
  9
$DIMDSEP
 70
    46
  9
$DIMATFIT
 70
     3
  9
$DIMFRAC
 70
     0
  9
$DIMLDRBLK
  1

  9
$DIMLUNIT
 70
     2
  9
$DIMLWD
 70
    -1
  9
$DIMLWE
 70
    -1
  9
$DIMTMOVE
 70
     0
  9
$LUNITS
 70
     2
  9
$LUPREC
 70
     2
  9
$SKETCHINC
 40
1.0
  9
$FILLETRAD
 40
0.0
  9
$AUNITS
 70
     0
  9
$AUPREC
 70
     0
  9
$MENU
  1
c:\tdm21\cad\caduti13\tdm13
  9
$ELEVATION
 40
0.0
  9
$PELEVATION
 40
0.0
  9
$THICKNESS
 40
0.0
  9
$LIMCHECK
 70
     0
  9
$CHAMFERA
 40
0.0
  9
$CHAMFERB
 40
0.0
  9
$CHAMFERC
 40
0.0
  9
$CHAMFERD
 40
0.0
  9
$SKPOLY
 70
     0
  9
$TDCREATE
 40
2460364.773182870
  9
$TDUCREATE
 40
2460364.544016204
  9
$TDUPDATE
 40
2460446.481134259
  9
$TDUUPDATE
 40
2460446.251967593
  9
$TDINDWG
 40
0.0639004630
  9
$TDUSRTIMER
 40
0.0639004630
  9
$USRTIMER
 70
     1
  9
$ANGBASE
 50
0.0
  9
$ANGDIR
 70
     0
  9
$PDMODE
 70
     1
  9
$PDSIZE
 40
0.0
  9
$PLINEWID
 40
0.0
  9
$SPLFRAME
 70
     0
  9
$SPLINETYPE
 70
     6
  9
$SPLINESEGS
 70
     8
  9
$HANDSEED
  5
1D9E
  9
$SURFTAB1
 70
     6
  9
$SURFTAB2
 70
     6
  9
$SURFTYPE
 70
     6
  9
$SURFU
 70
     6
  9
$SURFV
 70
     6
  9
$UCSBASE
  2

  9
$UCSNAME
  2

  9
$UCSORG
 10
0.0
 20
0.0
 30
0.0
  9
$UCSXDIR
 10
1.0
 20
0.0
 30
0.0
  9
$UCSYDIR
 10
0.0
 20
1.0
 30
0.0
  9
$UCSORTHOREF
  2

  9
$UCSORTHOVIEW
 70
     0
  9
$UCSORGTOP
 10
0.0
 20
0.0
 30
0.0
  9
$UCSORGBOTTOM
 10
0.0
 20
0.0
 30
0.0
  9
$UCSORGLEFT
 10
0.0
 20
0.0
 30
0.0
  9
$UCSORGRIGHT
 10
0.0
 20
0.0
 30
0.0
  9
$UCSORGFRONT
 10
0.0
 20
0.0
 30
0.0
  9
$UCSORGBACK
 10
0.0
 20
0.0
 30
0.0
  9
$PUCSBASE
  2

  9
$PUCSNAME
  2

  9
$PUCSORG
 10
0.0
 20
0.0
 30
0.0
  9
$PUCSXDIR
 10
1.0
 20
0.0
 30
0.0
  9
$PUCSYDIR
 10
0.0
 20
1.0
 30
0.0
  9
$PUCSORTHOREF
  2

  9
$PUCSORTHOVIEW
 70
     0
  9
$PUCSORGTOP
 10
0.0
 20
0.0
 30
0.0
  9
$PUCSORGBOTTOM
 10
0.0
 20
0.0
 30
0.0
  9
$PUCSORGLEFT
 10
0.0
 20
0.0
 30
0.0
  9
$PUCSORGRIGHT
 10
0.0
 20
0.0
 30
0.0
  9
$PUCSORGFRONT
 10
0.0
 20
0.0
 30
0.0
  9
$PUCSORGBACK
 10
0.0
 20
0.0
 30
0.0
  9
$USERI1
 70
     0
  9
$USERI2
 70
     0
  9
$USERI3
 70
     0
  9
$USERI4
 70
     0
  9
$USERI5
 70
     0
  9
$USERR1
 40
0.0
  9
$USERR2
 40
0.0
  9
$USERR3
 40
0.0
  9
$USERR4
 40
0.0
  9
$USERR5
 40
0.0
  9
$WORLDVIEW
 70
     1
  9
$SHADEDGE
 70
     3
  9
$SHADEDIF
 70
    70
  9
$TILEMODE
 70
     1
  9
$MAXACTVP
 70
    64
  9
$PINSBASE
 10
0.0
 20
0.0
 30
0.0
  9
$PLIMCHECK
 70
     0
  9
$PEXTMIN
 10
-0.0181221163693408
 20
-0.0128136176349472
 30
-0.0000000349181948
  9
$PEXTMAX
 10
297.018131452295
 20
210.0128202187944
 30
0.0000000814935747
  9
$PLIMMIN
 10
0.0
 20
0.0
  9
$PLIMMAX
 10
297.0
 20
210.0
  9
$UNITMODE
 70
     0
  9
$VISRETAIN
 70
     0
  9
$PLINEGEN
 70
     0
  9
$PSLTSCALE
 70
     1
  9
$TREEDEPTH
 70
  3020
  9
$CMLSTYLE
  2
STANDARD
  9
$CMLJUST
 70
     0
  9
$CMLSCALE
 40
20.0
  9
$PROXYGRAPHICS
 70
     1
  9
$MEASUREMENT
 70
     1
  9
$CELWEIGHT
370
    -1
  9
$ENDCAPS
280
     0
  9
$JOINSTYLE
280
     0
  9
$LWDISPLAY
290
     0
  9
$INSUNITS
 70
     4
  9
$HYPERLINKBASE
  1
HTTP://WWW.SECOTOOLS.COM/
  9
$STYLESHEET
  1
MONOCHROME.CTB
  9
$XEDIT
290
     1
  9
$CEPSNTYPE
380
     0
  9
$PSTYLEMODE
290
     1
  9
$FINGERPRINTGUID
  2
{78FD4BDC-75F8-9A4F-A840-162DD6AA5101}
  9
$VERSIONGUID
  2
{111A25F6-CC51-BC44-929C-9F2E746C3A9F}
  9
$EXTNAMES
290
     1
  9
$PSVPSCALE
 40
0.0
  9
$OLESTARTUP
290
     0
  0
ENDSEC
  0
SECTION
  2
CLASSES
  0
CLASS
  1
ACDBDICTIONARYWDFLT
  2
AcDbDictionaryWithDefault
  3
ObjectDBX Classes
 90
        0
280
     0
281
     0
  0
CLASS
  1
ACDBPLACEHOLDER
  2
AcDbPlaceHolder
  3
ObjectDBX Classes
 90
        0
280
     0
281
     0
  0
CLASS
  1
LAYOUT
  2
AcDbLayout
  3
ObjectDBX Classes
 90
        0
280
     0
281
     0
  0
CLASS
  1
DICTIONARYVAR
  2
AcDbDictionaryVar
  3
ObjectDBX Classes
 90
        0
280
     0
281
     0
  0
CLASS
  1
TABLESTYLE
  2
AcDbTableStyle
  3
ObjectDBX Classes
 90
     4095
280
     0
281
     0
  0
CLASS
  1
MATERIAL
  2
AcDbMaterial
  3
ObjectDBX Classes
 90
     1153
280
     0
281
     0
  0
CLASS
  1
VISUALSTYLE
  2
AcDbVisualStyle
  3
ObjectDBX Classes
 90
     4095
280
     0
281
     0
  0
CLASS
  1
SCALE
  2
AcDbScale
  3
ObjectDBX Classes
 90
     1153
280
     0
281
     0
  0
CLASS
  1
MLEADERSTYLE
  2
AcDbMLeaderStyle
  3
ACDB_MLEADERSTYLE_CLASS
 90
     4095
280
     0
281
     0
  0
CLASS
  1
ACME_DOCUMENT
  2
AcMeDbDoc
  3
AcMeServices
 90
    33792
280
     1
281
     0
  0
CLASS
  1
AMGSETTINGSOBJ
  2
AmgSettingsObj
  3
"AcadM|Product Description: AutoCAD Mechanical|Company: Autodesk, Inc."
 90
    33792
280
     1
281
     0
  0
CLASS
  1
ACMESCOPE
  2
AcMeScope
  3
AcMeServices
 90
    33792
280
     1
281
     0
  0
CLASS
  1
ACMECOMMANDHISTORY
  2
AcMeCommandHistory
  3
AcMeServices
 90
    33792
280
     1
281
     0
  0
CLASS
  1
ACIMSYSVARMAN
  2
AcImSysVarManager
  3
AcMeServices
 90
    33792
280
     1
281
     0
  0
CLASS
  1
ACIMINTSYSVAR
  2
AcImIntSysVar
  3
AcMeServices
 90
    33792
280
     1
281
     0
  0
CLASS
  1
ACMEDRAWINGMAN
  2
AcMeDrawingMan
  3
AcMeServices
 90
    33792
280
     1
281
     0
  0
CLASS
  1
ACMEVIEW
  2
AcMeView
  3
AcMeServices
 90
    33792
280
     1
281
     0
  0
CLASS
  1
ACDBENTITYCACHE
  2
AcMeEntityCache
  3
AcMeServices
 90
    33792
280
     1
281
     0
  0
CLASS
  1
GSMANAGER
  2
AcMeGSManager
  3
AcMeServices
 90
    33792
280
     1
281
     0
  0
CLASS
  1
AMDTINTERNALREACTOR
  2
AmdtInternalReactor
  3
AcMeServices
 90
    33792
280
     1
281
     0
  0
CLASS
  1
ACMESTATEMGR
  2
AcMeStateMgr
  3
AcMeServices
 90
    33792
280
     1
281
     0
  0
CLASS
  1
ACGREFMASTER
  2
AcGrefMaster
  3
AcAttribServices
 90
    33792
280
     1
281
     0
  0
CLASS
  1
AM_DRAWING_MGR
  2
AcDmDwgMgr
  3
AcMechDwgViewMgmt
 90
    33792
280
     1
281
     0
  0
CLASS
  1
AM_DWG_DOCUMENT
  2
AcDmDwgDocument
  3
AcMechDwgViewMgmt
 90
    33792
280
     1
281
     0
  0
CLASS
  1
AM_DWG_SHEET
  2
AcDmSheet
  3
AcMechDwgViewMgmt
 90
    33792
280
     1
281
     0
  0
CLASS
  1
AM_VIEWDIMPARMAP
  2
AcDmViewDimParMap
  3
AcMechDwgViewMgmt
 90
    33792
280
     1
281
     0
  0
CLASS
  1
ACIMREALSYSVAR
  2
AcImRealSysVar
  3
AcMeServices
 90
    33792
280
     1
281
     0
  0
CLASS
  1
AM_DWGMGR_NAME
  2
AcDmDwgMgrName
  3
AcMechDwgViewMgmt
 90
    33792
280
     1
281
     0
  0
CLASS
  1
ACME_DATABASE
  2
AcMeDbDatabase
  3
AcMeServices
 90
    33792
280
     1
281
     0
  0
CLASS
  1
ACRFINSADJUSTERMGR
  2
AcRfInsAdjusterMgr
  3
AcMeServices
 90
    33792
280
     1
281
     0
  0
CLASS
  1
ACGREFACADMASTER
  2
AcGrefacadMaster
  3
AcGrefServices
 90
    33792
280
     1
281
     0
  0
CLASS
  1
AMDTMENUSTATEMGR
  2
AmdtMenuStateMgr
  3
McadcomServices
 90
    33792
280
     1
281
     0
  0
CLASS
  1
AMDTMCOMMENUSTATE
  2
AmdtMcomMenuState
  3
McadcomServices
 90
    33792
280
     1
281
     0
  0
CLASS
  1
AMIMASTER
  2
AmiMaster
  3
AmiServices
 90
    33792
280
     1
281
     0
  0
CLASS
  1
MAPIAMMOUDLE
  2
MApiAmModule
  3
MApiAmServices
 90
    33792
280
     1
281
     0
  0
CLASS
  1
ACIMSTRSYSVAR
  2
AcImStrSysVar
  3
AcMeServices
 90
    33792
280
     1
281
     0
  0
CLASS
  1
AMDTADMENUSTATE
  2
AmdtAdMenuState
  3
DesignerServices
 90
    33792
280
     1
281
     0
  0
CLASS
  1
ADAPPL
  2
AcAdAppl
  3
DesignerAssemblies
 90
    33792
280
     1
281
     0
  0
CLASS
  1
DEPMGR
  2
AcAdDepMgr
  3
DesignerAssemblies
 90
    33792
280
     1
281
     0
  0
CLASS
  1
PARAMMGR
  2
AcAdParamMgr
  3
DesignerAssemblies
 90
    33792
280
     1
281
     0
  0
CLASS
  1
PARAMSCOPE
  2
AcAdParamScope
  3
DesignerAssemblies
 90
    33792
280
     1
281
     0
  0
CLASS
  1
NAMEDAPPL
  2
AcAdNamedAppl
  3
DesignerAssemblies
 90
    33792
280
     1
281
     0
  0
CLASS
  1
AMDTDMMENUSTATE
  2
AmdtDmMenuState
  3
AcMechDwgViewMgmt
 90
    33792
280
     1
281
     0
  0
CLASS
  1
AMDTAMMENUSTATE
  2
AmdtAmMenuState
  3
DesignerAssemblies_arx
 90
    33792
280
     1
281
     0
  0
CLASS
  1
ACAMPROJECT
  2
AcAmProject
  3
DesignerAssemblies
 90
    33792
280
     1
281
     0
  0
CLASS
  1
ACAMGRCOMPDEF
  2
AcAmGrCompDef
  3
DesignerAssemblies
 90
    33792
280
     1
281
     0
  0
CLASS
  1
ACCMCONTEXT
  2
AcCmContext
  3
DesignerAssemblies
 90
    33792
280
     1
281
     0
  0
CLASS
  1
ACAMCOMPDEF
  2
AcAmCompDef
  3
DesignerAssemblies
 90
    33792
280
     1
281
     0
  0
CLASS
  1
ACAMCOMPDEFMGR
  2
AcAmCompDefMgr
  3
DesignerAssemblies
 90
    33792
280
     1
281
     0
  0
CLASS
  1
AMCONTEXTMGR
  2
AcAmContextMgr
  3
DesignerAssemblies
 90
    33792
280
     1
281
     0
  0
CLASS
  1
ACAMCONTEXTMODELER
  2
AcAmContextModeler
  3
DesignerAssemblies
 90
    33792
280
     1
281
     0
  0
CLASS
  1
ACMDATADICTIONARY
  2
AcmDataDictionary
  3
"AcmSymBB|Product Description: AutoCAD Mechanical|Company: Autodesk, Inc."
 90
    33792
280
     1
281
     0
  0
CLASS
  1
CATALOGSTATE
  2
AcAmCatalogState
  3
DesignerAssemblies_arx
 90
    33792
280
     1
281
     0
  0
CLASS
  1
ACAMGRCOMPDEFSET
  2
AcAmGrCompDefSet
  3
DesignerAssemblies
 90
    33792
280
     1
281
     0
  0
CLASS
  1
AMDTBROWSERDBTAB
  2
AmdtBrowserDbTab
  3
McadcomServices
 90
    33792
280
     1
281
     0
  0
CLASS
  1
CBROWSERAPPOBJECT
  2
CBrowserAppObject
  3
McadcomServices
 90
    33792
280
     1
281
     0
  0
CLASS
  1
DM_PLACEHOLDER
  2
AcDmSelsetPlaceholder
  3
McadcomServices
 90
    33792
280
     1
281
     0
  0
CLASS
  1
ACMSTANDARDDIN
  2
AcmStandardDIN
  3
"Amdt_StdImp|Product Description: AutoCAD Mechanical|Company: Autodesk, Inc."
 90
    33792
280
     1
281
     0
  0
CLASS
  1
AMGOBJPROPCFG
  2
AmgObjPropCfg
  3
"AmgLay|Product Description: AutoCAD Mechanical|Company: Autodesk, Inc."
 90
    33792
280
     1
281
     0
  0
CLASS
  1
AMDTEDGESTANDARDDIN13715
  2
AmdtEdgeStdDIN13715
  3
"Amdt_StdImp|Product Description: AutoCAD Mechanical|Company: Autodesk, Inc."
 90
    33792
280
     1
281
     0
  0
CLASS
  1
ACMSURFSTANDARDDIN2002
  2
AcmSurfTextStdDIN2002
  3
"Amdt_StdImp|Product Description: AutoCAD Mechanical|Company: Autodesk, Inc."
 90
    33792
280
     1
281
     0
  0
CLASS
  1
ACMFCFSTANDARDDIN
  2
AcmFCFStdDIN
  3
"Amdt_StdImp|Product Description: AutoCAD Mechanical|Company: Autodesk, Inc."
 90
    33792
280
     1
281
     0
  0
CLASS
  1
ACMWELDSTANDARDDIN
  2
AcmWeldingStdDIN
  3
"Amdt_StdImp|Product Description: AutoCAD Mechanical|Company: Autodesk, Inc."
 90
    33792
280
     1
281
     0
  0
CLASS
  1
ACMIDSTANDARDDIN
  2
AcmIdStdDIN
  3
"Amdt_StdImp|Product Description: AutoCAD Mechanical|Company: Autodesk, Inc."
 90
    33792
280
     1
281
     0
  0
CLASS
  1
ACMDATUMSTANDARDDIN
  2
AcmDatumStdDIN
  3
"Amdt_StdImp|Product Description: AutoCAD Mechanical|Company: Autodesk, Inc."
 90
    33792
280
     1
281
     0
  0
CLASS
  1
ACMBOMSTANDARDDIN
  2
AcmBOMStdDIN
  3
"Amdt_StdImp|Product Description: AutoCAD Mechanical|Company: Autodesk, Inc."
 90
    33792
280
     1
281
     0
  0
CLASS
  1
ACMDETAILSTANDARDDIN
  2
AmdtDetailSymStdDIN
  3
"Amdt_StdImp|Product Description: AutoCAD Mechanical|Company: Autodesk, Inc."
 90
    33792
280
     1
281
     0
  0
CLASS
  1
ACMSECTIONSTANDARDDIN
  2
AmdtSectionSymStdDIN
  3
"Amdt_StdImp|Product Description: AutoCAD Mechanical|Company: Autodesk, Inc."
 90
    33792
280
     1
281
     0
  0
CLASS
  1
ACMCENTERLINESTANDARDDIN
  2
AmdtCenterLineStdDIN
  3
"Amdt_StdImp|Product Description: AutoCAD Mechanical|Company: Autodesk, Inc."
 90
    33792
280
     1
281
     0
  0
CLASS
  1
ACMTHREADLINESTANDARDDIN
  2
AmdtThreadLineStdDIN
  3
"Amdt_StdImp|Product Description: AutoCAD Mechanical|Company: Autodesk, Inc."
 90
    33792
280
     1
281
     0
  0
CLASS
  1
ACMNOTESTANDARDDIN
  2
AmdtNoteStdDIN
  3
"Amdt_StdImp|Product Description: AutoCAD Mechanical|Company: Autodesk, Inc."
 90
    33792
280
     1
281
     0
  0
CLASS
  1
ACMTAPERSTANDARDDIN
  2
AcmTaperStdDIN
  3
"Amdt_StdImp|Product Description: AutoCAD Mechanical|Company: Autodesk, Inc."
 90
    33792
280
     1
281
     0
  0
CLASS
  1
ACMANOOTATIONVIEWSTANDARDDIN
  2
AmdtAnViewStdDIN
  3
"Amdt_StdImp|Product Description: AutoCAD Mechanical|Company: Autodesk, Inc."
 90
    33792
280
     1
281
     0
  0
CLASS
  1
AMDTNOTETEMPLATEDB
  2
AmdtNoteTemplateDB
  3
"AcmSymBB" "Product Description: AutoCAD Mechanical|Company: Autodesk, Inc."
 90
    33792
280
     1
281
     0
  0
CLASS
  1
ACAMGLAYSTD
  2
AcAmgLayStd
  3
"AmgLay|Product Description: AutoCAD Mechanical|Company: Autodesk, Inc."
 90
    33792
280
     1
281
     0
  0
CLASS
  1
ACAMGDIMSTD
  2
AcAmgDimStd
  3
"AmgDim|Product Description: AutoCAD Mechanical|Company: Autodesk, Inc."
 90
    33792
280
     1
281
     0
  0
CLASS
  1
ACAMGHOLECHARTSTDDIN
  2
AcAmgHoleChartStdDIN
  3
"AmgDim" "Product Description: AutoCAD Mechanical|Company: Autodesk, Inc."
 90
    33792
280
     1
281
     0
  0
CLASS
  1
ACAMGTITLESTD
  2
AcAmgTitleStd
  3
"AmgTitle|Product Description: AutoCAD Mechanical|Company: Autodesk, Inc."
 90
    33792
280
     1
281
     0
  0
CLASS
  1
ACAMGFILTERDAT
  2
AcAmgFilterDat
  3
"AcadM|Product Description: AutoCAD Mechanical|Company: Autodesk, Inc."
 90
    33792
280
     1
281
     0
  0
CLASS
  1
CAMSSTRUCTBTNSTATE
  2
StructBtnState
  3
DesignerAssemblies_arx
 90
    33792
280
     1
281
     0
  0
CLASS
  1
CELLSTYLEMAP
  2
AcDbCellStyleMap
  3
ObjectDBX Classes
 90
     1152
280
     0
281
     0
  0
CLASS
  1
SORTENTSTABLE
  2
AcDbSortentsTable
  3
ObjectDBX Classes
 90
        0
280
     0
281
     0
  0
CLASS
  1
PLOTSETTINGS
  2
AcDbPlotSettings
  3
ObjectDBX Classes
 90
        0
280
     0
281
     0
  0
CLASS
  1
SOLID_BACKGROUND
  2
AcDbSolidBackground
  3
SCENEOE
 90
    36863
280
     0
281
     0
  0
CLASS
  1
NPOCOLLECTION
  2
AcDbImpNonPersistentObjectsCollection
  3
ObjectDBX Classes
 90
    33921
280
     1
281
     0
  0
CLASS
  1
ACDBSECTIONVIEWSTYLE
  2
AcDbSectionViewStyle
  3
ObjectDBX Classes
 90
     1025
280
     0
281
     0
  0
CLASS
  1
ACDBDETAILVIEWSTYLE
  2
AcDbDetailViewStyle
  3
ObjectDBX Classes
 90
     1025
280
     0
281
     0
  0
CLASS
  1
ACMSECTIONSTANDARDCUSTOM
  2
AmdtSectionSymStdCustom
  3
"Amdt_StdImp|Product Description: AutoCAD Mechanical|Company: Autodesk, Inc."
 90
    33792
280
     1
281
     0
  0
CLASS
  1
ACMDETAILTANDARDCUSTOM
  2
AmdtDetailSymStdCustom
  3
"Amdt_StdImp|Product Description: AutoCAD Mechanical|Company: Autodesk, Inc."
 90
    33792
280
     1
281
     0
  0
CLASS
  1
FIELD
  2
AcDbField
  3
ObjectDBX Classes
 90
    33920
280
     0
281
     0
  0
CLASS
  1
FIELDLIST
  2
AcDbFieldList
  3
ObjectDBX Classes
 90
     1152
280
     0
281
     0
  0
CLASS
  1
DIMASSOC
  2
AcDbDimAssoc
  3
"AcDbDimAssoc|Product Desc:     AcDim ARX App For Dimension|Company:          Autodesk, Inc.|WEB Address:      www.autodesk.com"
 90
        0
280
     0
281
     0
  0
CLASS
  1
SUN
  2
AcDbSun
  3
SCENEOE
 90
    33921
280
     0
281
     0
  0
ENDSEC
  0
SECTION
  2
TABLES
  0
TABLE
  2
VPORT
  5
8
102
{ACAD_XDICTIONARY
360
A45
102
}
330
0
100
AcDbSymbolTable
 70
     1
  0
VPORT
  5
AD1
330
8
100
AcDbSymbolTableRecord
100
AcDbViewportTableRecord
  2
*Active
 70
     0
 10
0.0
 20
0.0
 11
1.0
 21
1.0
 12
27.99708700494035
 22
28.08830359378874
 13
0.0
 23
0.0
 14
5.0
 24
5.0
 15
15.0
 25
15.0
 16
0.0
 26
0.0
 36
1.0
 17
0.0
 27
0.0
 37
0.0
 40
136.6343351732321
 41
2.018769551616267
 42
50.0
 43
0.0
 44
0.0
 50
0.0
 51
0.0
 71
     0
 72
  2000
 73
     1
 74
     3
 75
     0
 76
     1
 77
     0
 78
     0
281
     0
 65
     0
110
0.0
120
0.0
130
0.0
111
1.0
121
0.0
131
0.0
112
0.0
122
1.0
132
0.0
 79
     0
146
0.0
1001
ACAD_NAV_VCDISPLAY
1070
     3
  0
ENDTAB
  0
TABLE
  2
LTYPE
  5
5
330
0
100
AcDbSymbolTable
 70
     2
  0
LTYPE
  5
12
330
5
100
AcDbSymbolTableRecord
100
AcDbLinetypeTableRecord
  2
BYBLOCK
 70
     0
  3

 72
    65
 73
     0
 40
0.0
  0
LTYPE
  5
13
330
5
100
AcDbSymbolTableRecord
100
AcDbLinetypeTableRecord
  2
BYLAYER
 70
     0
  3
ISO continuous line ______________________________________
 72
    65
 73
     0
 40
0.0
  0
LTYPE
  5
1625
330
5
100
AcDbSymbolTableRecord
100
AcDbLinetypeTableRecord
  2
Continuous
 70
     0
  3
Solid line
 72
    65
 73
     0
 40
0.0
  0
LTYPE
  5
916
330
5
100
AcDbSymbolTableRecord
100
AcDbLinetypeTableRecord
  2
LONGDASH_DASH
 70
     0
  3
ISO center line ____ _ ____ _ ____ _ ____ _ ___ _ ___
 72
    65
 73
     4
 40
10.5
 49
6.0
 74
     0
 49
-0.75
 74
     0
 49
3.0
 74
     0
 49
-0.75
 74
     0
  0
ENDTAB
  0
TABLE
  2
LAYER
  5
2
102
{ACAD_XDICTIONARY
360
43C
102
}
330
0
100
AcDbSymbolTable
 70
    11
  0
LAYER
  5
F
102
{ACAD_XDICTIONARY
360
12FE
102
}
330
2
100
AcDbSymbolTableRecord
100
AcDbLayerTableRecord
  2
0
 70
     0
 62
     7
  6
Continuous
290
     0
370
    -3
390
300
  0
LAYER
  5
23
102
{ACAD_XDICTIONARY
360
1300
102
}
330
2
100
AcDbSymbolTableRecord
100
AcDbLayerTableRecord
  2
1
 70
     0
 62
     4
  6
Continuous
370
    50
390
300
  0
LAYER
  5
24
102
{ACAD_XDICTIONARY
360
1302
102
}
330
2
100
AcDbSymbolTableRecord
100
AcDbLayerTableRecord
  2
SK1
 70
     0
 62
     4
  6
Continuous
370
    50
390
300
  0
LAYER
  5
25
102
{ACAD_XDICTIONARY
360
1304
102
}
330
2
100
AcDbSymbolTableRecord
100
AcDbLayerTableRecord
  2
2
 70
     0
 62
     7
  6
Continuous
370
    25
390
300
  0
LAYER
  5
27
102
{ACAD_XDICTIONARY
360
1306
102
}
330
2
100
AcDbSymbolTableRecord
100
AcDbLayerTableRecord
  2
SK2
 70
     0
 62
     7
  6
Continuous
370
    25
390
300
  0
LAYER
  5
2A
102
{ACAD_XDICTIONARY
360
130C
102
}
330
2
100
AcDbSymbolTableRecord
100
AcDbLayerTableRecord
  2
4
 70
     0
 62
     2
  6
LONGDASH_DASH
370
    25
390
300
  0
LAYER
  5
2B
102
{ACAD_XDICTIONARY
360
130E
102
}
330
2
100
AcDbSymbolTableRecord
100
AcDbLayerTableRecord
  2
SK4
 70
     0
 62
     2
  6
LONGDASH_DASH
370
    25
390
300
  0
LAYER
  5
2E
102
{ACAD_XDICTIONARY
360
1310
102
}
330
2
100
AcDbSymbolTableRecord
100
AcDbLayerTableRecord
  2
SK6
 70
     0
 62
     5
  6
Continuous
370
    35
390
300
  0
LAYER
  5
2F
330
2
100
AcDbSymbolTableRecord
100
AcDbLayerTableRecord
  2
DEFPOINTS
 70
     0
 62
     7
  6
Continuous
290
     0
370
    -3
390
300
  0
LAYER
  5
EEB
102
{ACAD_XDICTIONARY
360
EEC
102
}
330
2
100
AcDbSymbolTableRecord
100
AcDbLayerTableRecord
  2
CUT
 70
     0
 62
     1
  6
Continuous
370
    25
390
300
  0
LAYER
  5
EED
102
{ACAD_XDICTIONARY
360
EEE
102
}
330
2
100
AcDbSymbolTableRecord
100
AcDbLayerTableRecord
  2
NOCUT
 70
     0
 62
     7
  6
Continuous
370
    25
390
300
  0
ENDTAB
  0
TABLE
  2
STYLE
  5
3
330
0
100
AcDbSymbolTable
 70
     4
  0
STYLE
  5
10
330
3
100
AcDbSymbolTableRecord
100
AcDbTextStyleTableRecord
  2
STANDARD
 70
     0
 40
0.0
 41
1.0
 50
0.0
 71
     0
 42
5.0
  3
monos.ttf
  4

1001
ACAD
1000
Monospac821 BT
1071
       49
  0
STYLE
  5
1E
330
3
100
AcDbSymbolTableRecord
100
AcDbTextStyleTableRecord
  2
STANDARD 5 mm
 70
     0
 40
5.0
 41
1.0
 50
0.0
 71
     0
 42
3.5
  3
monos.ttf
  4

1001
ACAD
1000
Monospac821 BT
1071
       49
  0
STYLE
  5
7DE
330
3
100
AcDbSymbolTableRecord
100
AcDbTextStyleTableRecord
  2
STANDARD 3.5 mm
 70
     0
 40
3.5
 41
1.0
 50
0.0
 71
     0
 42
5.0
  3
monos.ttf
  4

1001
ACAD
1000
Monospac821 BT
1071
       49
  0
STYLE
  5
E90
330
3
100
AcDbSymbolTableRecord
100
AcDbTextStyleTableRecord
  2
USER1
 70
     0
 40
0.0
 41
1.0
 50
0.0
 71
     0
 42
2.5
  3
TXT.SHX
  4

  0
ENDTAB
  0
TABLE
  2
VIEW
  5
6
330
0
100
AcDbSymbolTable
 70
     6
  0
VIEW
  5
758
330
6
100
AcDbSymbolTableRecord
100
AcDbViewTableRecord
  2
AM_VIEW1
 70
     1
 40
148.5265045166015
 10
121.0318359737553
 20
219.614756822586
 41
248.4136475334483
 11
0.0
 21
0.0
 31
1.0
 12
0.0
 22
0.0
 32
0.0
 42
50.0
 43
0.0
 44
0.0
 50
0.0
 71
     0
281
     0
 72
     0
  0
VIEW
  5
759
330
6
100
AcDbSymbolTableRecord
100
AcDbViewTableRecord
  2
AM_VIEW2
 70
     1
 40
148.5265045166015
 10
292.4378600711665
 20
219.614756822586
 41
248.4136475334483
 11
0.0
 21
0.0
 31
1.0
 12
0.0
 22
0.0
 32
0.0
 42
50.0
 43
0.0
 44
0.0
 50
0.0
 71
     0
281
     0
 72
     0
  0
VIEW
  5
75A
330
6
100
AcDbSymbolTableRecord
100
AcDbViewTableRecord
  2
AM_VIEW3
 70
     1
 40
148.5265045166015
 10
121.0318359737553
 20
71.0882523059845
 41
248.4136475334483
 11
0.0
 21
0.0
 31
1.0
 12
0.0
 22
0.0
 32
0.0
 42
50.0
 43
0.0
 44
0.0
 50
0.0
 71
     0
281
     0
 72
     0
  0
VIEW
  5
75B
330
6
100
AcDbSymbolTableRecord
100
AcDbViewTableRecord
  2
AM_VIEW4
 70
     1
 40
148.5265045166015
 10
292.4378600711665
 20
71.0882523059845
 41
248.4136475334483
 11
0.0
 21
0.0
 31
1.0
 12
0.0
 22
0.0
 32
0.0
 42
50.0
 43
0.0
 44
0.0
 50
0.0
 71
     0
281
     0
 72
     0
  0
VIEW
  5
75C
330
6
100
AcDbSymbolTableRecord
100
AcDbViewTableRecord
  2
AM_VIEW5
 70
     1
 40
148.5265045166015
 10
206.7348480224609
 20
145.3515045642852
 41
248.4136475334483
 11
0.0
 21
0.0
 31
1.0
 12
0.0
 22
0.0
 32
0.0
 42
50.0
 43
0.0
 44
0.0
 50
0.0
 71
     0
281
     0
 72
     0
  0
VIEW
  5
75D
330
6
100
AcDbSymbolTableRecord
100
AcDbViewTableRecord
  2
AM_VIEW6
 70
     1
 40
297.0500385031128
 10
206.7348480224609
 20
145.3515045642852
 41
496.8223267939458
 11
0.0
 21
0.0
 31
1.0
 12
0.0
 22
0.0
 32
0.0
 42
50.0
 43
0.0
 44
0.0
 50
0.0
 71
     0
281
     0
 72
     0
  0
ENDTAB
  0
TABLE
  2
UCS
  5
7
330
0
100
AcDbSymbolTable
 70
     0
  0
ENDTAB
  0
TABLE
  2
APPID
  5
9
330
0
100
AcDbSymbolTable
 70
    39
  0
APPID
  5
11
330
9
100
AcDbSymbolTableRecord
100
AcDbRegAppTableRecord
  2
ACAD
 70
     0
  0
APPID
  5
3A6
330
9
100
AcDbSymbolTableRecord
100
AcDbRegAppTableRecord
  2
ACAD_PSEXT
 70
     0
  0
APPID
  5
3A8
330
9
100
AcDbSymbolTableRecord
100
AcDbRegAppTableRecord
  2
ACAD_EXEMPT_FROM_CAD_STANDARDS
 70
     0
  0
APPID
  5
433
330
9
100
AcDbSymbolTableRecord
100
AcDbRegAppTableRecord
  2
AcAecLayerStandard
 70
     0
  0
APPID
  5
471
330
9
100
AcDbSymbolTableRecord
100
AcDbRegAppTableRecord
  2
ACAD_MLEADERVER
 70
     0
  0
APPID
  5
47D
330
9
100
AcDbSymbolTableRecord
100
AcDbRegAppTableRecord
  2
MCAD_NO_VIS
 70
     0
  0
APPID
  5
47E
330
9
100
AcDbSymbolTableRecord
100
AcDbRegAppTableRecord
  2
ACAD_TEMP_GRAPHIC
 70
     0
  0
APPID
  5
4AC
330
9
100
AcDbSymbolTableRecord
100
AcDbRegAppTableRecord
  2
AD_DRAW
 70
     0
  0
APPID
  5
4AF
330
9
100
AcDbSymbolTableRecord
100
AcDbRegAppTableRecord
  2
ACATTRIBSERVICES
 70
     0
  0
APPID
  5
4D0
330
9
100
AcDbSymbolTableRecord
100
AcDbRegAppTableRecord
  2
DESIGNERASSEMBLIES
 70
     0
  0
APPID
  5
4D6
330
9
100
AcDbSymbolTableRecord
100
AcDbRegAppTableRecord
  2
ACADM_DIM_EDIT
 70
     0
  0
APPID
  5
4D7
330
9
100
AcDbSymbolTableRecord
100
AcDbRegAppTableRecord
  2
AMDT_DM_ADJ
 70
     0
  0
APPID
  5
5CD
330
9
100
AcDbSymbolTableRecord
100
AcDbRegAppTableRecord
  2
AcDbAttr
 70
     0
  0
APPID
  5
5CE
330
9
100
AcDbSymbolTableRecord
100
AcDbRegAppTableRecord
  2
ACAUTHENVIRON
 70
     0
  0
APPID
  5
5CF
330
9
100
AcDbSymbolTableRecord
100
AcDbRegAppTableRecord
  2
AcDbDynamicBlockTrueName
 70
     0
  0
APPID
  5
5D0
330
9
100
AcDbSymbolTableRecord
100
AcDbRegAppTableRecord
  2
ACDBBLOCKREPETAG
 70
     0
  0
APPID
  5
723
330
9
100
AcDbSymbolTableRecord
100
AcDbRegAppTableRecord
  2
GENIUS_GENTRA_14
 70
     0
  0
APPID
  5
752
330
9
100
AcDbSymbolTableRecord
100
AcDbRegAppTableRecord
  2
GENIUS_GENOENT_13
 70
     0
  0
APPID
  5
753
330
9
100
AcDbSymbolTableRecord
100
AcDbRegAppTableRecord
  2
GENIUS_GENOBJ-N-TIT_13
 70
     0
  0
APPID
  5
754
330
9
100
AcDbSymbolTableRecord
100
AcDbRegAppTableRecord
  2
GENIUS_GENODEF_13
 70
     0
  0
APPID
  5
755
330
9
100
AcDbSymbolTableRecord
100
AcDbRegAppTableRecord
  2
GENIUS_GENOLIS_13
 70
     0
  0
APPID
  5
756
330
9
100
AcDbSymbolTableRecord
100
AcDbRegAppTableRecord
  2
GENIUS_GENTITLE_13
 70
     0
  0
APPID
  5
757
330
9
100
AcDbSymbolTableRecord
100
AcDbRegAppTableRecord
  2
GENIUS_GENOREF_13
 70
     0
  0
APPID
  5
75E
330
9
100
AcDbSymbolTableRecord
100
AcDbRegAppTableRecord
  2
GENIUS_GENSCREG_15
 70
     0
  0
APPID
  5
75F
330
9
100
AcDbSymbolTableRecord
100
AcDbRegAppTableRecord
  2
GENIUS_GENOBJ-N-SDF_13
 70
     0
  0
APPID
  5
7BE
330
9
100
AcDbSymbolTableRecord
100
AcDbRegAppTableRecord
  2
AcadAnnoPO
 70
     0
  0
APPID
  5
7BF
330
9
100
AcDbSymbolTableRecord
100
AcDbRegAppTableRecord
  2
ACAD_DSTYLE_DIMJAG
 70
     0
  0
APPID
  5
7C0
330
9
100
AcDbSymbolTableRecord
100
AcDbRegAppTableRecord
  2
ACAD_DSTYLE_DIMTALN
 70
     0
  0
APPID
  5
A53
330
9
100
AcDbSymbolTableRecord
100
AcDbRegAppTableRecord
  2
ACAD_DSTYLE_DIMARC_LENGTH_SYMBOL
 70
     0
  0
APPID
  5
A65
330
9
100
AcDbSymbolTableRecord
100
AcDbRegAppTableRecord
  2
ACAD_DSTYLE_DIMJOGGED_JOGANGLE_SYMBOL
 70
     0
  0
APPID
  5
CCE
330
9
100
AcDbSymbolTableRecord
100
AcDbRegAppTableRecord
  2
ACAD_DSTYLE_DIMBREAK
 70
     0
  0
APPID
  5
D24
330
9
100
AcDbSymbolTableRecord
100
AcDbRegAppTableRecord
  2
ACAD_NAV_VCDISPLAY
 70
     0
  0
APPID
  5
D4A
330
9
100
AcDbSymbolTableRecord
100
AcDbRegAppTableRecord
  2
GENIUS_GENREC_14
 70
     0
  0
APPID
  5
D4B
330
9
100
AcDbSymbolTableRecord
100
AcDbRegAppTableRecord
  2
GENIUS_GENOBJ-N-REC_13
 70
     0
  0
APPID
  5
DC9
330
9
100
AcDbSymbolTableRecord
100
AcDbRegAppTableRecord
  2
ACAD_DSTYLE_DIMRADIAL_EXTENSION
 70
     0
  0
APPID
  5
13B1
330
9
100
AcDbSymbolTableRecord
100
AcDbRegAppTableRecord
  2
ACAD_DSTYLE_DIMINSPECT
 70
     0
  0
APPID
  5
13BC
330
9
100
AcDbSymbolTableRecord
100
AcDbRegAppTableRecord
  2
AcadAnnoMonitorAlertIconDisabled
 70
     0
  0
APPID
  5
13BD
330
9
100
AcDbSymbolTableRecord
100
AcDbRegAppTableRecord
  2
GENIUS_GENDTOL_13
 70
     0
  0
APPID
  5
1A3D
330
9
100
AcDbSymbolTableRecord
100
AcDbRegAppTableRecord
  2
ACAD_DSTYLE_DIMFLIPARROW_WHICH_SYMBOL
 70
     0
  0
ENDTAB
  0
TABLE
  2
DIMSTYLE
  5
A
330
0
100
AcDbSymbolTable
 70
     2
100
AcDbDimStyleTable
 71
     2
340
4FC
340
3F
  0
DIMSTYLE
105
3F
330
A
100
AcDbSymbolTableRecord
100
AcDbDimStyleTableRecord
  2
STANDARD
 70
     0
 41
5.0
 42
1.0
 43
15.0
 44
2.0
 48
0.000000001
 73
     0
 74
     0
 77
     1
 78
     9
 79
     2
140
3.5
143
0.0393700787401575
147
2.299999999999998
171
     3
172
     1
271
     2
272
     2
273
     3
274
     3
284
     8
285
    11
286
     8
340
7DE
1001
ACAD_DSTYLE_DIMJAG
1070
   388
1040
1.5
1001
ACAD_DSTYLE_DIMTALN
1070
   392
1070
     0
1001
ACAD_DSTYLE_DIMARC_LENGTH_SYMBOL
1070
   379
1070
     1
1001
ACAD_DSTYLE_DIMJOGGED_JOGANGLE_SYMBOL
1070
   384
1040
1.570796326794896
  0
DIMSTYLE
105
4FC
102
{ACAD_REACTORS
330
132A
330
1367
330
1389
330
149B
330
14B3
330
14CB
330
14FE
330
151D
330
163C
102
}
330
A
100
AcDbSymbolTableRecord
100
AcDbDimStyleTableRecord
  2
AM_DIN
 70
     0
 41
2.5
 42
1.0
 43
15.0
 44
2.0
 48
0.000000001
 73
     0
 74
     0
 77
     1
 79
     2
140
3.5
143
0.0393701
146
0.7071069999999999
147
1.0
171
     3
172
     1
271
     1
272
     2
273
     3
274
     3
285
    11
286
     8
340
7DE
371
    -1
372
    -1
1001
ACAD_DSTYLE_DIMJAG
1070
   388
1040
1.5
1001
ACAD_DSTYLE_DIMTALN
1070
   392
1070
     0
1001
ACAD_DSTYLE_DIMARC_LENGTH_SYMBOL
1070
   379
1070
     1
1001
ACAD_DSTYLE_DIMJOGGED_JOGANGLE_SYMBOL
1070
   384
1040
1.570796326794896
  0
ENDTAB
  0
TABLE
  2
BLOCK_RECORD
  5
1
330
0
100
AcDbSymbolTable
 70
     9
  0
BLOCK_RECORD
  5
18
102
{ACAD_XDICTIONARY
360
DB1
102
}
330
1
100
AcDbSymbolTableRecord
100
AcDbBlockTableRecord
  2
*MODEL_SPACE
340
303
  0
BLOCK_RECORD
  5
B56
330
1
100
AcDbSymbolTableRecord
100
AcDbBlockTableRecord
  2
*Paper_Space
340
B57
  0
BLOCK_RECORD
  5
132B
330
1
100
AcDbSymbolTableRecord
100
AcDbBlockTableRecord
  2
*D0
340
0
  0
BLOCK_RECORD
  5
1368
330
1
100
AcDbSymbolTableRecord
100
AcDbBlockTableRecord
  2
*D1
340
0
  0
BLOCK_RECORD
  5
138A
330
1
100
AcDbSymbolTableRecord
100
AcDbBlockTableRecord
  2
*D2
340
0
  0
BLOCK_RECORD
  5
149C
330
1
100
AcDbSymbolTableRecord
100
AcDbBlockTableRecord
  2
*D3
340
0
  0
BLOCK_RECORD
  5
14B4
330
1
100
AcDbSymbolTableRecord
100
AcDbBlockTableRecord
  2
*D4
340
0
  0
BLOCK_RECORD
  5
14CC
330
1
100
AcDbSymbolTableRecord
100
AcDbBlockTableRecord
  2
*D5
340
0
  0
BLOCK_RECORD
  5
14FF
330
1
100
AcDbSymbolTableRecord
100
AcDbBlockTableRecord
  2
*D6
340
0
  0
BLOCK_RECORD
  5
151E
330
1
100
AcDbSymbolTableRecord
100
AcDbBlockTableRecord
  2
*D7
340
0
  0
BLOCK_RECORD
  5
163D
330
1
100
AcDbSymbolTableRecord
100
AcDbBlockTableRecord
  2
*D8
340
0
  0
ENDTAB
  0
ENDSEC
  0
SECTION
  2
BLOCKS
  0
BLOCK
  5
32
330
18
100
AcDbEntity
  8
0
100
AcDbBlockBegin
  2
*MODEL_SPACE
 70
     0
 10
0.0
 20
0.0
 30
0.0
  3
*MODEL_SPACE
  1

  0
ENDBLK
  5
33
330
18
100
AcDbEntity
  8
0
100
AcDbBlockEnd
  0
BLOCK
  5
B58
330
B56
100
AcDbEntity
 67
     1
  8
0
100
AcDbBlockBegin
  2
*Paper_Space
 70
     0
 10
0.0
 20
0.0
 30
0.0
  3
*Paper_Space
  1

  0
ENDBLK
  5
B59
330
B56
100
AcDbEntity
 67
     1
  8
0
100
AcDbBlockEnd
  0
BLOCK
  5
132C
330
132B
100
AcDbEntity
  8
0
100
AcDbBlockBegin
  2
*D0
 70
     1
 10
0.0
 20
0.0
 30
0.0
  3
*D0
  1

  0
LINE
  5
1D31
330
132B
100
AcDbEntity
  8
2
 62
     0
100
AcDbLine
 10
81.2
 20
7.550000000000001
 30
0.0
 11
107.0
 21
7.550000000000006
 31
0.0
  0
LINE
  5
1D32
330
132B
100
AcDbEntity
  8
2
 62
     0
100
AcDbLine
 10
81.2
 20
-7.550000000000001
 30
0.0
 11
107.0
 21
-7.549999999999997
 31
0.0
  0
LINE
  5
1D33
330
132B
100
AcDbEntity
  8
2
 62
     0
100
AcDbLine
 10
105.0
 20
-5.049999999999997
 30
0.0
 11
105.0
 21
5.050000000000004
 31
0.0
  0
LINE
  5
1D34
330
132B
100
AcDbEntity
  8
2
 62
     0
100
AcDbLine
 10
105.0
 20
7.550000000000005
 30
0.0
 11
105.0
 21
27.93973998594523
 31
0.0
  0
SOLID
  5
1D35
330
132B
100
AcDbEntity
  8
2
 62
     0
100
AcDbTrace
 10
104.5833333333333
 20
-5.049999999999997
 30
0.0
 11
105.4166666666667
 21
-5.049999999999997
 31
0.0
 12
105.0
 22
-7.549999999999998
 32
0.0
 13
105.0
 23
-7.549999999999998
 33
0.0
  0
SOLID
  5
1D36
330
132B
100
AcDbEntity
  8
2
 62
     0
100
AcDbTrace
 10
104.5833333333333
 20
5.050000000000004
 30
0.0
 11
105.4166666666667
 21
5.050000000000004
 31
0.0
 12
105.0
 22
7.550000000000005
 32
0.0
 13
105.0
 23
7.550000000000005
 33
0.0
  0
MTEXT
  5
1D37
330
132B
100
AcDbEntity
  8
2
 62
     0
100
AcDbMText
 10
102.1368587491215
 20
20.0
 30
0.0
 40
3.5
 41
0.0
 71
     5
 72
     1
  1
\A1;%%C15.1
  7
STANDARD 3.5 mm
 11
0.0000000000000001
 21
1.0
 31
0.0
 73
     1
 44
1.0
1001
ACAD
1000
MTEXTBEGIN
1070
    73
1070
     1
1070
    44
1040
1.0
1070
    74
1070
     0
1000
MTEXTEND
  0
POINT
  5
1D38
330
132B
100
AcDbEntity
  8
DEFPOINTS
 62
     0
100
AcDbPoint
 10
80.20000000000001
 20
7.550000000000001
 30
0.0
  0
POINT
  5
1D39
330
132B
100
AcDbEntity
  8
DEFPOINTS
 62
     0
100
AcDbPoint
 10
80.20000000000001
 20
-7.550000000000001
 30
0.0
  0
POINT
  5
1D3A
330
132B
100
AcDbEntity
  8
DEFPOINTS
 62
     0
100
AcDbPoint
 10
105.0
 20
-7.549999999999998
 30
0.0
  0
ENDBLK
  5
132D
330
132B
100
AcDbEntity
  8
0
100
AcDbBlockEnd
  0
BLOCK
  5
1369
330
1368
100
AcDbEntity
  8
0
100
AcDbBlockBegin
  2
*D1
 70
     1
 10
0.0
 20
0.0
 30
0.0
  3
*D1
  1

  0
LINE
  5
1D27
330
1368
100
AcDbEntity
  8
2
 62
     0
100
AcDbLine
 10
70.83539898689998
 20
9.099
 30
0.0
 11
122.0
 21
9.099000000000007
 31
0.0
  0
LINE
  5
1D28
330
1368
100
AcDbEntity
  8
2
 62
     0
100
AcDbLine
 10
70.83539898689998
 20
-9.099
 30
0.0
 11
122.0
 21
-9.098999999999993
 31
0.0
  0
LINE
  5
1D29
330
1368
100
AcDbEntity
  8
2
 62
     0
100
AcDbLine
 10
120.0
 20
-6.598999999999993
 30
0.0
 11
120.0
 21
6.599000000000007
 31
0.0
  0
LINE
  5
1D2A
330
1368
100
AcDbEntity
  8
2
 62
     0
100
AcDbLine
 10
120.0
 20
9.099000000000007
 30
0.0
 11
120.0
 21
34.24481869290234
 31
0.0
  0
SOLID
  5
1D2B
330
1368
100
AcDbEntity
  8
2
 62
     0
100
AcDbTrace
 10
119.5833333333333
 20
-6.598999999999993
 30
0.0
 11
120.4166666666667
 21
-6.598999999999993
 31
0.0
 12
120.0
 22
-9.098999999999993
 32
0.0
 13
120.0
 23
-9.098999999999993
 33
0.0
  0
SOLID
  5
1D2C
330
1368
100
AcDbEntity
  8
2
 62
     0
100
AcDbTrace
 10
119.5833333333333
 20
6.599000000000007
 30
0.0
 11
120.4166666666667
 21
6.599000000000007
 31
0.0
 12
120.0
 22
9.099000000000007
 32
0.0
 13
120.0
 23
9.099000000000007
 33
0.0
  0
MTEXT
  5
1D2D
330
1368
100
AcDbEntity
  8
2
 62
     0
100
AcDbMText
 10
117.18851018974
 20
22.92190934645113
 30
0.0
 40
3.5
 41
0.0
 71
     5
 72
     1
  1
\A1;M18x2.5
  7
STANDARD 3.5 mm
 11
0.0000000000000001
 21
1.0
 31
0.0
 73
     1
 44
1.0
1001
ACAD
1000
MTEXTBEGIN
1070
    73
1070
     1
1070
    44
1040
1.0
1070
    74
1070
     0
1000
MTEXTEND
  0
POINT
  5
1D2E
330
1368
100
AcDbEntity
  8
DEFPOINTS
 62
     0
100
AcDbPoint
 10
69.83539898689999
 20
9.099
 30
0.0
  0
POINT
  5
1D2F
330
1368
100
AcDbEntity
  8
DEFPOINTS
 62
     0
100
AcDbPoint
 10
69.83539898689999
 20
-9.099
 30
0.0
  0
POINT
  5
1D30
330
1368
100
AcDbEntity
  8
DEFPOINTS
 62
     0
100
AcDbPoint
 10
120.0
 20
-9.098999999999993
 30
0.0
  0
ENDBLK
  5
136A
330
1368
100
AcDbEntity
  8
0
100
AcDbBlockEnd
  0
BLOCK
  5
138B
330
138A
100
AcDbEntity
  8
0
100
AcDbBlockBegin
  2
*D2
 70
     1
 10
0.0
 20
0.0
 30
0.0
  3
*D2
  1

  0
LINE
  5
1D1D
330
138A
100
AcDbEntity
  8
2
 62
     0
100
AcDbLine
 10
80.99999999999999
 20
7.75
 30
0.0
 11
80.99999999999999
 21
32.0
 31
0.0
  0
LINE
  5
1D1E
330
138A
100
AcDbEntity
  8
2
 62
     0
100
AcDbLine
 10
69.83539898689996
 20
10.099
 30
0.0
 11
69.83539898689996
 21
32.0
 31
0.0
  0
LINE
  5
1D1F
330
138A
100
AcDbEntity
  8
2
 62
     0
100
AcDbLine
 10
72.33539898689996
 20
30.0
 30
0.0
 11
78.49999999999998
 21
30.0
 31
0.0
  0
LINE
  5
1D20
330
138A
100
AcDbEntity
  8
2
 62
     0
100
AcDbLine
 10
80.99999999999999
 20
30.0
 30
0.0
 11
99.77547434996486
 21
30.0
 31
0.0
  0
SOLID
  5
1D21
330
138A
100
AcDbEntity
  8
2
 62
     0
100
AcDbTrace
 10
72.33539898689996
 20
30.41666666666667
 30
0.0
 11
72.33539898689996
 21
29.58333333333333
 31
0.0
 12
69.83539898689996
 22
30.0
 32
0.0
 13
69.83539898689996
 23
30.0
 33
0.0
  0
SOLID
  5
1D22
330
138A
100
AcDbEntity
  8
2
 62
     0
100
AcDbTrace
 10
78.49999999999998
 20
30.41666666666667
 30
0.0
 11
78.49999999999998
 21
29.58333333333333
 31
0.0
 12
80.99999999999999
 22
30.0
 32
0.0
 13
80.99999999999999
 23
30.0
 33
0.0
  0
MTEXT
  5
1D23
330
138A
100
AcDbEntity
  8
2
 62
     0
100
AcDbMText
 10
91.63773717498242
 20
35.67773483251347
 30
0.0
 40
3.5
 41
0.0
 71
     5
 72
     1
  1
\A1;11.16\P"B"
  7
STANDARD 3.5 mm
 73
     1
 44
1.0
1001
ACAD
1000
MTEXTBEGIN
1070
    73
1070
     1
1070
    44
1040
1.0
1070
    74
1070
     0
1000
MTEXTEND
  0
POINT
  5
1D24
330
138A
100
AcDbEntity
  8
DEFPOINTS
 62
     0
100
AcDbPoint
 10
80.99999999999999
 20
6.75
 30
0.0
  0
POINT
  5
1D25
330
138A
100
AcDbEntity
  8
DEFPOINTS
 62
     0
100
AcDbPoint
 10
69.83539898689996
 20
9.098999999999996
 30
0.0
  0
POINT
  5
1D26
330
138A
100
AcDbEntity
  8
DEFPOINTS
 62
     0
100
AcDbPoint
 10
69.83539898689996
 20
30.0
 30
0.0
  0
ENDBLK
  5
138C
330
138A
100
AcDbEntity
  8
0
100
AcDbBlockEnd
  0
BLOCK
  5
149D
330
149C
100
AcDbEntity
  8
0
100
AcDbBlockBegin
  2
*D3
 70
     1
 10
0.0
 20
0.0
 30
0.0
  3
*D3
  1

  0
LINE
  5
1D14
330
149C
100
AcDbEntity
  8
2
 62
     0
100
AcDbLine
 10
80.99999999999999
 20
7.75
 30
0.0
 11
80.99999999999999
 21
47.0
 31
0.0
  0
LINE
  5
1D15
330
149C
100
AcDbEntity
  8
2
 62
     0
100
AcDbLine
 10
48.99999999999997
 20
10.099
 30
0.0
 11
48.99999999999997
 21
47.0
 31
0.0
  0
LINE
  5
1D16
330
149C
100
AcDbEntity
  8
2
 62
     0
100
AcDbLine
 10
78.49999999999998
 20
45.0
 30
0.0
 11
51.49999999999997
 21
45.0
 31
0.0
  0
SOLID
  5
1D17
330
149C
100
AcDbEntity
  8
2
 62
     0
100
AcDbTrace
 10
78.49999999999998
 20
45.41666666666666
 30
0.0
 11
78.49999999999998
 21
44.58333333333333
 31
0.0
 12
80.99999999999999
 22
45.0
 32
0.0
 13
80.99999999999999
 23
45.0
 33
0.0
  0
SOLID
  5
1D18
330
149C
100
AcDbEntity
  8
2
 62
     0
100
AcDbTrace
 10
51.49999999999997
 20
45.41666666666666
 30
0.0
 11
51.49999999999997
 21
44.58333333333333
 31
0.0
 12
48.99999999999997
 22
45.0
 32
0.0
 13
48.99999999999997
 23
45.0
 33
0.0
  0
MTEXT
  5
1D19
330
149C
100
AcDbEntity
  8
2
 62
     0
100
AcDbMText
 10
64.99999999999997
 20
47.81148981026001
 30
0.0
 40
3.5
 41
0.0
 71
     5
 72
     1
  1
\A1;32
  7
STANDARD 3.5 mm
 73
     1
 44
1.0
1001
ACAD
1000
MTEXTBEGIN
1070
    73
1070
     1
1070
    44
1040
1.0
1070
    74
1070
     0
1000
MTEXTEND
  0
POINT
  5
1D1A
330
149C
100
AcDbEntity
  8
DEFPOINTS
 62
     0
100
AcDbPoint
 10
80.99999999999999
 20
6.75
 30
0.0
  0
POINT
  5
1D1B
330
149C
100
AcDbEntity
  8
DEFPOINTS
 62
     0
100
AcDbPoint
 10
48.99999999999997
 20
9.098999999999996
 30
0.0
  0
POINT
  5
1D1C
330
149C
100
AcDbEntity
  8
DEFPOINTS
 62
     0
100
AcDbPoint
 10
48.99999999999997
 20
45.0
 30
0.0
  0
ENDBLK
  5
149E
330
149C
100
AcDbEntity
  8
0
100
AcDbBlockEnd
  0
BLOCK
  5
14B5
330
14B4
100
AcDbEntity
  8
0
100
AcDbBlockBegin
  2
*D4
 70
     1
 10
0.0
 20
0.0
 30
0.0
  3
*D4
  1

  0
LINE
  5
1D0B
330
14B4
100
AcDbEntity
  8
2
 62
     0
100
AcDbLine
 10
80.99999999999999
 20
7.75
 30
0.0
 11
80.99999999999999
 21
62.0
 31
0.0
  0
LINE
  5
1D0C
330
14B4
100
AcDbEntity
  8
2
 62
     0
100
AcDbLine
 10
17.00000000000003
 20
7.749999999999992
 30
0.0
 11
17.00000000000003
 21
62.0
 31
0.0
  0
LINE
  5
1D0D
330
14B4
100
AcDbEntity
  8
2
 62
     0
100
AcDbLine
 10
78.49999999999998
 20
60.0
 30
0.0
 11
19.50000000000003
 21
60.0
 31
0.0
  0
SOLID
  5
1D0E
330
14B4
100
AcDbEntity
  8
2
 62
     0
100
AcDbTrace
 10
78.49999999999998
 20
60.41666666666666
 30
0.0
 11
78.49999999999998
 21
59.58333333333333
 31
0.0
 12
80.99999999999999
 22
60.0
 32
0.0
 13
80.99999999999999
 23
60.0
 33
0.0
  0
SOLID
  5
1D0F
330
14B4
100
AcDbEntity
  8
2
 62
     0
100
AcDbTrace
 10
19.50000000000003
 20
60.41666666666666
 30
0.0
 11
19.50000000000003
 21
59.58333333333333
 31
0.0
 12
17.00000000000003
 22
60.0
 32
0.0
 13
17.00000000000003
 23
60.0
 33
0.0
  0
MTEXT
  5
1D10
330
14B4
100
AcDbEntity
  8
2
 62
     0
100
AcDbMText
 10
49.00000000000002
 20
62.81148981026001
 30
0.0
 40
3.5
 41
0.0
 71
     5
 72
     1
  1
\A1;64
  7
STANDARD 3.5 mm
 73
     1
 44
1.0
1001
ACAD
1000
MTEXTBEGIN
1070
    73
1070
     1
1070
    44
1040
1.0
1070
    74
1070
     0
1000
MTEXTEND
  0
POINT
  5
1D11
330
14B4
100
AcDbEntity
  8
DEFPOINTS
 62
     0
100
AcDbPoint
 10
80.99999999999999
 20
6.75
 30
0.0
  0
POINT
  5
1D12
330
14B4
100
AcDbEntity
  8
DEFPOINTS
 62
     0
100
AcDbPoint
 10
17.00000000000003
 20
6.749999999999992
 30
0.0
  0
POINT
  5
1D13
330
14B4
100
AcDbEntity
  8
DEFPOINTS
 62
     0
100
AcDbPoint
 10
17.00000000000003
 20
60.0
 30
0.0
  0
ENDBLK
  5
14B6
330
14B4
100
AcDbEntity
  8
0
100
AcDbBlockEnd
  0
BLOCK
  5
14CD
330
14CC
100
AcDbEntity
  8
0
100
AcDbBlockBegin
  2
*D5
 70
     1
 10
0.0
 20
0.0
 30
0.0
  3
*D5
  1

  0
LINE
  5
1D02
330
14CC
100
AcDbEntity
  8
2
 62
     0
100
AcDbLine
 10
80.99999999999999
 20
7.75
 30
0.0
 11
80.99999999999999
 21
77.0
 31
0.0
  0
LINE
  5
1D03
330
14CC
100
AcDbEntity
  8
2
 62
     0
100
AcDbLine
 10
0.0000000000000001
 20
1.0
 30
0.0
 11
0.0000000000000047
 21
77.0
 31
0.0
  0
LINE
  5
1D04
330
14CC
100
AcDbEntity
  8
2
 62
     0
100
AcDbLine
 10
78.49999999999998
 20
75.0
 30
0.0
 11
2.500000000000004
 21
75.0
 31
0.0
  0
SOLID
  5
1D05
330
14CC
100
AcDbEntity
  8
2
 62
     0
100
AcDbTrace
 10
78.49999999999998
 20
75.41666666666667
 30
0.0
 11
78.49999999999998
 21
74.58333333333333
 31
0.0
 12
80.99999999999999
 22
75.0
 32
0.0
 13
80.99999999999999
 23
75.0
 33
0.0
  0
SOLID
  5
1D06
330
14CC
100
AcDbEntity
  8
2
 62
     0
100
AcDbTrace
 10
2.500000000000004
 20
75.41666666666667
 30
0.0
 11
2.500000000000004
 21
74.58333333333333
 31
0.0
 12
0.0000000000000046
 22
75.0
 32
0.0
 13
0.0000000000000046
 23
75.0
 33
0.0
  0
MTEXT
  5
1D07
330
14CC
100
AcDbEntity
  8
2
 62
     0
100
AcDbMText
 10
40.49999999999999
 20
77.81148981026001
 30
0.0
 40
3.5
 41
0.0
 71
     5
 72
     1
  1
\A1;81
  7
STANDARD 3.5 mm
 73
     1
 44
1.0
1001
ACAD
1000
MTEXTBEGIN
1070
    73
1070
     1
1070
    44
1040
1.0
1070
    74
1070
     0
1000
MTEXTEND
  0
POINT
  5
1D08
330
14CC
100
AcDbEntity
  8
DEFPOINTS
 62
     0
100
AcDbPoint
 10
80.99999999999999
 20
6.75
 30
0.0
  0
POINT
  5
1D09
330
14CC
100
AcDbEntity
  8
DEFPOINTS
 62
     0
100
AcDbPoint
 10
0.0
 20
0.0
 30
0.0
  0
POINT
  5
1D0A
330
14CC
100
AcDbEntity
  8
DEFPOINTS
 62
     0
100
AcDbPoint
 10
0.0000000000000046
 20
75.0
 30
0.0
  0
ENDBLK
  5
14CE
330
14CC
100
AcDbEntity
  8
0
100
AcDbBlockEnd
  0
BLOCK
  5
1500
330
14FF
100
AcDbEntity
  8
0
100
AcDbBlockBegin
  2
*D6
 70
     1
 10
0.0
 20
0.0
 30
0.0
  3
*D6
  1

  0
LINE
  5
1CF9
330
14FF
100
AcDbEntity
  8
SK2
 62
     0
100
AcDbLine
 10
80.99999999999999
 20
7.75
 30
0.0
 11
80.99999999999999
 21
92.0
 31
0.0
  0
LINE
  5
1CFA
330
14FF
100
AcDbEntity
  8
SK2
 62
     0
100
AcDbLine
 10
-44.0
 20
6.5
 30
0.0
 11
-43.99999999999999
 21
92.0
 31
0.0
  0
LINE
  5
1CFB
330
14FF
100
AcDbEntity
  8
SK2
 62
     0
100
AcDbLine
 10
78.49999999999998
 20
90.0
 30
0.0
 11
-41.49999999999999
 21
90.0
 31
0.0
  0
SOLID
  5
1CFC
330
14FF
100
AcDbEntity
  8
SK2
 62
     0
100
AcDbTrace
 10
78.49999999999998
 20
90.41666666666667
 30
0.0
 11
78.49999999999998
 21
89.58333333333333
 31
0.0
 12
80.99999999999999
 22
90.0
 32
0.0
 13
80.99999999999999
 23
90.0
 33
0.0
  0
SOLID
  5
1CFD
330
14FF
100
AcDbEntity
  8
SK2
 62
     0
100
AcDbTrace
 10
-41.49999999999999
 20
90.41666666666667
 30
0.0
 11
-41.49999999999999
 21
89.58333333333333
 31
0.0
 12
-43.99999999999999
 22
90.0
 32
0.0
 13
-43.99999999999999
 23
90.0
 33
0.0
  0
MTEXT
  5
1CFE
330
14FF
100
AcDbEntity
  8
SK2
 62
     0
100
AcDbMText
 10
18.49999999999999
 20
92.81148981026001
 30
0.0
 40
3.5
 41
0.0
 71
     5
 72
     1
  1
\A1;125
  7
STANDARD 3.5 mm
 73
     1
 44
1.0
1001
ACAD
1000
MTEXTBEGIN
1070
    73
1070
     1
1070
    44
1040
1.0
1070
    74
1070
     0
1000
MTEXTEND
  0
POINT
  5
1CFF
330
14FF
100
AcDbEntity
  8
DEFPOINTS
 62
     0
100
AcDbPoint
 10
80.99999999999999
 20
6.75
 30
0.0
  0
POINT
  5
1D00
330
14FF
100
AcDbEntity
  8
DEFPOINTS
 62
     0
100
AcDbPoint
 10
-44.0
 20
5.5
 30
0.0
  0
POINT
  5
1D01
330
14FF
100
AcDbEntity
  8
DEFPOINTS
 62
     0
100
AcDbPoint
 10
-43.99999999999999
 20
90.0
 30
0.0
  0
ENDBLK
  5
1501
330
14FF
100
AcDbEntity
  8
0
100
AcDbBlockEnd
  0
BLOCK
  5
151F
330
151E
100
AcDbEntity
  8
0
100
AcDbBlockBegin
  2
*D7
 70
     1
 10
0.0
 20
0.0
 30
0.0
  3
*D7
  1

  0
LINE
  5
1D3B
330
151E
100
AcDbEntity
  8
SK2
 62
     0
100
AcDbLine
 10
69.83539898689996
 20
8.098999999999996
 30
0.0
 11
69.83539898689996
 21
-32.0
 31
0.0
  0
LINE
  5
1D3C
330
151E
100
AcDbEntity
  8
SK2
 62
     0
100
AcDbLine
 10
-44.0
 20
-6.5
 30
0.0
 11
-44.0
 21
-32.0
 31
0.0
  0
LINE
  5
1D3D
330
151E
100
AcDbEntity
  8
SK2
 62
     0
100
AcDbLine
 10
67.33539898689996
 20
-30.0
 30
0.0
 11
-41.5
 21
-30.0
 31
0.0
  0
SOLID
  5
1D3E
330
151E
100
AcDbEntity
  8
SK2
 62
     0
100
AcDbTrace
 10
67.33539898689996
 20
-29.58333333333333
 30
0.0
 11
67.33539898689996
 21
-30.41666666666667
 31
0.0
 12
69.83539898689996
 22
-30.0
 32
0.0
 13
69.83539898689996
 23
-30.0
 33
0.0
  0
SOLID
  5
1D3F
330
151E
100
AcDbEntity
  8
SK2
 62
     0
100
AcDbTrace
 10
-41.5
 20
-29.58333333333333
 30
0.0
 11
-41.5
 21
-30.41666666666667
 31
0.0
 12
-44.0
 22
-30.0
 32
0.0
 13
-44.0
 23
-30.0
 33
0.0
  0
MTEXT
  5
1D40
330
151E
100
AcDbEntity
  8
SK2
 62
     0
100
AcDbMText
 10
15.0
 20
-27.18851018973999
 30
0.0
 40
3.5
 41
0.0
 71
     5
 72
     1
  1
\A1;113.8
  7
STANDARD 3.5 mm
 73
     1
 44
1.0
1001
ACAD
1000
MTEXTBEGIN
1070
    73
1070
     1
1070
    44
1040
1.0
1070
    74
1070
     0
1000
MTEXTEND
  0
POINT
  5
1D41
330
151E
100
AcDbEntity
  8
DEFPOINTS
 62
     0
100
AcDbPoint
 10
69.83539898689996
 20
9.098999999999996
 30
0.0
  0
POINT
  5
1D42
330
151E
100
AcDbEntity
  8
DEFPOINTS
 62
     0
100
AcDbPoint
 10
-44.0
 20
-5.5
 30
0.0
  0
POINT
  5
1D43
330
151E
100
AcDbEntity
  8
DEFPOINTS
 62
     0
100
AcDbPoint
 10
-44.0
 20
-30.0
 30
0.0
  0
ENDBLK
  5
1520
330
151E
100
AcDbEntity
  8
0
100
AcDbBlockEnd
  0
BLOCK
  5
163E
330
163D
100
AcDbEntity
  8
0
100
AcDbBlockBegin
  2
*D8
 70
     1
 10
0.0
 20
0.0
 30
0.0
  3
*D8
  1

  0
LINE
  5
1D90
330
163D
100
AcDbEntity
  8
SK2
 62
     0
100
AcDbLine
 10
-28.53363104730002
 20
7.000000000000003
 30
0.0
 11
-62.00000000000001
 21
6.999999999999998
 31
0.0
  0
LINE
  5
1D91
330
163D
100
AcDbEntity
  8
SK2
 62
     0
100
AcDbLine
 10
-28.53363104730002
 20
-7.000000000032681
 30
0.0
 11
-62.00000000000001
 21
-7.000000000032686
 31
0.0
  0
LINE
  5
1D92
330
163D
100
AcDbEntity
  8
SK2
 62
     0
100
AcDbLine
 10
-60.00000000000001
 20
-4.500000000032685
 30
0.0
 11
-60.00000000000001
 21
4.499999999999997
 31
0.0
  0
LINE
  5
1D93
330
163D
100
AcDbEntity
  8
SK2
 62
     0
100
AcDbLine
 10
-60.00000000000001
 20
6.999999999999998
 30
0.0
 11
-60.00000000000002
 21
30.33749121574139
 31
0.0
  0
SOLID
  5
1D94
330
163D
100
AcDbEntity
  8
SK2
 62
     0
100
AcDbTrace
 10
-60.41666666666667
 20
-9.500000000032686
 30
0.0
 11
-59.58333333333335
 21
-9.500000000032684
 31
0.0
 12
-60.00000000000001
 22
-7.000000000032686
 32
0.0
 13
-60.00000000000001
 23
-7.000000000032686
 33
0.0
  0
LINE
  5
1D95
330
163D
100
AcDbEntity
  8
SK2
 62
     0
100
AcDbLine
 10
-60.00000000000001
 20
-9.500000000032684
 30
0.0
 11
-60.00000000000001
 21
-12.00000000003269
 31
0.0
  0
LINE
  5
1D96
330
163D
100
AcDbEntity
  8
SK2
 62
     0
100
AcDbLine
 10
-60.00000000000001
 20
-7.000000000032686
 30
0.0
 11
-60.00000000000001
 21
-4.500000000032686
 31
0.0
  0
SOLID
  5
1D97
330
163D
100
AcDbEntity
  8
SK2
 62
     0
100
AcDbTrace
 10
-60.41666666666667
 20
9.499999999999998
 30
0.0
 11
-59.58333333333335
 21
9.5
 31
0.0
 12
-60.00000000000001
 22
6.999999999999998
 32
0.0
 13
-60.00000000000001
 23
6.999999999999998
 33
0.0
  0
LINE
  5
1D98
330
163D
100
AcDbEntity
  8
SK2
 62
     0
100
AcDbLine
 10
-60.00000000000001
 20
9.5
 30
0.0
 11
-60.00000000000001
 21
12.0
 31
0.0
  0
LINE
  5
1D99
330
163D
100
AcDbEntity
  8
SK2
 62
     0
100
AcDbLine
 10
-60.00000000000001
 20
6.999999999999998
 30
0.0
 11
-60.00000000000001
 21
4.499999999999996
 31
0.0
  0
MTEXT
  5
1D9A
330
163D
100
AcDbEntity
  8
SK2
 62
     0
100
AcDbMText
 10
-62.86314125087843
 20
25.0
 30
0.0
 40
3.5
 41
0.0
 71
     5
 72
     1
  1
\A1;%%C14
  7
STANDARD 3.5 mm
 11
0.0000000000000001
 21
1.0
 31
0.0
 73
     1
 44
1.0
  0
POINT
  5
1D9B
330
163D
100
AcDbEntity
  8
DEFPOINTS
 62
     0
100
AcDbPoint
 10
-27.53363104730002
 20
7.000000000000003
 30
0.0
  0
POINT
  5
1D9C
330
163D
100
AcDbEntity
  8
DEFPOINTS
 62
     0
100
AcDbPoint
 10
-27.53363104730002
 20
-7.000000000032681
 30
0.0
  0
POINT
  5
1D9D
330
163D
100
AcDbEntity
  8
DEFPOINTS
 62
     0
100
AcDbPoint
 10
-60.00000000000001
 20
-7.000000000032686
 30
0.0
  0
ENDBLK
  5
163F
330
163D
100
AcDbEntity
  8
0
100
AcDbBlockEnd
  0
ENDSEC
  0
SECTION
  2
ENTITIES
  0
ARC
  5
10FA
102
{ACAD_REACTORS
330
14CA
102
}
330
18
100
AcDbEntity
  8
1
  6
Continuous
370
    25
100
AcDbCircle
 10
17.00000000000001
 20
7.549999999999998
 30
0.0
 40
0.800000000000004
100
AcDbArc
 50
223.4325365578
 51
270.0
  0
ARC
  5
10FB
330
18
100
AcDbEntity
  8
1
  6
Continuous
370
    25
100
AcDbCircle
 10
17.00000000000001
 20
-7.549999999999998
 30
0.0
 40
0.7999999999999901
100
AcDbArc
 50
90.0
 51
136.5674634421998
  0
LINE
  5
10FC
330
18
100
AcDbEntity
  8
1
  6
Continuous
370
    25
100
AcDbLine
 10
16.4190524981
 20
7.0
 30
0.0
 11
0.0
 21
7.0
 31
0.0
  0
LINE
  5
10FD
330
18
100
AcDbEntity
  8
1
  6
Continuous
370
    25
100
AcDbLine
 10
0.0
 20
-7.0
 30
0.0
 11
16.4190524981
 21
-7.0
 31
0.0
  0
LINE
  5
10FE
330
18
100
AcDbEntity
  8
1
  6
Continuous
370
    25
100
AcDbLine
 10
46.07148518869998
 20
6.75
 30
0.0
 11
17.00000000000001
 21
6.75
 31
0.0
  0
LINE
  5
10FF
330
18
100
AcDbEntity
  8
1
  6
Continuous
370
    25
100
AcDbLine
 10
17.00000000000001
 20
-6.75
 30
0.0
 11
46.07148518869998
 21
-6.75
 31
0.0
  0
LWPOLYLINE
  5
1100
330
18
100
AcDbEntity
  8
1
  6
Continuous
370
    25
100
AcDbPolyline
 90
        3
 70
   128
 43
0.0
 10
48.64265337389997
 20
-7.679642265999996
 10
49.04504446789998
 20
-8.374028225099998
 10
49.44743318799999
 20
-9.068762500499996
  0
LWPOLYLINE
  5
1101
330
18
100
AcDbEntity
  8
1
  6
Continuous
370
    25
100
AcDbPolyline
 90
        3
 70
   128
 43
0.0
 10
51.14267130189997
 20
-7.679673720499994
 10
51.54506391309997
 20
-8.374063725899997
 10
51.94745414549998
 20
-9.068801951100006
  0
LWPOLYLINE
  5
1102
330
18
100
AcDbEntity
  8
1
  6
Continuous
370
    25
100
AcDbPolyline
 90
        3
 70
   128
 43
0.0
 10
53.64267597859996
 20
-7.679681923200007
 10
54.04506898679996
 20
-8.374072985599999
 10
54.44745961479997
 20
-9.068812242499999
  0
LWPOLYLINE
  5
1103
330
18
100
AcDbEntity
  8
1
  6
Continuous
370
    25
100
AcDbPolyline
 90
        3
 70
   128
 43
0.0
 10
63.64267519389997
 20
-7.679680546899994
 10
64.04506813539999
 20
-8.374071431900004
 10
64.44745869699999
 20
-9.068810515599999
  0
LWPOLYLINE
  5
1104
330
18
100
AcDbEntity
  8
1
  6
Continuous
370
    25
100
AcDbPolyline
 90
        3
 70
   128
 43
0.0
 10
61.14267519389997
 20
-7.679680547
 10
61.54506813539999
 20
-8.374071431900004
 10
61.94745869699999
 20
-9.068810515699995
  0
LWPOLYLINE
  5
1105
330
18
100
AcDbEntity
  8
1
  6
Continuous
370
    25
100
AcDbPolyline
 90
        3
 70
   128
 43
0.0
 10
58.64267519389997
 20
-7.679680547
 10
59.04506813539999
 20
-8.374071431900004
 10
59.44745869699999
 20
-9.068810515699995
  0
LWPOLYLINE
  5
1106
330
18
100
AcDbEntity
  8
1
  6
Continuous
370
    25
100
AcDbPolyline
 90
        3
 70
   128
 43
0.0
 10
56.14267519389997
 20
-7.679680547
 10
56.54506813539999
 20
-8.374071431900004
 10
56.94745869699999
 20
-9.068810515699995
  0
LWPOLYLINE
  5
1107
330
18
100
AcDbEntity
  8
1
  6
Continuous
370
    25
100
AcDbPolyline
 90
        3
 70
   128
 43
0.0
 10
66.14361733479997
 20
-7.681311461799999
 10
66.42389383019997
 20
-8.164984618400007
 10
66.94849340869999
 20
-9.070726626599999
  0
ARC
  5
1108
330
18
100
AcDbEntity
  8
1
  6
Continuous
370
    25
100
AcDbCircle
 10
-51.2402385779
 20
-77.263766468
 30
0.0
 40
138.6148798025173
100
AcDbArc
 50
29.96728845880002
 51
30.13916831959987
  0
ARC
  5
1109
330
18
100
AcDbEntity
  8
1
  6
Continuous
370
    25
100
AcDbCircle
 10
46.07148518869998
 20
-9.75
 30
0.0
 40
3.0
100
AcDbArc
 50
89.87359770350009
 51
90.0
  0
ARC
  5
110A
330
18
100
AcDbEntity
  8
1
  6
Continuous
370
    25
100
AcDbCircle
 10
48.39022695649997
 20
-7.814330915299997
 30
0.0
 40
0.2860895189304428
100
AcDbArc
 50
28.27744175800018
 51
95.96668996310015
  0
ARC
  5
110B
330
18
100
AcDbEntity
  8
1
  6
Continuous
370
    25
100
AcDbCircle
 10
50.88278228970001
 20
-7.8291477295
 30
0.0
 40
0.2998155523820106
100
AcDbArc
 50
30.08542251359997
 51
93.74101754540001
  0
ARC
  5
110C
330
18
100
AcDbEntity
  8
1
  6
Continuous
370
    25
100
AcDbCircle
 10
53.38263837899997
 20
-7.829347119199995
 30
0.0
 40
0.3000397074232693
100
AcDbArc
 50
30.09949376890007
 51
93.83452783420022
  0
ARC
  5
110D
330
18
100
AcDbEntity
  8
1
  6
Continuous
370
    25
100
AcDbCircle
 10
63.38263116849996
 20
-7.829356551400008
 30
0.0
 40
0.3000506669181389
100
AcDbArc
 50
30.10022429870011
 51
93.84081448459992
  0
ARC
  5
110E
330
18
100
AcDbEntity
  8
1
  6
Continuous
370
    25
100
AcDbCircle
 10
60.88263116849996
 20
-7.829356551400008
 30
0.0
 40
0.300050666913469
100
AcDbArc
 50
30.10022429810013
 51
93.84081448510022
  0
ARC
  5
110F
330
18
100
AcDbEntity
  8
1
  6
Continuous
370
    25
100
AcDbCircle
 10
55.88263116849996
 20
-7.829356551400008
 30
0.0
 40
0.3000506669237959
100
AcDbArc
 50
30.10022429860013
 51
93.8408144837998
  0
ARC
  5
1110
330
18
100
AcDbEntity
  8
1
  6
Continuous
370
    25
100
AcDbCircle
 10
58.38263116849996
 20
-7.829356551400008
 30
0.0
 40
0.300050666911544
100
AcDbArc
 50
30.10022429759997
 51
93.84081448520015
  0
ARC
  5
1111
330
18
100
AcDbEntity
  8
1
  6
Continuous
370
    25
100
AcDbCircle
 10
65.96018621299997
 20
-7.769835774200007
 30
0.0
 40
0.2037978270427215
100
AcDbArc
 50
30.57128281119996
 51
58.31148930330025
  0
LWPOLYLINE
  5
1112
330
18
100
AcDbEntity
  8
1
  6
Continuous
370
    25
100
AcDbPolyline
 90
        3
 70
   128
 43
0.0
 10
53.19745883689996
 20
9.068810779000003
 10
52.79506826519996
 20
8.374071668799992
 10
52.39267531349998
 20
7.679680756899997
  0
LWPOLYLINE
  5
1113
330
18
100
AcDbEntity
  8
1
  6
Continuous
370
    25
100
AcDbPolyline
 90
        3
 70
   128
 43
0.0
 10
55.69745869709999
 20
9.068810515899995
 10
55.2950681355
 20
8.374071432100002
 10
54.89267519399994
 20
7.679680547199992
  0
LWPOLYLINE
  5
1114
330
18
100
AcDbEntity
  8
1
  6
Continuous
370
    25
100
AcDbPolyline
 90
        3
 70
   128
 43
0.0
 10
58.19745869699999
 20
9.0688105157
 10
57.79506813539999
 20
8.374071432
 10
57.39267519389997
 20
7.679680547000002
  0
LWPOLYLINE
  5
1115
330
18
100
AcDbEntity
  8
1
  6
Continuous
370
    25
100
AcDbPolyline
 90
        3
 70
   128
 43
0.0
 10
60.69745869699999
 20
9.0688105157
 10
60.29506813539999
 20
8.374071432
 10
59.89267519389997
 20
7.679680547000002
  0
LWPOLYLINE
  5
1116
330
18
100
AcDbEntity
  8
1
  6
Continuous
370
    25
100
AcDbPolyline
 90
        3
 70
   128
 43
0.0
 10
63.19745869699999
 20
9.0688105157
 10
62.79506813539999
 20
8.374071432
 10
62.39267519389997
 20
7.679680547000002
  0
LWPOLYLINE
  5
1117
330
18
100
AcDbEntity
  8
1
  6
Continuous
370
    25
100
AcDbPolyline
 90
        3
 70
   128
 43
0.0
 10
50.69744557779998
 20
9.068785826400002
 10
50.29505596439998
 20
8.374049216599997
 10
49.89266397419997
 20
7.679660866099996
  0
ARC
  5
1118
330
18
100
AcDbEntity
  8
1
  6
Continuous
370
    25
100
AcDbCircle
 10
54.64869207809996
 20
7.819616475499991
 30
0.0
 40
0.2812710386847406
100
AcDbArc
 50
306.2813271734998
 51
329.9755438869997
  0
ARC
  5
1119
330
18
100
AcDbEntity
  8
1
  6
Continuous
370
    25
100
AcDbCircle
 10
57.14869289469999
 20
7.819615733499992
 30
0.0
 40
0.2812699615455355
100
AcDbArc
 50
306.2814022219001
 51
329.9755700368
  0
ARC
  5
111A
330
18
100
AcDbEntity
  8
1
  6
Continuous
370
    25
100
AcDbCircle
 10
59.64869289469999
 20
7.819615733499992
 30
0.0
 40
0.2812699615923651
100
AcDbArc
 50
306.2814022211997
 51
329.9755700371998
  0
ARC
  5
111B
330
18
100
AcDbEntity
  8
1
  6
Continuous
370
    25
100
AcDbCircle
 10
62.14869289459999
 20
7.819615733499992
 30
0.0
 40
0.2812699616421199
100
AcDbArc
 50
306.281402219
 51
329.9755700366999
  0
ARC
  5
111C
330
18
100
AcDbEntity
  8
1
  6
Continuous
370
    25
100
AcDbCircle
 10
52.14913050559996
 20
7.819262769799996
 30
0.0
 40
0.2807145804377887
100
AcDbArc
 50
306.3227449574
 51
329.9912610545998
  0
ARC
  5
111D
330
18
100
AcDbEntity
  8
1
  6
Continuous
370
    25
100
AcDbCircle
 10
49.65064672179996
 20
7.818028531399995
 30
0.0
 40
0.2787849460312445
100
AcDbArc
 50
306.4701958568
 51
330.0460532504998
  0
LINE
  5
111E
330
18
100
AcDbEntity
  8
1
  6
Continuous
370
    25
100
AcDbLine
 10
64.89072535879997
 20
7.676168962399996
 30
0.0
 11
64.86427741519998
 21
7.639239294100001
 31
0.0
  0
LWPOLYLINE
  5
111F
330
18
100
AcDbEntity
  8
1
  6
Continuous
370
    25
100
AcDbPolyline
 90
        3
 70
   128
 43
0.0
 10
65.69407615169997
 20
9.062118365999991
 10
65.29187820509998
 20
8.367981498899991
 10
64.88967847519997
 20
7.674207913799996
  0
LWPOLYLINE
  5
1120
330
18
100
AcDbEntity
  8
1
  6
Continuous
370
    25
100
AcDbPolyline
 90
        3
 70
   128
 43
0.0
 10
68.19401802119998
 20
9.061997641099999
 10
67.79198612019998
 20
8.368196280699997
 10
67.41418222359998
 20
7.716520351600003
  0
LINE
  5
1121
330
18
100
AcDbEntity
  8
SK1
100
AcDbLine
 10
0.0
 20
7.0
 30
0.0
 11
-27.5336310473
 21
7.0
 31
0.0
  0
LINE
  5
1122
330
18
100
AcDbEntity
  8
SK1
100
AcDbLine
 10
-27.5336310473
 20
-7.0
 30
0.0
 11
0.0
 21
-7.0
 31
0.0
  0
ARC
  5
1123
330
18
100
AcDbEntity
  8
SK1
100
AcDbCircle
 10
-27.99999999999999
 20
7.649999999999991
 30
0.0
 40
0.800000000000004
100
AcDbArc
 50
270.0
 51
305.6590876960998
  0
ARC
  5
1124
102
{ACAD_REACTORS
330
1653
102
}
330
18
100
AcDbEntity
  8
SK1
100
AcDbCircle
 10
-27.99999999999999
 20
-7.650000000000002
 30
0.0
 40
0.800000000000004
100
AcDbArc
 50
54.34091230390007
 51
90.0
  0
LINE
  5
1125
330
18
100
AcDbEntity
  8
SK1
100
AcDbLine
 10
-27.99999999999999
 20
6.850000000000001
 30
0.0
 11
-28.64999999999999
 21
6.850000000000001
 31
0.0
  0
LINE
  5
1126
330
18
100
AcDbEntity
  8
SK1
100
AcDbLine
 10
-28.64999999999999
 20
-6.850000000000001
 30
0.0
 11
-27.99999999999999
 21
-6.850000000000001
 31
0.0
  0
ARC
  5
1127
330
18
100
AcDbEntity
  8
1
  6
Continuous
370
    25
100
AcDbCircle
 10
47.08225076329997
 20
11.36585562189999
 30
0.0
 40
8.224190703719001
100
AcDbArc
 50
313.4982194208001
 51
321.8532410538998
  0
ARC
  5
1128
330
18
100
AcDbEntity
  8
1
  6
Continuous
370
    25
100
AcDbCircle
 10
-369.5699011932
 20
-17.33882588570001
 30
0.0
 40
423.7789403564418
100
AcDbArc
 50
2.345002110599931
 51
3.195775462599906
  0
LWPOLYLINE
  5
1129
330
18
100
AcDbEntity
  8
1
  6
Continuous
370
    25
100
AcDbPolyline
 90
        5
 70
   128
 43
0.0
 10
53.85415226909997
 20
0.0007600141000026
 10
53.64580085589997
 20
0.007087331399994
 10
53.43743240689995
 20
0.0134229352999995
 10
53.24440941189998
 20
0.019298709000001
 10
53.05136769119997
 20
0.0251813818999978
  0
ARC
  5
112A
330
18
100
AcDbEntity
  8
1
  6
Continuous
370
    25
100
AcDbCircle
 10
-240.833544145
 20
-14.12702642340001
 30
0.0
 40
294.2254686303376
100
AcDbArc
 50
2.756983532999989
 51
3.805390341200027
  0
ARC
  5
112B
330
18
100
AcDbEntity
  8
1
  6
Continuous
370
    25
100
AcDbCircle
 10
71.70886473879999
 20
12.5054969654
 30
0.0
 40
10.04697482027713
100
AcDbArc
 50
218.270447347
 51
225.1074516956001
  0
ARC
  5
112C
330
18
100
AcDbEntity
  8
1
  6
Continuous
370
    25
100
AcDbCircle
 10
-213.2970527599
 20
-13.1823957332
 30
0.0
 40
278.5347125358116
100
AcDbArc
 50
2.754565112799943
 51
3.822825259100043
  0
ARC
  5
112D
330
18
100
AcDbEntity
  8
1
  6
Continuous
370
    25
100
AcDbCircle
 10
65.19144982509998
 20
-0.7397224475999984
 30
0.0
 40
0.9825189884472855
100
AcDbArc
 50
106.2914735179
 51
110.7288701984998
  0
ARC
  5
112E
330
18
100
AcDbEntity
  8
1
  6
Continuous
370
    25
100
AcDbCircle
 10
-39.97052528280001
 20
277.4035271725001
 30
0.0
 40
296.3770417233298
100
AcDbArc
 50
290.6174694476002
 51
290.7108269391999
  0
LWPOLYLINE
  5
112F
330
18
100
AcDbEntity
  8
1
  6
Continuous
370
    25
100
AcDbPolyline
 90
        3
 70
   128
 43
0.0
 10
64.39184396309997
 20
0.0087782207000018
 10
64.33085374789998
 20
0.0069315361000015
 10
64.12496896039998
 20
0.0006982030999936
  0
ARC
  5
1130
330
18
100
AcDbEntity
  8
1
  6
Continuous
370
    25
100
AcDbCircle
 10
-359.7598400793
 20
-17.3600036322
 30
0.0
 40
424.2401740793741
100
AcDbArc
 50
2.345305404900082
 51
3.194716379599964
  0
LWPOLYLINE
  5
1131
330
18
100
AcDbEntity
  8
1
  6
Continuous
370
    25
100
AcDbPolyline
 90
        5
 70
   128
 43
0.0
 10
61.35415501699998
 20
0.0006982030999936
 10
61.14580466119999
 20
0.006988478300002
 10
60.93743759649997
 20
0.0132785849000001
 10
60.74441840699996
 20
0.019104696600003
 10
60.55138084609996
 20
0.0249306228999977
  0
ARC
  5
1132
330
18
100
AcDbEntity
  8
1
  6
Continuous
370
    25
100
AcDbCircle
 10
-234.7018572875001
 20
-14.20140065540001
 30
0.0
 40
295.5957765767487
100
AcDbArc
 50
2.758577090900093
 51
3.799809192699964
  0
ARC
  5
1133
330
18
100
AcDbEntity
  8
1
  6
Continuous
370
    25
100
AcDbCircle
 10
54.27018790379997
 20
11.5804105829
 30
0.0
 40
8.604352380617356
100
AcDbArc
 50
313.9707044934997
 51
321.9967717953999
  0
ARC
  5
1134
330
18
100
AcDbEntity
  8
1
  6
Continuous
370
    25
100
AcDbCircle
 10
-362.5306540211001
 20
-17.3600036321
 30
0.0
 40
424.2401740777175
100
AcDbArc
 50
2.345305404900082
 51
3.194716379599964
  0
LWPOLYLINE
  5
1135
330
18
100
AcDbEntity
  8
1
  6
Continuous
370
    25
100
AcDbPolyline
 90
        5
 70
   128
 43
0.0
 10
59.92518947839997
 20
0.0249306228999977
 10
59.71734592259998
 20
0.0186352429999914
 10
59.50947562109998
 20
0.0123401321999914
 10
59.31723121219999
 20
0.0065190778999984
 10
59.12496896039998
 20
0.0006982030999936
  0
ARC
  5
1136
330
18
100
AcDbEntity
  8
1
  6
Continuous
370
    25
100
AcDbCircle
 10
-364.759840078
 20
-17.3600036322
 30
0.0
 40
424.2401740780027
100
AcDbArc
 50
2.345305404900082
 51
3.194716379599964
  0
ARC
  5
1137
330
18
100
AcDbEntity
  8
1
  6
Continuous
370
    25
100
AcDbCircle
 10
66.70886473889996
 20
12.50549696549999
 30
0.0
 40
10.04697482034447
100
AcDbArc
 50
218.270447347
 51
225.1074516956001
  0
ARC
  5
1138
330
18
100
AcDbEntity
  8
1
  6
Continuous
370
    25
100
AcDbCircle
 10
-235.3280486553999
 20
-14.20140065540001
 30
0.0
 40
295.5957765769356
100
AcDbArc
 50
2.758577090900093
 51
3.799809192699964
  0
LWPOLYLINE
  5
1139
330
18
100
AcDbEntity
  8
1
  6
Continuous
370
    25
100
AcDbPolyline
 90
        5
 70
   128
 43
0.0
 10
62.42518947839997
 20
0.0249306228999977
 10
62.21734592259998
 20
0.0186352429999914
 10
62.00947562109998
 20
0.0123401321999914
 10
61.81723121219999
 20
0.0065190778999984
 10
61.62496896039998
 20
0.0006982030999936
  0
ARC
  5
113A
330
18
100
AcDbEntity
  8
1
  6
Continuous
370
    25
100
AcDbCircle
 10
-362.2598400782
 20
-17.3600036322
 30
0.0
 40
424.2401740782366
100
AcDbArc
 50
2.345305404900082
 51
3.194716379599964
  0
ARC
  5
113B
330
18
100
AcDbEntity
  8
1
  6
Continuous
370
    25
100
AcDbCircle
 10
69.20886473889996
 20
12.50549696549999
 30
0.0
 40
10.04697482034017
100
AcDbArc
 50
218.270447347
 51
225.1074516956001
  0
ARC
  5
113C
330
18
100
AcDbEntity
  8
1
  6
Continuous
370
    25
100
AcDbCircle
 10
-232.8280486546
 20
-14.2014006553
 30
0.0
 40
295.5957765760865
100
AcDbArc
 50
2.758577090900093
 51
3.799809192699964
  0
LWPOLYLINE
  5
113D
330
18
100
AcDbEntity
  8
1
  6
Continuous
370
    25
100
AcDbPolyline
 90
        5
 70
   128
 43
0.0
 10
56.35415501699998
 20
0.0006982030999936
 10
56.14580466119999
 20
0.006988478300002
 10
55.93743759649997
 20
0.0132785849000001
 10
55.74441840699996
 20
0.019104696600003
 10
55.55138084609996
 20
0.0249306228999977
  0
ARC
  5
113E
330
18
100
AcDbEntity
  8
1
  6
Continuous
370
    25
100
AcDbCircle
 10
-239.7018572878
 20
-14.20140065540001
 30
0.0
 40
295.5957765770527
100
AcDbArc
 50
2.758577090900093
 51
3.799809192699964
  0
ARC
  5
113F
330
18
100
AcDbEntity
  8
1
  6
Continuous
370
    25
100
AcDbCircle
 10
49.27018790379997
 20
11.5804105829
 30
0.0
 40
8.604352380616401
100
AcDbArc
 50
313.9707044934997
 51
321.9967717953999
  0
ARC
  5
1140
330
18
100
AcDbEntity
  8
1
  6
Continuous
370
    25
100
AcDbCircle
 10
-367.5306540215
 20
-17.3600036322
 30
0.0
 40
424.2401740781224
100
AcDbArc
 50
2.345305404900082
 51
3.194716379599964
  0
LWPOLYLINE
  5
1141
330
18
100
AcDbEntity
  8
1
  6
Continuous
370
    25
100
AcDbPolyline
 90
        5
 70
   128
 43
0.0
 10
63.85415501699998
 20
0.0006982030999936
 10
63.64580466119999
 20
0.006988478300002
 10
63.43743759649997
 20
0.0132785849000001
 10
63.24441840699996
 20
0.019104696600003
 10
63.05138084609996
 20
0.0249306228999977
  0
ARC
  5
1142
330
18
100
AcDbEntity
  8
1
  6
Continuous
370
    25
100
AcDbCircle
 10
-232.2018572875001
 20
-14.20140065540001
 30
0.0
 40
295.5957765767769
100
AcDbArc
 50
2.758577090900093
 51
3.799809192699964
  0
ARC
  5
1143
330
18
100
AcDbEntity
  8
1
  6
Continuous
370
    25
100
AcDbCircle
 10
56.77018790379997
 20
11.5804105829
 30
0.0
 40
8.604352380615388
100
AcDbArc
 50
313.9707044934997
 51
321.9967717953999
  0
ARC
  5
1144
330
18
100
AcDbEntity
  8
1
  6
Continuous
370
    25
100
AcDbCircle
 10
-360.030654021
 20
-17.3600036321
 30
0.0
 40
424.2401740776257
100
AcDbArc
 50
2.345305404900082
 51
3.194716379599964
  0
LWPOLYLINE
  5
1145
330
18
100
AcDbEntity
  8
1
  6
Continuous
370
    25
100
AcDbPolyline
 90
        5
 70
   128
 43
0.0
 10
58.85415501699998
 20
0.0006982030999936
 10
58.64580466119999
 20
0.006988478300002
 10
58.43743759649997
 20
0.0132785849000001
 10
58.24441840699996
 20
0.019104696600003
 10
58.05138084609996
 20
0.0249306228999977
  0
ARC
  5
1146
330
18
100
AcDbEntity
  8
1
  6
Continuous
370
    25
100
AcDbCircle
 10
-237.2018572875999
 20
-14.20140065540001
 30
0.0
 40
295.5957765769002
100
AcDbArc
 50
2.758577090900093
 51
3.799809192699964
  0
ARC
  5
1147
330
18
100
AcDbEntity
  8
1
  6
Continuous
370
    25
100
AcDbCircle
 10
51.77018790379997
 20
11.5804105829
 30
0.0
 40
8.604352380621714
100
AcDbArc
 50
313.9707044934997
 51
321.9967717953999
  0
ARC
  5
1148
330
18
100
AcDbEntity
  8
1
  6
Continuous
370
    25
100
AcDbCircle
 10
-365.0306540222
 20
-17.3600036322
 30
0.0
 40
424.2401740788173
100
AcDbArc
 50
2.345305404900082
 51
3.194716379599964
  0
LWPOLYLINE
  5
1149
330
18
100
AcDbEntity
  8
1
  6
Continuous
370
    25
100
AcDbPolyline
 90
        5
 70
   128
 43
0.0
 10
57.42518947839997
 20
0.0249306228999977
 10
57.21734592259998
 20
0.0186352429999914
 10
57.00947562109998
 20
0.0123401321999914
 10
56.81723121219999
 20
0.0065190778999984
 10
56.62496896039998
 20
0.0006982030999936
  0
ARC
  5
114A
330
18
100
AcDbEntity
  8
1
  6
Continuous
370
    25
100
AcDbCircle
 10
-367.2598400774
 20
-17.3600036321
 30
0.0
 40
424.240174077431
100
AcDbArc
 50
2.345305404900082
 51
3.194716379599964
  0
ARC
  5
114B
330
18
100
AcDbEntity
  8
1
  6
Continuous
370
    25
100
AcDbCircle
 10
64.20886473879999
 20
12.5054969654
 30
0.0
 40
10.04697482028427
100
AcDbArc
 50
218.270447347
 51
225.1074516956001
  0
ARC
  5
114C
330
18
100
AcDbEntity
  8
1
  6
Continuous
370
    25
100
AcDbCircle
 10
-237.8280486548999
 20
-14.2014006553
 30
0.0
 40
295.5957765763981
100
AcDbArc
 50
2.758577090900093
 51
3.799809192699964
  0
ARC
  5
114D
330
18
100
AcDbEntity
  8
1
  6
Continuous
370
    25
100
AcDbCircle
 10
61.63845056899996
 20
12.43104759349999
 30
0.0
 40
9.944535487887911
100
AcDbArc
 50
218.1761793222998
 51
225.0921155547998
  0
ARC
  5
114E
330
18
100
AcDbEntity
  8
1
  6
Continuous
370
    25
100
AcDbCircle
 10
-240.3279598994
 20
-14.20139584000001
 30
0.0
 40
295.5956876920021
100
AcDbArc
 50
2.758576986599933
 51
3.799809556699957
  0
LWPOLYLINE
  5
114F
330
18
100
AcDbEntity
  8
1
  6
Continuous
370
    25
100
AcDbPolyline
 90
        5
 70
   128
 43
0.0
 10
54.92518947839997
 20
0.0249306228999977
 10
54.85220644569998
 20
0.0227199053000007
 10
54.77921981639997
 20
0.0205092238999924
 10
54.70622975959997
 20
0.0182985769000013
 10
54.63323643389997
 20
0.0160879628000004
  0
LWPOLYLINE
  5
1150
330
18
100
AcDbEntity
  8
1
  6
Continuous
370
    25
100
AcDbPolyline
 90
        4
 70
   128
 43
0.0
 10
54.63323643389997
 20
0.0160879628000004
 10
54.425356088
 20
0.0097973258999922
 10
54.27516733199998
 20
0.0052585411000017
 10
54.12496779089997
 20
0.0007245112000014
  0
ARC
  5
1151
330
18
100
AcDbEntity
  8
1
  6
Continuous
370
    25
100
AcDbCircle
 10
-369.5015658326999
 20
-17.3481368933
 30
0.0
 40
423.9816304770696
100
AcDbArc
 50
2.345134942699937
 51
3.195311155300026
  0
ARC
  5
1152
330
18
100
AcDbEntity
  8
1
  6
Continuous
370
    25
100
AcDbCircle
 10
44.97527278670001
 20
11.1849055346
 30
0.0
 40
7.781842621293331
100
AcDbArc
 50
312.5669625874003
 51
321.2946549407001
  0
ARC
  5
1153
330
18
100
AcDbEntity
  8
1
  6
Continuous
370
    25
100
AcDbCircle
 10
-367.4759557796
 20
-17.12738474350001
 30
0.0
 40
419.1801875936807
100
AcDbArc
 50
2.341959262699981
 51
3.206422606200066
  0
LWPOLYLINE
  5
1154
330
18
100
AcDbEntity
  8
1
  6
Continuous
370
    25
100
AcDbPolyline
 90
        5
 70
   128
 43
0.0
 10
51.35410635399995
 20
0.0017928272999974
 10
51.14575115299999
 20
0.0082212949999985
 10
50.93737861629997
 20
0.0146571938999927
 10
50.74434548269998
 20
0.0206253005999919
 10
50.55129329179997
 20
0.0265995896
  0
ARC
  5
1155
330
18
100
AcDbEntity
  8
1
  6
Continuous
370
    25
100
AcDbCircle
 10
-237.3887731085
 20
-13.80347225110001
 30
0.0
 40
288.2720116933299
100
AcDbArc
 50
2.749864732799962
 51
3.830325663100007
  0
ARC
  5
1156
330
18
100
AcDbEntity
  8
1
  6
Continuous
370
    25
100
AcDbCircle
 10
59.44339052009997
 20
12.67401345559999
 30
0.0
 40
10.31790345072325
100
AcDbArc
 50
218.0574169557001
 51
224.7545950132002
  0
ARC
  5
1157
330
18
100
AcDbEntity
  8
1
  6
Continuous
370
    25
100
AcDbCircle
 10
-240.4041177016
 20
-14.06961109000001
 30
0.0
 40
293.1683100396406
100
AcDbArc
 50
2.755745310399964
 51
3.809729473000084
  0
LWPOLYLINE
  5
1158
330
18
100
AcDbEntity
  8
1
  6
Continuous
370
    25
100
AcDbPolyline
 90
        5
 70
   128
 43
0.0
 10
52.42516384899996
 20
0.0254191722999977
 10
52.21731679399997
 20
0.0192225083999915
 10
52.00944287129997
 20
0.0130356703999972
 10
51.81719440229997
 20
0.0073233293999948
 10
51.62492800119999
 20
0.0016195380999946
  0
ARC
  5
1159
330
18
100
AcDbEntity
  8
1
  6
Continuous
370
    25
100
AcDbCircle
 10
-367.9370888974
 20
-17.16108716780001
 30
0.0
 40
419.9129011182641
100
AcDbArc
 50
2.342449227100037
 51
3.204707976299955
  0
ARC
  5
115A
330
18
100
AcDbEntity
  8
1
  6
Continuous
370
    25
100
AcDbCircle
 10
-285.5937528284
 20
-1.145536191200004
 30
0.0
 40
334.6171536416207
100
AcDbArc
 50
0.6776126983999717
 51
1.261278705400018
  0
ARC
  5
115B
330
18
100
AcDbEntity
  8
1
  6
Continuous
370
    25
100
AcDbCircle
 10
56.98813375029998
 20
12.7642923428
 30
0.0
 40
10.37127685776764
100
AcDbArc
 50
219.124397547
 51
224.6638942118998
  0
ARC
  5
115C
330
18
100
AcDbEntity
  8
1
  6
Continuous
370
    25
100
AcDbCircle
 10
-227.2476587066
 20
-13.190566293
 30
0.0
 40
277.4877136948756
100
AcDbArc
 50
2.730232843400009
 51
3.856745891900071
  0
LWPOLYLINE
  5
115D
330
18
100
AcDbEntity
  8
1
  6
Continuous
370
    25
100
AcDbPolyline
 90
        5
 70
   128
 43
0.0
 10
49.92507302059997
 20
0.0271505486000017
 10
49.71722456079998
 20
0.0210653614000016
 10
49.50934931389998
 20
0.0149909066000014
 10
49.31709946219999
 20
0.009383296299994
 10
49.12483173159997
 20
0.0037850228999972
  0
LINE
  5
115E
330
18
100
AcDbEntity
  8
1
  6
Continuous
370
    25
100
AcDbLine
 10
49.12483173159997
 20
0.0037850228999972
 30
0.0
 11
48.99999999999997
 21
2.811745631899995
 31
0.0
  0
LINE
  5
115F
330
18
100
AcDbEntity
  8
1
  6
Continuous
370
    25
100
AcDbLine
 10
51.31914149809997
 20
6.313533171299994
 30
0.0
 11
51.04800546619998
 21
6.318799043300002
 31
0.0
  0
LINE
  5
1160
330
18
100
AcDbEntity
  8
1
  6
Continuous
370
    25
100
AcDbLine
 10
51.35410635399995
 20
0.0017928272999974
 30
0.0
 11
51.62492800119999
 21
0.0016195380999946
 31
0.0
  0
LINE
  5
1161
330
18
100
AcDbEntity
  8
1
  6
Continuous
370
    25
100
AcDbLine
 10
53.82091271369998
 20
6.284512964100002
 30
0.0
 11
53.55001091499997
 21
6.285954899299994
 31
0.0
  0
LINE
  5
1162
330
18
100
AcDbEntity
  8
1
  6
Continuous
370
    25
100
AcDbLine
 10
53.85415226909997
 20
0.0007600141000026
 30
0.0
 11
54.12496779089997
 21
0.0007245112000014
 31
0.0
  0
LINE
  5
1163
330
18
100
AcDbEntity
  8
1
  6
Continuous
370
    25
100
AcDbLine
 10
48.99999999999997
 20
0.0039263636000015
 30
0.0
 11
48.99999999999997
 21
2.811745631899995
 31
0.0
  0
LINE
  5
1164
330
18
100
AcDbEntity
  8
1
  6
Continuous
370
    25
100
AcDbLine
 10
48.99999999999997
 20
0.0039263636000015
 30
0.0
 11
49.12483173159997
 21
0.0037850228999972
 31
0.0
  0
ARC
  5
1165
330
18
100
AcDbEntity
  8
1
  6
Continuous
370
    25
100
AcDbCircle
 10
56.63076733399996
 20
-315.1387173506
 30
0.0
 40
315.3099892549632
100
AcDbArc
 50
91.65302408289983
 51
91.9191128184998
  0
LINE
  5
1166
330
18
100
AcDbEntity
  8
1
  6
Continuous
370
    25
100
AcDbLine
 10
46.07148518869998
 20
5.187713743399988
 30
0.0
 11
46.07148518869998
 21
-0.0055853500000005
 31
0.0
  0
ARC
  5
1167
330
18
100
AcDbEntity
  8
1
  6
Continuous
370
    25
100
AcDbCircle
 10
46.69135373009996
 20
7.972032659999996
 30
0.0
 40
2.852484677949373
100
AcDbArc
 50
257.4490156048
 51
322.1040411294004
  0
ARC
  5
1168
330
18
100
AcDbEntity
  8
1
  6
Continuous
370
    25
100
AcDbCircle
 10
47.45290953229996
 20
-33.00928824630001
 30
0.0
 40
33.04944519651616
100
AcDbArc
 50
87.31692440519989
 51
89.85749171440014
  0
LINE
  5
1169
330
18
100
AcDbEntity
  8
1
  6
Continuous
370
    25
100
AcDbLine
 10
56.32102557169996
 20
6.282660288100004
 30
0.0
 11
56.05021162819998
 21
6.282660288100004
 31
0.0
  0
LINE
  5
116A
330
18
100
AcDbEntity
  8
1
  6
Continuous
370
    25
100
AcDbLine
 10
56.35415501699998
 20
0.0006982030999936
 30
0.0
 11
56.62496896039998
 21
0.0006982030999936
 31
0.0
  0
LINE
  5
116B
330
18
100
AcDbEntity
  8
1
  6
Continuous
370
    25
100
AcDbLine
 10
63.82102557169996
 20
6.282660288100004
 30
0.0
 11
63.55021162819998
 21
6.282660288100004
 31
0.0
  0
LINE
  5
116C
330
18
100
AcDbEntity
  8
1
  6
Continuous
370
    25
100
AcDbLine
 10
63.85415501699998
 20
0.0006982030999936
 30
0.0
 11
64.12496896039998
 21
0.0006982030999936
 31
0.0
  0
LINE
  5
116D
330
18
100
AcDbEntity
  8
1
  6
Continuous
370
    25
100
AcDbLine
 10
58.82102557169996
 20
6.282660288100004
 30
0.0
 11
58.55021162819998
 21
6.282660288100004
 31
0.0
  0
LINE
  5
116E
330
18
100
AcDbEntity
  8
1
  6
Continuous
370
    25
100
AcDbLine
 10
58.85415501699998
 20
0.0006982030999936
 30
0.0
 11
59.12496896039998
 21
0.0006982030999936
 31
0.0
  0
LINE
  5
116F
330
18
100
AcDbEntity
  8
1
  6
Continuous
370
    25
100
AcDbLine
 10
61.32102557169996
 20
6.282660288100004
 30
0.0
 11
61.05021162819998
 21
6.282660288100004
 31
0.0
  0
LINE
  5
1170
330
18
100
AcDbEntity
  8
1
  6
Continuous
370
    25
100
AcDbLine
 10
61.35415501699998
 20
0.0006982030999936
 30
0.0
 11
61.62496896039998
 21
0.0006982030999936
 31
0.0
  0
ARC
  5
1171
330
18
100
AcDbEntity
  8
1
  6
Continuous
370
    25
100
AcDbCircle
 10
59.27018790379997
 20
11.5804105829
 30
0.0
 40
8.604352380614573
100
AcDbArc
 50
313.9707044934997
 51
321.9967717953999
  0
ARC
  5
1172
330
18
100
AcDbEntity
  8
1
  6
Continuous
370
    25
100
AcDbCircle
 10
-328.6461750727
 20
-15.8964831634
 30
0.0
 40
395.3190509942314
100
AcDbArc
 50
2.344063227799969
 51
3.21623489880006
  0
LWPOLYLINE
  5
1173
330
18
100
AcDbEntity
  8
1
  6
Continuous
370
    25
100
AcDbPolyline
 90
        5
 70
   128
 43
0.0
 10
66.34208730839997
 20
0.2721488191999946
 10
66.13348655749998
 20
0.2815285735999993
 10
65.92484783389996
 20
0.2908994941999943
 10
65.73070233399997
 20
0.2996087647999985
 10
65.56795210069997
 20
0.3069007343999992
  0
ARC
  5
1174
330
18
100
AcDbEntity
  8
1
  6
Continuous
370
    25
100
AcDbCircle
 10
65.53663332749997
 20
-0.3924897066999975
 30
0.0
 40
0.7000913188258348
100
AcDbArc
 50
87.43600223249996
 51
90.00666706849989
  0
ARC
  5
1175
330
18
100
AcDbEntity
  8
1
  6
Continuous
370
    25
100
AcDbCircle
 10
-212.1680579038999
 20
-13.1297066635
 30
0.0
 40
278.0295155904599
100
AcDbArc
 50
2.770213418400042
 51
3.818899631899901
  0
LINE
  5
1176
330
18
100
AcDbEntity
  8
1
  6
Continuous
370
    25
100
AcDbLine
 10
66.32102557169997
 20
6.282660288100004
 30
0.0
 11
66.05021162819998
 21
6.282660288100004
 31
0.0
  0
ARC
  5
1177
330
18
100
AcDbEntity
  8
1
  6
Continuous
370
    25
100
AcDbCircle
 10
-323.8335567905
 20
-15.66566907400001
 30
0.0
 40
390.771451490445
100
AcDbArc
 50
2.343960268700054
 51
3.219807310099938
  0
ELLIPSE
  5
1178
330
18
100
AcDbEntity
  8
1
  6
Continuous
370
    25
100
AcDbEllipse
 10
57.96007902959998
 20
0.0
 30
0.0
 11
56.07422218450082
 21
9.036714797464163
 31
0.0
210
0.0
220
0.0
230
1.0
 40
0.0189538099
 41
4.859376706718165
 42
4.864227549693193
  0
ARC
  5
1179
330
18
100
AcDbEntity
  8
1
  6
Continuous
370
    25
100
AcDbCircle
 10
74.20886473889996
 20
12.50549696549999
 30
0.0
 40
10.04697482034761
100
AcDbArc
 50
218.270447347
 51
225.1074516956001
  0
ARC
  5
117A
330
18
100
AcDbEntity
  8
1
  6
Continuous
370
    25
100
AcDbCircle
 10
-185.0400069036999
 20
-11.60491681830001
 30
0.0
 40
252.7298443364434
100
AcDbArc
 50
2.771238498100049
 51
3.855310008600048
  0
ARC
  5
117B
330
18
100
AcDbEntity
  8
1
  6
Continuous
370
    25
100
AcDbCircle
 10
-12.5665595185
 20
209.6962990259
 30
0.0
 40
223.8505655811751
100
AcDbArc
 50
290.7142167982998
 51
290.9287256540002
  0
ARC
  5
117C
330
18
100
AcDbEntity
  8
1
  6
Continuous
370
    25
100
AcDbCircle
 10
61.77018790379997
 20
11.5804105829
 30
0.0
 40
8.604352380612752
100
AcDbArc
 50
313.9707044934997
 51
321.9967717953999
  0
ARC
  5
117D
330
18
100
AcDbEntity
  8
1
  6
Continuous
370
    25
100
AcDbCircle
 10
-283.8744822423
 20
-13.7446250729
 30
0.0
 40
352.9932818180564
100
AcDbArc
 50
2.342033007200029
 51
3.252456881099965
  0
LWPOLYLINE
  5
117E
330
18
100
AcDbEntity
  8
1
  6
Continuous
370
    25
100
AcDbPolyline
 90
        5
 70
   128
 43
0.0
 10
68.82393898519997
 20
0.680376567099998
 10
68.61535325629997
 20
0.6897598159999987
 10
68.40673141479996
 20
0.6991346641000007
 10
68.21093111189998
 20
0.7079230788000004
 10
68.01509036109997
 20
0.7167020834999889
  0
ARC
  5
117F
330
18
100
AcDbEntity
  8
1
  6
Continuous
370
    25
100
AcDbCircle
 10
-167.7721206115
 20
-10.6181671266
 30
0.0
 40
236.0595012241726
100
AcDbArc
 50
2.752229775500014
 51
3.887936687400056
  0
LINE
  5
1180
330
18
100
AcDbEntity
  8
1
  6
Continuous
370
    25
100
AcDbLine
 10
68.82102557169997
 20
6.282660288100004
 30
0.0
 11
68.55021162819998
 21
6.282660288100004
 31
0.0
  0
ARC
  5
1181
330
18
100
AcDbEntity
  8
1
  6
Continuous
370
    25
100
AcDbCircle
 10
-289.5221661104
 20
-14.0241748616
 30
0.0
 40
358.9181112436211
100
AcDbArc
 50
2.355100202599943
 51
3.243407187799959
  0
ELLIPSE
  5
1182
330
18
100
AcDbEntity
  8
1
  6
Continuous
370
    25
100
AcDbEllipse
 10
57.96007902959998
 20
0.0
 30
0.0
 11
56.07422218450082
 21
9.036714797464163
 31
0.0
210
0.0
220
0.0
230
1.0
 40
0.0189538099
 41
4.904307224862328
 42
4.909196572803184
  0
ARC
  5
1183
330
18
100
AcDbEntity
  8
1
  6
Continuous
370
    25
100
AcDbCircle
 10
76.70886473879999
 20
12.5054969654
 30
0.0
 40
10.04697482028272
100
AcDbArc
 50
218.270447347
 51
225.1074516956001
  0
ARC
  5
1184
330
18
100
AcDbEntity
  8
1
  6
Continuous
370
    25
100
AcDbCircle
 10
-144.6176342512
 20
-9.3132092321
 30
0.0
 40
214.7393626472405
100
AcDbArc
 50
2.759340204999933
 51
3.92555410919995
  0
ARC
  5
1185
330
18
100
AcDbEntity
  8
1
  6
Continuous
370
    25
100
AcDbCircle
 10
10.02959371769999
 20
155.540722399
 30
0.0
 40
165.6998823660817
100
AcDbArc
 50
290.8821394568002
 51
291.1710767030001
  0
ARC
  5
1186
330
18
100
AcDbEntity
  8
1
  6
Continuous
370
    25
100
AcDbCircle
 10
-256.9153188157
 20
-11.49868468940001
 30
0.0
 40
328.344634542906
100
AcDbArc
 50
2.198335918300073
 51
3.083357373100026
  0
LINE
  5
1187
330
18
100
AcDbEntity
  8
1
  6
Continuous
370
    25
100
AcDbLine
 10
70.95398315169997
 20
6.162568394099997
 30
0.0
 11
71.46170688539998
 21
6.109172143400003
 31
0.0
  0
ARC
  5
1188
330
18
100
AcDbEntity
  8
1
  6
Continuous
370
    25
100
AcDbCircle
 10
-207.6624249896999
 20
-11.82040970740001
 30
0.0
 40
279.6993938147816
100
AcDbArc
 50
2.667554247199944
 51
3.675353796299897
  0
ELLIPSE
  5
1189
330
18
100
AcDbEntity
  8
1
  6
Continuous
370
    25
100
AcDbEllipse
 10
-348.8475091939001
 20
-65.53544672140001
 30
0.0
 11
441.6907352473518
 21
71.15899318491495
 31
0.0
210
0.0
220
0.0
230
0.9999999999999998
 40
0.0073827253
 41
5.967558530395332
 42
5.971581906800786
  0
ARC
  5
118A
330
18
100
AcDbEntity
  8
1
  6
Continuous
370
    25
100
AcDbCircle
 10
-205.7762499536999
 20
-9.800411816899998
 30
0.0
 40
279.4744339269469
100
AcDbArc
 50
2.321140682000068
 51
3.225837221899975
  0
LINE
  5
118B
330
18
100
AcDbEntity
  8
1
  6
Continuous
370
    25
100
AcDbLine
 10
73.25535401059998
 20
5.926101079600003
 30
0.0
 11
74.19733973919997
 21
5.833430177999992
 31
0.0
  0
ARC
  5
118C
330
18
100
AcDbEntity
  8
1
  6
Continuous
370
    25
100
AcDbCircle
 10
-145.6110910679
 20
-9.176828837400007
 30
0.0
 40
220.3203443388827
100
AcDbArc
 50
2.829569366799917
 51
3.906544360099958
  0
ELLIPSE
  5
118D
330
18
100
AcDbEntity
  8
1
  6
Continuous
370
    25
100
AcDbEllipse
 10
-348.8475091939001
 20
-65.53544672140001
 30
0.0
 11
441.6907352473518
 21
71.15899318491495
 31
0.0
210
0.0
220
0.0
230
0.9999999999999998
 40
0.0073827253
 41
5.984710794747702
 42
5.992315986989326
  0
ARC
  5
118E
330
18
100
AcDbEntity
  8
1
  6
Continuous
370
    25
100
AcDbCircle
 10
64.38103389759998
 20
11.47318978679999
 30
0.0
 40
8.450228486446222
100
AcDbArc
 50
313.9345452742999
 51
321.0634849141998
  0
ARC
  5
118F
330
18
100
AcDbEntity
  8
1
  6
Continuous
370
    25
100
AcDbCircle
 10
-141.8164951659
 20
-9.164970275700007
 30
0.0
 40
212.5593692208166
100
AcDbArc
 50
2.77551236079991
 51
3.925825361799941
  0
LWPOLYLINE
  5
1190
330
18
100
AcDbEntity
  8
1
  6
Continuous
370
    25
100
AcDbPolyline
 90
        5
 70
   128
 43
0.0
 10
71.18766422639996
 20
1.0962171353
 10
71.09746244509998
 20
1.100317712799999
 10
70.88923042369998
 20
1.109783212199989
 10
70.69137971249998
 20
1.118775860599988
 10
70.49352576419997
 20
1.127767756499999
  0
ARC
  5
1191
330
18
100
AcDbEntity
  8
1
  6
Continuous
370
    25
100
AcDbCircle
 10
79.02788895779998
 20
12.3337214182
 30
0.0
 40
9.797557084660367
100
AcDbArc
 50
219.4434595992998
 51
225.1482314295
  0
ARC
  5
1192
330
18
100
AcDbEntity
  8
1
  6
Continuous
370
    25
100
AcDbCircle
 10
-112.1953996728
 20
-7.473088726
 30
0.0
 40
184.7614775734064
100
AcDbArc
 50
2.764363730699968
 51
3.991507778599916
  0
ARC
  5
1193
330
18
100
AcDbEntity
  8
1
  6
Continuous
370
    25
100
AcDbCircle
 10
27.85789736640003
 20
114.6294106422
 30
0.0
 40
121.6224050865728
100
AcDbArc
 50
291.1466187764002
 51
291.4586986734001
  0
ARC
  5
1194
330
18
100
AcDbEntity
  8
1
  6
Continuous
370
    25
100
AcDbCircle
 10
67.25881092779999
 20
11.11041911229999
 30
0.0
 40
7.926896139597422
100
AcDbArc
 50
313.7874818548998
 51
319.1549093198001
  0
ARC
  5
1195
330
18
100
AcDbEntity
  8
1
  6
Continuous
370
    25
100
AcDbCircle
 10
-106.5867467399
 20
-7.158704743500006
 30
0.0
 40
179.7692208062604
100
AcDbArc
 50
2.774035906799951
 51
4.002089504999974
  0
LWPOLYLINE
  5
1196
330
18
100
AcDbEntity
  8
1
  6
Continuous
370
    25
100
AcDbPolyline
 90
        4
 70
   128
 43
0.0
 10
73.46888064719998
 20
1.518433286299995
 10
73.37238576269999
 20
1.522923456899995
 10
73.17206212689997
 20
1.532259128700004
 10
72.97181536919997
 20
1.541612642400004
  0
ARC
  5
1197
330
18
100
AcDbEntity
  8
1
  6
Continuous
370
    25
100
AcDbCircle
 10
-148.8401260551
 20
-7.665384009699995
 30
0.0
 40
224.7938801592726
100
AcDbArc
 50
2.449967603000045
 51
3.409620366699962
  0
LINE
  5
1198
330
18
100
AcDbEntity
  8
1
  6
Continuous
370
    25
100
AcDbLine
 10
75.55583654179999
 20
5.704003682399996
 30
0.0
 11
76.93139872789998
 21
5.578043910999994
 31
0.0
  0
ARC
  5
1199
330
18
100
AcDbEntity
  8
1
  6
Continuous
370
    25
100
AcDbCircle
 10
-88.3484403385
 20
-6.544722834099997
 30
0.0
 40
165.7238265168666
100
AcDbArc
 50
3.026961838500084
 51
4.194956948400005
  0
ELLIPSE
  5
119A
330
18
100
AcDbEntity
  8
1
  6
Continuous
370
    25
100
AcDbEllipse
 10
-348.8475091939001
 20
-65.53544672140001
 30
0.0
 11
441.6907352473518
 21
71.15899318491495
 31
0.0
210
0.0
220
0.0
230
0.9999999999999998
 40
0.0073827253
 41
6.002867285658727
 42
6.014577276227722
  0
ARC
  5
119B
330
18
100
AcDbEntity
  8
1
  6
Continuous
370
    25
100
AcDbCircle
 10
81.01623900359999
 20
11.849169499
 30
0.0
 40
9.093212125304603
100
AcDbArc
 50
221.4192409566998
 51
225.2804477183001
  0
ARC
  5
119C
330
18
100
AcDbEntity
  8
1
  6
Continuous
370
    25
100
AcDbCircle
 10
-91.74390906159999
 20
-6.3334864396
 30
0.0
 40
166.7742424531483
100
AcDbArc
 50
2.813864470099923
 51
4.030240072300095
  0
LWPOLYLINE
  5
119D
330
18
100
AcDbEntity
  8
1
  6
Continuous
370
    25
100
AcDbPolyline
 90
        4
 70
   128
 43
0.0
 10
74.82925158599998
 20
1.853704633399992
 10
74.63849568359997
 20
1.777653809599994
 10
74.44592703789997
 20
1.701422689699986
 10
74.44063734209997
 20
1.699335622299995
  0
ARC
  5
119E
330
18
100
AcDbEntity
  8
1
  6
Continuous
370
    25
100
AcDbCircle
 10
70.10390802989997
 20
10.76875358609999
 30
0.0
 40
7.441452552106071
100
AcDbArc
 50
313.6896824883002
 51
317.1084305222999
  0
ARC
  5
119F
330
18
100
AcDbEntity
  8
1
  6
Continuous
370
    25
100
AcDbCircle
 10
-87.44474039149997
 20
-6.097806400799997
 30
0.0
 40
163.0937854124596
100
AcDbArc
 50
2.831335801000001
 51
4.03833785140001
  0
LWPOLYLINE
  5
11A0
330
18
100
AcDbEntity
  8
1
  6
Continuous
370
    25
100
AcDbPolyline
 90
        3
 70
   128
 43
0.0
 10
75.74827685989999
 20
1.943873670399995
 10
75.65299503999995
 20
1.948491949199994
 10
75.44995177189999
 20
1.9583778808
  0
LWPOLYLINE
  5
11A1
330
18
100
AcDbEntity
  8
1
  6
Continuous
370
    25
100
AcDbPolyline
 90
       17
 70
   128
 43
0.0
 10
69.68751445579997
 20
-1.236794332199998
 10
69.32295579099997
 20
-1.146418143799998
 10
68.96228964819997
 20
-1.0475648014
 10
68.60393498199998
 20
-0.9403840054999967
 10
68.25073045259997
 20
-0.8271016008000058
 10
67.89595246539999
 20
-0.7072822828999997
 10
67.54721439219999
 20
-0.5862041346000027
 10
67.20146193469999
 20
-0.4661246306999979
 10
66.86134334849997
 20
-0.3518639228000069
 10
66.58155529699998
 20
-0.2637523012999985
 10
66.30451895219997
 20
-0.1842619208999991
 10
66.02767406139996
 20
-0.1147816724000066
 10
65.75199893969998
 20
-0.0572323416000096
 10
65.47164212659997
 20
-0.0120212701
 10
65.19063096469999
 20
0.0192427879000121
 10
64.90609393199997
 20
0.0365057150000006
 10
64.61923222699998
 20
0.0400547224000008
  0
ARC
  5
11A2
330
18
100
AcDbEntity
  8
1
  6
Continuous
370
    25
100
AcDbCircle
 10
66.04846162729997
 20
-4.640178734600005
 30
0.0
 40
4.97419158446874
100
AcDbArc
 50
95.90694792959988
 51
103.1617983318
  0
ARC
  5
11A3
330
18
100
AcDbEntity
  8
1
  6
Continuous
370
    25
100
AcDbCircle
 10
68.18098620129998
 20
-2.196859637999998
 30
0.0
 40
2.923410167929985
100
AcDbArc
 50
97.02538504190004
 51
102.9746149581001
  0
LINE
  5
11A4
330
18
100
AcDbEntity
  8
1
  6
Continuous
370
    25
100
AcDbLine
 10
64.61923222699998
 20
0.0400547224000008
 30
0.0
 11
64.47047515029997
 21
0.0383819883999905
 31
0.0
  0
LWPOLYLINE
  5
11A5
330
18
100
AcDbEntity
  8
1
  6
Continuous
370
    25
100
AcDbPolyline
 90
        3
 70
   128
 43
0.0
 10
76.93139872789998
 20
5.578043910999994
 10
77.02491906389996
 20
5.481211570800006
 10
77.11791647219998
 20
5.387902166599998
  0
ARC
  5
11A6
330
18
100
AcDbEntity
  8
1
  6
Continuous
370
    25
100
AcDbCircle
 10
-78.3338896361
 20
-5.624433581500007
 30
0.0
 40
155.841379488776
100
AcDbArc
 50
2.904688417999996
 51
4.052111506099919
  0
LINE
  5
11A7
330
18
100
AcDbEntity
  8
1
  6
Continuous
370
    25
100
AcDbLine
 10
77.30726701519997
 20
2.272775875100002
 30
0.0
 11
77.14416768369997
 21
2.206469393700003
 31
0.0
  0
ARC
  5
11A8
330
18
100
AcDbEntity
  8
1
  6
Continuous
370
    25
100
AcDbCircle
 10
62.43101215609996
 20
5.805040298199997
 30
0.0
 40
0.5215679515015266
100
AcDbArc
 50
233.1088273322
 51
306.8911726677998
  0
ARC
  5
11A9
330
18
100
AcDbEntity
  8
1
  6
Continuous
370
    25
100
AcDbCircle
 10
62.7382851622
 20
-14.2993941148
 30
0.0
 40
14.32774609278145
100
AcDbArc
 50
88.74784985770011
 51
91.25215014229985
  0
ARC
  5
11AA
330
18
100
AcDbEntity
  8
1
  6
Continuous
370
    25
100
AcDbCircle
 10
59.93101215609996
 20
5.805040298199997
 30
0.0
 40
0.5215679515016799
100
AcDbArc
 50
233.1088273322
 51
306.8911726677998
  0
ARC
  5
11AB
330
18
100
AcDbEntity
  8
1
  6
Continuous
370
    25
100
AcDbCircle
 10
60.23828516229997
 20
-14.29939411470001
 30
0.0
 40
14.3277460926342
100
AcDbArc
 50
88.74784985770011
 51
91.25215014229985
  0
ARC
  5
11AC
330
18
100
AcDbEntity
  8
1
  6
Continuous
370
    25
100
AcDbCircle
 10
57.43101215609996
 20
5.805040298199997
 30
0.0
 40
0.5215679515011403
100
AcDbArc
 50
233.1088273321
 51
306.8911726677998
  0
ARC
  5
11AD
330
18
100
AcDbEntity
  8
1
  6
Continuous
370
    25
100
AcDbCircle
 10
57.7382851622
 20
-14.2993941148
 30
0.0
 40
14.32774609275535
100
AcDbArc
 50
88.74784985770011
 51
91.25215014229985
  0
LWPOLYLINE
  5
11AE
330
18
100
AcDbEntity
  8
1
  6
Continuous
370
    25
100
AcDbPolyline
 90
        3
 70
   128
 43
0.0
 10
54.61791641429996
 20
5.387902965500003
 10
54.62531925039998
 20
5.380936402699992
 10
54.63323643389997
 20
5.374149177699988
  0
ARC
  5
11AF
330
18
100
AcDbEntity
  8
1
  6
Continuous
370
    25
100
AcDbCircle
 10
54.92877580559997
 20
5.820594543700002
 30
0.0
 40
0.5354035721568497
100
AcDbArc
 50
236.4961065495001
 51
306.0833401779998
  0
ARC
  5
11B0
330
18
100
AcDbEntity
  8
1
  6
Continuous
370
    25
100
AcDbCircle
 10
55.2382851622
 20
-14.29939411500001
 30
0.0
 40
14.32774609292667
100
AcDbArc
 50
88.74784985770011
 51
91.25215014229985
  0
ARC
  5
11B1
330
18
100
AcDbEntity
  8
1
  6
Continuous
370
    25
100
AcDbCircle
 10
52.43606479549999
 20
5.823111672400002
 30
0.0
 40
0.5227980121412937
100
AcDbArc
 50
232.2985160811996
 51
305.9819732053
  0
ARC
  5
11B2
330
18
100
AcDbEntity
  8
1
  6
Continuous
370
    25
100
AcDbCircle
 10
52.73280912109997
 20
-14.3443915596
 30
0.0
 40
14.37310356475925
100
AcDbArc
 50
88.73001984959993
 51
91.22646593380009
  0
ARC
  5
11B3
330
18
100
AcDbEntity
  8
1
  6
Continuous
370
    25
100
AcDbCircle
 10
49.93917238899996
 20
5.890189540900002
 30
0.0
 40
0.5297414582764752
100
AcDbArc
 50
231.8088271007
 51
304.5118103759997
  0
ARC
  5
11B4
330
18
100
AcDbEntity
  8
1
  6
Continuous
370
    25
100
AcDbCircle
 10
50.22552684379999
 20
-14.35829537850001
 30
0.0
 40
14.38858321801019
100
AcDbArc
 50
88.70267716659993
 51
91.19650329910014
  0
ARC
  5
11B5
330
18
100
AcDbEntity
  8
1
  6
Continuous
370
    25
100
AcDbCircle
 10
64.93101215609998
 20
5.805040298199997
 30
0.0
 40
0.5215679515010379
100
AcDbArc
 50
233.1088273321
 51
306.8911726677998
  0
ARC
  5
11B6
330
18
100
AcDbEntity
  8
1
  6
Continuous
370
    25
100
AcDbCircle
 10
67.43101215609998
 20
5.805040298199997
 30
0.0
 40
0.521567951501589
100
AcDbArc
 50
233.1088273322
 51
306.8911726677998
  0
ARC
  5
11B7
330
18
100
AcDbEntity
  8
1
  6
Continuous
370
    25
100
AcDbCircle
 10
68.00603131829998
 20
-0.6637893836000082
 30
0.0
 40
1.380521190334331
100
AcDbArc
 50
89.62401979440008
 51
97.60092033519979
  0
ARC
  5
11B8
330
18
100
AcDbEntity
  8
1
  6
Continuous
370
    25
100
AcDbCircle
 10
67.76790746909997
 20
-0.4319348000000005
 30
0.0
 40
1.110818056327883
100
AcDbArc
 50
102.6510567323001
 51
109.6549547512
  0
ARC
  5
11B9
330
18
100
AcDbEntity
  8
1
  6
Continuous
370
    25
100
AcDbCircle
 10
69.93101215609998
 20
5.805040298199997
 30
0.0
 40
0.5215679515010379
100
AcDbArc
 50
233.1088273321
 51
306.8911726677998
  0
ARC
  5
11BA
330
18
100
AcDbEntity
  8
1
  6
Continuous
370
    25
100
AcDbCircle
 10
70.52316437159999
 20
-0.9688311104
 30
0.0
 40
2.096808349803521
100
AcDbArc
 50
90.80990886349987
 51
108.0708573241
  0
ARC
  5
11BB
330
18
100
AcDbEntity
  8
1
  6
Continuous
370
    25
100
AcDbCircle
 10
72.43101215609998
 20
5.805040298199997
 30
0.0
 40
0.5215679515015891
100
AcDbArc
 50
233.1088273322
 51
306.8911726677998
  0
ARC
  5
11BC
330
18
100
AcDbEntity
  8
1
  6
Continuous
370
    25
100
AcDbCircle
 10
72.99898770039998
 20
-0.5264466137999975
 30
0.0
 40
2.068237757875631
100
AcDbArc
 50
90.75276871959987
 51
108.2562567117001
  0
LWPOLYLINE
  5
11BD
330
18
100
AcDbEntity
  8
1
  6
Continuous
370
    25
100
AcDbPolyline
 90
        3
 70
   128
 43
0.0
 10
77.74410783999998
 20
5.387902166599998
 10
77.79967314779999
 20
5.441482137400001
 10
77.85530593089998
 20
5.496330585199998
  0
ARC
  5
11BE
330
18
100
AcDbEntity
  8
1
  6
Continuous
370
    25
100
AcDbCircle
 10
-107.3176816503
 20
-6.166052954399996
 30
0.0
 40
185.5398785154901
100
AcDbArc
 50
2.637902812300093
 51
3.603786698500021
  0
ARC
  5
11BF
330
18
100
AcDbEntity
  8
1
  6
Continuous
370
    25
100
AcDbCircle
 10
-75.55801137679998
 20
-5.485609198899997
 30
0.0
 40
153.6872571352748
100
AcDbArc
 50
2.932985937999978
 51
4.057117410599921
  0
LINE
  5
11C0
330
18
100
AcDbEntity
  8
1
  6
Continuous
370
    25
100
AcDbLine
 10
78.02558810089998
 20
2.373202135499994
 30
0.0
 11
77.92792538759998
 21
2.37824617379999
 31
0.0
  0
LINE
  5
11C1
330
18
100
AcDbEntity
  8
1
  6
Continuous
370
    25
100
AcDbLine
 10
77.85530593089998
 20
5.496330585199998
 30
0.0
 11
79.68349206359999
 21
5.341526578399991
 31
0.0
  0
ARC
  5
11C2
330
18
100
AcDbEntity
  8
1
  6
Continuous
370
    25
100
AcDbCircle
 10
-78.1041074731
 20
-8.079446071300008
 30
0.0
 40
158.3573461334893
100
AcDbArc
 50
3.913110963599909
 51
4.861717159600034
  0
ELLIPSE
  5
11C3
330
18
100
AcDbEntity
  8
1
  6
Continuous
370
    25
100
AcDbEllipse
 10
-348.8475091939001
 20
-65.53544672140001
 30
0.0
 11
441.6907352473518
 21
71.15899318491495
 31
0.0
210
0.0
220
0.0
230
0.9999999999999998
 40
0.0073827253
 41
6.022236397458951
 42
6.039157643444352
  0
ARC
  5
11C4
330
18
100
AcDbEntity
  8
1
  6
Continuous
370
    25
100
AcDbCircle
 10
74.93101215609998
 20
5.805040298199997
 30
0.0
 40
0.5215679515016061
100
AcDbArc
 50
233.1088273322
 51
306.8911726677998
  0
ARC
  5
11C5
330
18
100
AcDbEntity
  8
1
  6
Continuous
370
    25
100
AcDbCircle
 10
75.4736007488
 20
-0.0745343902000002
 30
0.0
 40
2.033049821228188
100
AcDbArc
 50
90.66649479749987
 51
108.4778018098998
  0
ARC
  5
11C6
330
18
100
AcDbEntity
  8
1
  6
Continuous
370
    25
100
AcDbCircle
 10
77.43101215609998
 20
5.805040298199997
 30
0.0
 40
0.5215679515016121
100
AcDbArc
 50
233.1088273322
 51
306.8911726677998
  0
ARC
  5
11C7
330
18
100
AcDbEntity
  8
1
  6
Continuous
370
    25
100
AcDbCircle
 10
77.94690432309995
 20
0.3876399337999956
 30
0.0
 40
1.990696712829601
100
AcDbArc
 50
90.54625567659988
 51
108.7423656298998
  0
LWPOLYLINE
  5
11C8
330
18
100
AcDbEntity
  8
1
  6
Continuous
370
    25
100
AcDbPolyline
 90
       36
 70
   128
 43
0.0
 10
36.27586847800001
 20
-2.454614092999996
 10
36.14271465399998
 20
-2.387480793299999
 10
36.0129607577
 20
-2.313863764999998
 10
35.8891809097
 20
-2.231929193199999
 10
35.77394923069999
 20
-2.139843263200003
 10
35.71406852140001
 20
-2.08250347700001
 10
35.65974083349999
 20
-2.020050074399995
 10
35.61349356800001
 20
-1.952149947999996
 10
35.58316832460001
 20
-1.891052522100005
 10
35.56268622020002
 20
-1.826218939299995
 10
35.55447375200001
 20
-1.757985651399998
 10
35.55976866149999
 20
-1.689321673000009
 10
35.57554746850002
 20
-1.630753632899998
 10
35.60018958670001
 20
-1.574949459399995
 10
35.6532019812
 20
-1.494015251299998
 10
35.7184803749
 20
-1.421585164900008
 10
35.81530396940003
 20
-1.337932545700004
 10
35.92108919810001
 20
-1.264376526299997
 10
36.0322807441
 20
-1.199008132399999
 10
36.2407181036
 20
-1.094610945999999
 10
36.4563091628
 20
-1.004373544700007
 10
36.6774107585
 20
-0.92604271430001
 10
36.90237972769999
 20
-0.8573652408999983
 10
37.1295729071
 20
-0.7960879104999991
 10
37.3573471336
 20
-0.739957509000007
 10
37.8994898639
 20
-0.6219886544000062
 10
38.44586336980001
 20
-0.523483264600003
 10
38.99530764940001
 20
-0.4411085936000064
 10
39.54666270110001
 20
-0.3715318954000004
 10
40.09876852309999
 20
-0.3114204241999978
 10
41.02939996829999
 20
-0.2267327017999996
 10
41.961638162
 20
-0.1603622256000037
 10
42.89476087799999
 20
-0.108504634300008
 10
43.953268197
 20
-0.0632349065000071
 10
45.01225676759999
 20
-0.0297647279000017
 10
46.07148518869998
 20
-0.0055853500000005
  0
ARC
  5
11C9
330
18
100
AcDbEntity
  8
1
  6
Continuous
370
    25
100
AcDbCircle
 10
79.93125258089995
 20
5.881623473899997
 30
0.0
 40
0.5942137077115893
100
AcDbArc
 50
245.3574924505002
 51
285.3125405749999
  0
ARC
  5
11CA
330
18
100
AcDbEntity
  8
1
  6
Continuous
370
    25
100
AcDbCircle
 10
-62.4179362254
 20
-2.595682081999997
 30
0.0
 40
142.7251481194951
100
AcDbArc
 50
2.220936048099904
 51
3.174691753199912
  0
LWPOLYLINE
  5
11CB
330
18
100
AcDbEntity
  8
1
  6
Continuous
370
    25
100
AcDbPolyline
 90
        4
 70
   128
 43
0.0
 10
80.20206926549999
 20
2.788684616499998
 10
80.20118662129998
 20
2.852266083199998
 10
80.20059738769997
 20
2.893848576799987
 10
80.19999999999997
 20
2.935337041800003
  0
ARC
  5
11CC
330
18
100
AcDbEntity
  8
1
  6
Continuous
370
    25
100
AcDbCircle
 10
80.50239194089998
 20
0.3734956310000044
 30
0.0
 40
2.433789544130246
100
AcDbArc
 50
97.08820220000013
 51
104.7180136584998
  0
LINE
  5
11CD
330
18
100
AcDbEntity
  8
1
  6
Continuous
370
    25
100
AcDbLine
 10
80.19999999999997
 20
5.299459728799995
 30
0.0
 11
80.19999999999997
 21
2.935337041800003
 31
0.0
  0
ARC
  5
11CE
330
18
100
AcDbEntity
  8
1
  6
Continuous
370
    25
100
AcDbCircle
 10
85.32072136269999
 20
14.74958314919999
 30
0.0
 40
10.74833103024042
100
AcDbArc
 50
241.5481445315001
 51
246.2973592591998
  0
LINE
  5
11CF
330
18
100
AcDbEntity
  8
1
  6
Continuous
370
    25
100
AcDbLine
 10
80.99999999999999
 20
4.907937613999997
 30
0.0
 11
80.99999999999999
 21
3.036567773899996
 31
0.0
  0
LINE
  5
11D0
330
18
100
AcDbEntity
  8
1
  6
Continuous
370
    25
100
AcDbLine
 10
80.92794181989997
 20
3.015281345300002
 30
0.0
 11
80.99999999999999
 21
3.036567773899996
 31
0.0
  0
LWPOLYLINE
  5
11D1
330
18
100
AcDbEntity
  8
1
  6
Continuous
370
    25
100
AcDbPolyline
 90
        3
 70
   128
 43
0.0
 10
80.20206926549999
 20
2.788684616499998
 10
80.56813799369995
 20
2.902173596800001
 10
80.92794181989997
 20
3.015281345300002
  0
LINE
  5
11D2
330
18
100
AcDbEntity
  8
1
  6
Continuous
370
    25
100
AcDbLine
 10
16.4190524981
 20
7.0
 30
0.0
 11
16.4190524981
 21
-7.0
 31
0.0
  0
LINE
  5
11D3
330
18
100
AcDbEntity
  8
1
  6
Continuous
370
    25
100
AcDbLine
 10
80.08817500909996
 20
5.308504566499998
 30
0.0
 11
80.19999999999997
 21
5.299459728799995
 31
0.0
  0
ARC
  5
11D4
330
18
100
AcDbEntity
  8
1
  6
Continuous
370
    25
100
AcDbCircle
 10
81.75152785088465
 20
43.18059547314574
 30
0.0
 40
46.02656772255761
100
AcDbArc
 50
254.8047142575847
 51
268.6414646943138
  0
LINE
  5
11D5
330
18
100
AcDbEntity
  8
1
  6
Continuous
370
    25
100
AcDbLine
 10
46.07148518869998
 20
6.75
 30
0.0
 11
46.07148518869998
 21
6.749997689199992
 31
0.0
  0
LWPOLYLINE
  5
11D6
330
18
100
AcDbEntity
  8
1
  6
Continuous
370
    25
100
AcDbPolyline
 90
       36
 70
   128
 43
0.0
 10
36.27586847800001
 20
6.287874812299996
 10
36.1439650299
 20
6.313571885600005
 10
36.01574258690003
 20
6.340729806099996
 10
35.8906823461
 20
6.370133559400002
 10
35.77394923069999
 20
6.401841204599995
 10
35.6870753886
 20
6.430220914999997
 10
35.64784391180001
 20
6.445583890500002
 10
35.61349356800001
 20
6.461548621000003
 10
35.5834309096
 20
6.479480446400003
 10
35.56268622020002
 20
6.4982631823
 10
35.55438223959999
 20
6.516704072400002
 10
35.55976866149999
 20
6.535188772000005
 10
35.57527305680002
 20
6.5498879171
 10
35.60018958670001
 20
6.563690593000004
 10
35.65248421180001
 20
6.582373952699994
 10
35.7184803749
 20
6.598605581399993
 10
35.78959748230003
 20
6.611894400599992
 10
35.86596710319998
 20
6.623379872400001
 10
35.9477137235
 20
6.633629831699991
 10
36.0322807441
 20
6.642656057599992
 10
36.23947747270003
 20
6.660420643599996
 10
36.454053952
 20
6.674311096599997
 10
36.6728990964
 20
6.6854462621
 10
37.01300621060001
 20
6.698990773600002
 10
37.3573471336
 20
6.709319107399996
 10
37.8994898639
 20
6.721477028500002
 10
38.44586336980001
 20
6.730084958899992
 10
38.99530764940001
 20
6.735963244999997
 10
39.54666270110001
 20
6.739932233499999
 10
40.09876852309999
 20
6.742812270900002
 10
41.02939996829999
 20
6.746238175199997
 10
41.961638162
 20
6.748138933099994
 10
42.89476087799999
 20
6.749127850699997
 10
43.6885123492
 20
6.749602672299999
 10
44.48254568130001
 20
6.749847978799997
 10
46.07148518869998
 20
6.749997689199992
  0
ARC
  5
11D7
330
18
100
AcDbEntity
  8
1
  6
Continuous
370
    25
100
AcDbCircle
 10
51.04436708239997
 20
93.62446931569996
 30
0.0
 40
88.57646013742789
100
AcDbArc
 50
260.4021561553999
 51
266.7815937190999
  0
ARC
  5
11D8
330
18
100
AcDbEntity
  8
1
  6
Continuous
370
    25
100
AcDbCircle
 10
46.99690491809995
 20
27.2159671118
 30
0.0
 40
31.54812215299872
100
AcDbArc
 50
250.1334093545998
 51
268.3190678851001
  0
ARC
  5
11D9
330
18
100
AcDbEntity
  8
1
  6
Continuous
370
    25
100
AcDbCircle
 10
65.17067340729997
 20
2.53961826799999
 30
0.0
 40
14.28486523926461
100
AcDbArc
 50
214.3020919570999
 51
219.6798755882001
  0
ARC
  5
11DA
330
18
100
AcDbEntity
  8
1
  6
Continuous
370
    25
100
AcDbCircle
 10
53.05447880479997
 20
-5.740024454399994
 30
0.0
 40
0.3902658742116411
100
AcDbArc
 50
35.98651299119997
 51
142.8083398367002
  0
ARC
  5
11DB
330
18
100
AcDbEntity
  8
1
  6
Continuous
370
    25
100
AcDbCircle
 10
42.97724367649999
 20
1.024186453099992
 30
0.0
 40
11.74734721333339
100
AcDbArc
 50
319.7735603326999
 51
326.2392921018
  0
LWPOLYLINE
  5
11DC
330
18
100
AcDbEntity
  8
1
  6
Continuous
370
    25
100
AcDbPolyline
 90
        3
 70
   128
 43
0.0
 10
51.94632089409997
 20
-6.5623687874
 10
51.81661821689997
 20
-6.5604401171
 10
51.67524572859997
 20
-6.558232544899996
  0
ARC
  5
11DD
330
18
100
AcDbEntity
  8
1
  6
Continuous
370
    25
100
AcDbCircle
 10
62.78443478859998
 20
2.523700938799997
 30
0.0
 40
14.3490625956552
100
AcDbArc
 50
213.8470623325
 51
219.2665284949999
  0
ARC
  5
11DE
330
18
100
AcDbEntity
  8
1
  6
Continuous
370
    25
100
AcDbCircle
 10
50.54701888079996
 20
-5.6901786303
 30
0.0
 40
0.3894393442992707
100
AcDbArc
 50
34.71210673540016
 51
142.1095036134999
  0
ARC
  5
11DF
330
18
100
AcDbEntity
  8
1
  6
Continuous
370
    25
100
AcDbCircle
 10
40.4396493151
 20
1.103457755099988
 30
0.0
 40
11.78989105642412
100
AcDbArc
 50
319.7865335893
 51
326.2245831506997
  0
LINE
  5
11E0
330
18
100
AcDbEntity
  8
1
  6
Continuous
370
    25
100
AcDbLine
 10
49.44293245979998
 20
-6.508534345400001
 30
0.0
 11
49.17161787199997
 21
-6.500546999699999
 31
0.0
  0
ARC
  5
11E1
330
18
100
AcDbEntity
  8
1
  6
Continuous
370
    25
100
AcDbCircle
 10
60.45592616699998
 20
2.529983820800004
 30
0.0
 40
14.45289246469915
100
AcDbArc
 50
213.1895513711
 51
218.6693556799997
  0
ARC
  5
11E2
330
18
100
AcDbEntity
  8
1
  6
Continuous
370
    25
100
AcDbCircle
 10
48.02966266309995
 20
-5.607762361999999
 30
0.0
 40
0.4009689354840263
100
AcDbArc
 50
34.32126538339999
 51
80.9247448826
  0
ARC
  5
11E3
330
18
100
AcDbEntity
  8
1
  6
Continuous
370
    25
100
AcDbCircle
 10
45.7253069351
 20
-7.835891164999997
 30
0.0
 40
3.534306579370498
100
AcDbArc
 50
47.94132472730009
 51
84.37898072139994
  0
ARC
  5
11E4
330
18
100
AcDbEntity
  8
1
  6
Continuous
370
    25
100
AcDbCircle
 10
46.44904585649995
 20
0.1683459903999989
 30
0.0
 40
10.46609177838904
100
AcDbArc
 50
319.8385081165999
 51
321.4414848997001
  0
LINE
  5
11E5
330
18
100
AcDbEntity
  8
1
  6
Continuous
370
    25
100
AcDbLine
 10
54.44754365929997
 20
-6.581699195599997
 30
0.0
 11
54.17670018759998
 21
-6.581232994199996
 31
0.0
  0
ARC
  5
11E6
330
18
100
AcDbEntity
  8
1
  6
Continuous
370
    25
100
AcDbCircle
 10
58.63039150439997
 20
-6.698886082699997
 30
0.0
 40
9.460852869544693
100
AcDbArc
 50
178.7987525971
 51
194.6959097301998
  0
LINE
  5
11E7
330
18
100
AcDbEntity
  8
1
  6
Continuous
370
    25
100
AcDbLine
 10
48.64263811039998
 20
-7.678056185299997
 30
0.0
 11
48.64223332369999
 21
-7.677449544000003
 31
0.0
  0
ARC
  5
11E8
330
18
100
AcDbEntity
  8
1
  6
Continuous
370
    25
100
AcDbCircle
 10
58.32887658669997
 20
-5.490717113799997
 30
0.0
 40
8.089295259858321
100
AcDbArc
 50
179.7187056732
 51
195.9284729072999
  0
LWPOLYLINE
  5
11E9
330
18
100
AcDbEntity
  8
1
  6
Continuous
370
    25
100
AcDbPolyline
 90
        5
 70
   128
 43
0.0
 10
50.55016943109997
 20
-7.710719994100009
 10
50.34230779799997
 20
-8.071374776399999
 10
50.13442046629997
 20
-8.432014923899997
 10
49.94215274179996
 20
-8.765512057500004
 10
49.74986787529998
 20
-9.098999463400007
  0
ARC
  5
11EA
330
18
100
AcDbEntity
  8
1
  6
Continuous
370
    25
100
AcDbCircle
 10
58.85585041149997
 20
-6.706646086899994
 30
0.0
 40
9.415002529377503
100
AcDbArc
 50
178.7942855634
 51
194.7202702409999
  0
ARC
  5
11EB
330
18
100
AcDbEntity
  8
1
  6
Continuous
370
    25
100
AcDbCircle
 10
60.80517409549997
 20
-6.754832201499997
 30
0.0
 40
9.13204486467255
100
AcDbArc
 50
178.7664098183
 51
194.8741582671999
  0
LINE
  5
11EC
330
18
100
AcDbEntity
  8
1
  6
Continuous
370
    25
100
AcDbLine
 10
51.14265671779998
 20
-7.678141368899997
 30
0.0
 11
51.14226781959998
 21
-7.677562004400005
 31
0.0
  0
ARC
  5
11ED
330
18
100
AcDbEntity
  8
1
  6
Continuous
370
    25
100
AcDbCircle
 10
59.74597268619998
 20
-5.655600764400005
 30
0.0
 40
7.004025049313797
100
AcDbArc
 50
178.7606905468001
 51
197.0628431751998
  0
LWPOLYLINE
  5
11EE
330
18
100
AcDbEntity
  8
1
  6
Continuous
370
    25
100
AcDbPolyline
 90
        5
 70
   128
 43
0.0
 10
53.05024029439998
 20
-7.710724758099999
 10
52.84238058949998
 20
-8.071378765499995
 10
52.63449505789998
 20
-8.432018052000007
 10
52.44222915549999
 20
-8.765513874799999
 10
52.24994602629998
 20
-9.098999910400005
  0
ARC
  5
11EF
330
18
100
AcDbEntity
  8
1
  6
Continuous
370
    25
100
AcDbCircle
 10
61.05289084529998
 20
-6.758833826300002
 30
0.0
 40
9.108688971950371
100
AcDbArc
 50
178.7640932116
 51
194.8871348123999
  0
ARC
  5
11F0
330
18
100
AcDbEntity
  8
1
  6
Continuous
370
    25
100
AcDbCircle
 10
63.17737309749998
 20
-6.777043581300006
 30
0.0
 40
9.002802597972076
100
AcDbArc
 50
178.7537208723
 51
194.9463720233
  0
LINE
  5
11F1
330
18
100
AcDbEntity
  8
1
  6
Continuous
370
    25
100
AcDbLine
 10
53.64266317049999
 20
-7.678287380600004
 30
0.0
 11
53.64227472639996
 21
-7.677715115099997
 31
0.0
  0
LWPOLYLINE
  5
11F2
330
18
100
AcDbEntity
  8
1
  6
Continuous
370
    25
100
AcDbPolyline
 90
        5
 70
   128
 43
0.0
 10
58.05025283649996
 20
-7.710725574100009
 10
57.84239578179996
 20
-8.071379866099999
 10
57.63451306789999
 20
-8.432019373100004
 10
57.44225032749998
 20
-8.765514602700005
 10
57.24997047929996
 20
-9.098999973199996
  0
ARC
  5
11F3
330
18
100
AcDbEntity
  8
1
  6
Continuous
370
    25
100
AcDbCircle
 10
65.94516918569997
 20
-6.777575700700007
 30
0.0
 40
8.999749507475771
100
AcDbArc
 50
178.7534666963999
 51
194.9480543993999
  0
ARC
  5
11F4
330
18
100
AcDbEntity
  8
1
  6
Continuous
370
    25
100
AcDbCircle
 10
47.82091483869996
 20
1.073322758199999
 30
0.0
 40
11.91202066610819
100
AcDbArc
 50
320.0112064650999
 51
326.4154396515003
  0
ARC
  5
11F5
330
18
100
AcDbEntity
  8
1
  6
Continuous
370
    25
100
AcDbCircle
 10
64.68877512249997
 20
-5.667128717300002
 30
0.0
 40
6.945953228668344
100
AcDbArc
 50
178.7533941910997
 51
197.1104128622999
  0
LINE
  5
11F6
330
18
100
AcDbEntity
  8
1
  6
Continuous
370
    25
100
AcDbLine
 10
63.64266261229996
 20
-7.678303534299999
 30
0.0
 11
63.64227429019996
 21
-7.677732216199999
 31
0.0
  0
ARC
  5
11F7
330
18
100
AcDbEntity
  8
1
  6
Continuous
370
    25
100
AcDbCircle
 10
75.34536992449999
 20
2.703094577000001
 30
0.0
 40
14.52403197258812
100
AcDbArc
 50
214.4646199783999
 51
219.7379621349001
  0
ARC
  5
11F8
330
18
100
AcDbEntity
  8
1
  6
Continuous
370
    25
100
AcDbCircle
 10
73.17435524219998
 20
-6.777575700700007
 30
0.0
 40
8.999749507479851
100
AcDbArc
 50
178.7534666963999
 51
194.9480543993999
  0
LINE
  5
11F9
330
18
100
AcDbEntity
  8
1
  6
Continuous
370
    25
100
AcDbLine
 10
61.14266261229996
 20
-7.678303534299999
 30
0.0
 11
61.14227429019996
 21
-7.677732216199999
 31
0.0
  0
ARC
  5
11FA
330
18
100
AcDbEntity
  8
1
  6
Continuous
370
    25
100
AcDbCircle
 10
72.84536992449995
 20
2.703094577000001
 30
0.0
 40
14.52403197256404
100
AcDbArc
 50
214.4646199783999
 51
219.7379621349001
  0
ARC
  5
11FB
330
18
100
AcDbEntity
  8
1
  6
Continuous
370
    25
100
AcDbCircle
 10
70.67435524219998
 20
-6.777575700700007
 30
0.0
 40
8.999749507476197
100
AcDbArc
 50
178.7534666963999
 51
194.9480543993999
  0
LWPOLYLINE
  5
11FC
330
18
100
AcDbEntity
  8
1
  6
Continuous
370
    25
100
AcDbPolyline
 90
        5
 70
   128
 43
0.0
 10
63.05025283649996
 20
-7.710725574100009
 10
62.84239578179996
 20
-8.071379866099999
 10
62.63451306789999
 20
-8.432019373100004
 10
62.44225032749998
 20
-8.765514602700005
 10
62.24997047929996
 20
-9.098999973199996
  0
ARC
  5
11FD
330
18
100
AcDbEntity
  8
1
  6
Continuous
370
    25
100
AcDbCircle
 10
70.94516918569997
 20
-6.777575700700007
 30
0.0
 40
8.999749507478489
100
AcDbArc
 50
178.7534666963999
 51
194.9480543993999
  0
ARC
  5
11FE
330
18
100
AcDbEntity
  8
1
  6
Continuous
370
    25
100
AcDbCircle
 10
52.82091483869997
 20
1.073322758199999
 30
0.0
 40
11.91202066610895
100
AcDbArc
 50
320.0112064650999
 51
326.4154396515003
  0
ARC
  5
11FF
330
18
100
AcDbEntity
  8
1
  6
Continuous
370
    25
100
AcDbCircle
 10
69.68877512249997
 20
-5.667128717300002
 30
0.0
 40
6.945953228668455
100
AcDbArc
 50
178.7533941910997
 51
197.1104128622999
  0
LWPOLYLINE
  5
1200
330
18
100
AcDbEntity
  8
1
  6
Continuous
370
    25
100
AcDbPolyline
 90
        5
 70
   128
 43
0.0
 10
60.55025283649996
 20
-7.710725574100009
 10
60.34239578179996
 20
-8.071379866099999
 10
60.13451306789999
 20
-8.432019373100004
 10
59.94225032749998
 20
-8.765514602700005
 10
59.74997047929996
 20
-9.098999973199996
  0
ARC
  5
1201
330
18
100
AcDbEntity
  8
1
  6
Continuous
370
    25
100
AcDbCircle
 10
68.44516918569997
 20
-6.777575700700007
 30
0.0
 40
8.999749507477554
100
AcDbArc
 50
178.7534666963999
 51
194.9480543993999
  0
ARC
  5
1202
330
18
100
AcDbEntity
  8
1
  6
Continuous
370
    25
100
AcDbCircle
 10
50.32091483869997
 20
1.073322758199999
 30
0.0
 40
11.91202066610547
100
AcDbArc
 50
320.0112064650999
 51
326.4154396515003
  0
ARC
  5
1203
330
18
100
AcDbEntity
  8
1
  6
Continuous
370
    25
100
AcDbCircle
 10
67.18877512249997
 20
-5.667128717300002
 30
0.0
 40
6.945953228669111
100
AcDbArc
 50
178.7533941910997
 51
197.1104128622999
  0
LINE
  5
1204
330
18
100
AcDbEntity
  8
1
  6
Continuous
370
    25
100
AcDbLine
 10
58.64266261229996
 20
-7.678303534299999
 30
0.0
 11
58.64227429019996
 21
-7.677732216199999
 31
0.0
  0
ARC
  5
1205
330
18
100
AcDbEntity
  8
1
  6
Continuous
370
    25
100
AcDbCircle
 10
70.34536992449996
 20
2.703094577000001
 30
0.0
 40
14.5240319725723
100
AcDbArc
 50
214.4646199783999
 51
219.7379621349001
  0
ARC
  5
1206
330
18
100
AcDbEntity
  8
1
  6
Continuous
370
    25
100
AcDbCircle
 10
68.17435524219998
 20
-6.777575700700007
 30
0.0
 40
8.999749507474945
100
AcDbArc
 50
178.7534666963999
 51
194.9480543993999
  0
LWPOLYLINE
  5
1207
330
18
100
AcDbEntity
  8
1
  6
Continuous
370
    25
100
AcDbPolyline
 90
        5
 70
   128
 43
0.0
 10
55.55025283649996
 20
-7.710725574100009
 10
55.34239578179996
 20
-8.071379866099999
 10
55.13451306789999
 20
-8.432019373100004
 10
54.94225032749998
 20
-8.765514602700005
 10
54.74997047929996
 20
-9.098999973199996
  0
ARC
  5
1208
330
18
100
AcDbEntity
  8
1
  6
Continuous
370
    25
100
AcDbCircle
 10
63.44566635549997
 20
-6.777487861500003
 30
0.0
 40
9.000252510708456
100
AcDbArc
 50
178.7535072859999
 51
194.9477782746998
  0
ARC
  5
1209
330
18
100
AcDbEntity
  8
1
  6
Continuous
370
    25
100
AcDbCircle
 10
45.0373902774
 20
1.275217593199988
 30
0.0
 40
12.25990340293352
100
AcDbArc
 50
321.5086023535999
 51
326.3623675185
  0
ARC
  5
120A
330
18
100
AcDbEntity
  8
1
  6
Continuous
370
    25
100
AcDbCircle
 10
62.18877512249997
 20
-5.667128717300002
 30
0.0
 40
6.945953228669332
100
AcDbArc
 50
178.7533941910997
 51
197.1104128622999
  0
LINE
  5
120B
330
18
100
AcDbEntity
  8
1
  6
Continuous
370
    25
100
AcDbLine
 10
56.14266261229996
 20
-7.678303534299999
 30
0.0
 11
56.14227429019996
 21
-7.677732216199999
 31
0.0
  0
ARC
  5
120C
330
18
100
AcDbEntity
  8
1
  6
Continuous
370
    25
100
AcDbCircle
 10
67.84536992449996
 20
2.703094577000001
 30
0.0
 40
14.52403197256539
100
AcDbArc
 50
214.4646199783999
 51
219.7379621349001
  0
ARC
  5
120D
330
18
100
AcDbEntity
  8
1
  6
Continuous
370
    25
100
AcDbCircle
 10
65.67435524219998
 20
-6.777575700700007
 30
0.0
 40
8.999749507477668
100
AcDbArc
 50
178.7534666963999
 51
194.9480543993999
  0
ARC
  5
120E
330
18
100
AcDbEntity
  8
1
  6
Continuous
370
    25
100
AcDbCircle
 10
55.32091483869997
 20
1.073322758199999
 30
0.0
 40
11.9120206661234
100
AcDbArc
 50
320.0112064650999
 51
326.4154396515003
  0
ARC
  5
120F
330
18
100
AcDbEntity
  8
1
  6
Continuous
370
    25
100
AcDbCircle
 10
73.50976213629998
 20
-5.528562828700002
 30
0.0
 40
8.265305782556405
100
AcDbArc
 50
179.9130168691999
 51
195.2646221524
  0
LWPOLYLINE
  5
1210
330
18
100
AcDbEntity
  8
1
  6
Continuous
370
    25
100
AcDbPolyline
 90
        4
 70
   128
 43
0.0
 10
65.53605497299999
 20
-7.704631245000005
 10
65.51886912449998
 20
-7.735284062399996
 10
65.51029172219998
 20
-7.750595283900008
 10
65.50172512349998
 20
-7.765895359800005
  0
ARC
  5
1211
330
18
100
AcDbEntity
  8
1
  6
Continuous
370
    25
100
AcDbCircle
 10
-146.0571729543
 20
110.7282931475
 30
0.0
 40
242.4830717099606
100
AcDbArc
 50
330.3851217917
 51
330.7468018676
  0
ARC
  5
1212
330
18
100
AcDbEntity
  8
1
  6
Continuous
370
    25
100
AcDbCircle
 10
73.49923050929998
 20
-6.772641714200004
 30
0.0
 40
9.053692762262619
100
AcDbArc
 50
178.7921264635
 51
194.8891942600998
  0
ARC
  5
1213
330
18
100
AcDbEntity
  8
1
  6
Continuous
370
    25
100
AcDbCircle
 10
77.84536992449999
 20
2.703094577000001
 30
0.0
 40
14.52403197258049
100
AcDbArc
 50
214.4646199783999
 51
219.7379621349001
  0
ARC
  5
1214
330
18
100
AcDbEntity
  8
1
  6
Continuous
370
    25
100
AcDbCircle
 10
77.66265782579997
 20
-6.598573902300007
 30
0.0
 40
10.98593507525958
100
AcDbArc
 50
179.9124739683999
 51
193.1147542291999
  0
LWPOLYLINE
  5
1215
330
18
100
AcDbEntity
  8
1
  6
Continuous
370
    25
100
AcDbPolyline
 90
        3
 70
   128
 43
0.0
 10
66.14359877159997
 20
-7.679224063900001
 10
66.13731265689998
 20
-7.669582101999999
 10
66.13570140489997
 20
-7.665573901000002
  0
ARC
  5
1216
330
18
100
AcDbEntity
  8
1
  6
Continuous
370
    25
100
AcDbCircle
 10
57.82091483869997
 20
1.073322758199999
 30
0.0
 40
11.91202066609663
100
AcDbArc
 50
320.0112064650999
 51
326.4154396515003
  0
ARC
  5
1217
330
18
100
AcDbEntity
  8
1
  6
Continuous
370
    25
100
AcDbCircle
 10
78.69382969439998
 20
-5.242147025200003
 30
0.0
 40
10.95278830250416
100
AcDbArc
 50
181.4327959202998
 51
192.8464770179999
  0
ARC
  5
1218
330
18
100
AcDbEntity
  8
1
  6
Continuous
370
    25
100
AcDbCircle
 10
-87.89035564130001
 20
77.85614392019997
 30
0.0
 40
177.8272357328931
100
AcDbArc
 50
330.7295547068002
 51
331.2497704562
  0
ARC
  5
1219
330
18
100
AcDbEntity
  8
1
  6
Continuous
370
    25
100
AcDbCircle
 10
78.18199777429995
 20
-6.576535238499999
 30
0.0
 40
11.23444949153843
100
AcDbArc
 50
180.0268075
 51
192.9248665223996
  0
ARC
  5
121A
330
18
100
AcDbEntity
  8
1
  6
Continuous
370
    25
100
AcDbCircle
 10
80.34536992449998
 20
2.703094577000001
 30
0.0
 40
14.52403197257173
100
AcDbArc
 50
214.4646199783999
 51
219.7379621349001
  0
ARC
  5
121B
330
18
100
AcDbEntity
  8
1
  6
Continuous
370
    25
100
AcDbCircle
 10
82.56920721619998
 20
-6.388084488599997
 30
0.0
 40
13.39387245229376
100
AcDbArc
 50
180.8286615454999
 51
191.5299288469
  0
LWPOLYLINE
  5
121C
330
18
100
AcDbEntity
  8
1
  6
Continuous
370
    25
100
AcDbPolyline
 90
        4
 70
   128
 43
0.0
 10
69.44561735449997
 20
-9.065248736100006
 10
69.23711841419997
 20
-8.705032869000008
 10
69.02858879829998
 20
-8.344834572800008
 10
68.84331509669997
 20
-8.024875785399999
  0
LINE
  5
121D
330
18
100
AcDbEntity
  8
1
  6
Continuous
370
    25
100
AcDbLine
 10
68.63609664249998
 20
-7.667100020900007
 30
0.0
 11
68.63508262239998
 21
-7.664491072799997
 31
0.0
  0
ARC
  5
121E
330
18
100
AcDbEntity
  8
1
  6
Continuous
370
    25
100
AcDbCircle
 10
60.32091483869997
 20
1.073322758199999
 30
0.0
 40
11.91202066611955
100
AcDbArc
 50
320.0112064650999
 51
326.4154396515003
  0
ARC
  5
121F
330
18
100
AcDbEntity
  8
1
  6
Continuous
370
    25
100
AcDbCircle
 10
82.7729435404
 20
-5.106979693400004
 30
0.0
 40
12.53515306434674
100
AcDbArc
 50
181.8699535136999
 51
191.6014746519997
  0
ARC
  5
1220
330
18
100
AcDbEntity
  8
1
  6
Continuous
370
    25
100
AcDbCircle
 10
-50.36449123629999
 20
57.15506011359998
 30
0.0
 40
137.1261115781791
100
AcDbArc
 50
331.1258990698002
 51
331.8076568255999
  0
ARC
  5
1221
330
18
100
AcDbEntity
  8
1
  6
Continuous
370
    25
100
AcDbCircle
 10
83.11739910909997
 20
-6.364192211900007
 30
0.0
 40
13.67158138221713
100
AcDbArc
 50
180.911968618
 51
191.3778614460999
  0
LINE
  5
1222
330
18
100
AcDbEntity
  8
1
  6
Continuous
370
    25
100
AcDbLine
 10
49.47904224569995
 20
-9.098999364299999
 30
0.0
 11
49.74986787529998
 21
-9.098999463400007
 31
0.0
  0
LINE
  5
1223
330
18
100
AcDbEntity
  8
1
  6
Continuous
370
    25
100
AcDbLine
 10
51.97912621109998
 20
-9.098999889899999
 30
0.0
 11
52.24994602629998
 21
-9.098999910400005
 31
0.0
  0
LINE
  5
1224
330
18
100
AcDbEntity
  8
1
  6
Continuous
370
    25
100
AcDbLine
 10
54.47915643359998
 20
-9.098999972999996
 30
0.0
 11
54.63323643389997
 21
-9.098999973199996
 31
0.0
  0
LINE
  5
1225
330
18
100
AcDbEntity
  8
1
  6
Continuous
370
    25
100
AcDbLine
 10
54.63323643389997
 20
-9.098999973199996
 30
0.0
 11
54.74997047929996
 21
-9.098999973199996
 31
0.0
  0
LINE
  5
1226
330
18
100
AcDbEntity
  8
1
  6
Continuous
370
    25
100
AcDbLine
 10
56.94754951249997
 20
-6.581791602900004
 30
0.0
 11
56.67673556899996
 21
-6.581791602900004
 31
0.0
  0
LINE
  5
1227
330
18
100
AcDbEntity
  8
1
  6
Continuous
370
    25
100
AcDbLine
 10
56.97915653579997
 20
-9.098999973199996
 30
0.0
 11
57.24997047929996
 21
-9.098999973199996
 31
0.0
  0
LINE
  5
1228
330
18
100
AcDbEntity
  8
1
  6
Continuous
370
    25
100
AcDbLine
 10
69.44754951249997
 20
-6.581791602900004
 30
0.0
 11
69.17673556899997
 21
-6.581791602900004
 31
0.0
  0
ELLIPSE
  5
1229
330
18
100
AcDbEntity
  8
1
  6
Continuous
370
    25
100
AcDbEllipse
 10
57.96007902959998
 20
0.0
 30
0.0
 11
56.07419400262999
 21
-1.119453328313467
 31
0.0
210
0.0
220
0.0
230
1.0
 40
0.1610343975
 41
4.921890236609433
 42
4.926791712999028
  0
LINE
  5
122A
330
18
100
AcDbEntity
  8
1
  6
Continuous
370
    25
100
AcDbLine
 10
66.94754951249997
 20
-6.581791602900004
 30
0.0
 11
66.67673556899997
 21
-6.581791602900004
 31
0.0
  0
ELLIPSE
  5
122B
330
18
100
AcDbEntity
  8
1
  6
Continuous
370
    25
100
AcDbEllipse
 10
57.96007902959998
 20
0.0
 30
0.0
 11
56.07419400262999
 21
-1.119453328313467
 31
0.0
210
0.0
220
0.0
230
1.0
 40
0.1610343975
 41
4.876859365196396
 42
4.8817200930719
  0
LINE
  5
122C
330
18
100
AcDbEntity
  8
1
  6
Continuous
370
    25
100
AcDbLine
 10
64.47915653579997
 20
-9.098999973199996
 30
0.0
 11
64.68427864659997
 21
-9.098999973199996
 31
0.0
  0
LINE
  5
122D
330
18
100
AcDbEntity
  8
1
  6
Continuous
370
    25
100
AcDbLine
 10
64.44754951249997
 20
-6.581791602900004
 30
0.0
 11
64.17673556899997
 21
-6.581791602900004
 31
0.0
  0
ELLIPSE
  5
122E
330
18
100
AcDbEntity
  8
1
  6
Continuous
370
    25
100
AcDbEllipse
 10
57.96007902959998
 20
0.0
 30
0.0
 11
56.07419400262999
 21
-1.119453328313467
 31
0.0
210
0.0
220
0.0
230
1.0
 40
0.1610343975
 41
4.835808591131393
 42
4.836980598569323
  0
LINE
  5
122F
330
18
100
AcDbEntity
  8
1
  6
Continuous
370
    25
100
AcDbLine
 10
61.94754951249997
 20
-6.581791602900004
 30
0.0
 11
61.67673556899996
 21
-6.581791602900004
 31
0.0
  0
LINE
  5
1230
330
18
100
AcDbEntity
  8
1
  6
Continuous
370
    25
100
AcDbLine
 10
61.97915653579997
 20
-9.098999973199996
 30
0.0
 11
62.24997047929996
 21
-9.098999973199996
 31
0.0
  0
LINE
  5
1231
330
18
100
AcDbEntity
  8
1
  6
Continuous
370
    25
100
AcDbLine
 10
59.44754951249997
 20
-6.581791602900004
 30
0.0
 11
59.17673556899996
 21
-6.581791602900004
 31
0.0
  0
LINE
  5
1232
330
18
100
AcDbEntity
  8
1
  6
Continuous
370
    25
100
AcDbLine
 10
59.47915653579997
 20
-9.098999973199996
 30
0.0
 11
59.74997047929996
 21
-9.098999973199996
 31
0.0
  0
LWPOLYLINE
  5
1233
330
18
100
AcDbEntity
  8
1
  6
Continuous
370
    25
100
AcDbPolyline
 90
        3
 70
   128
 43
0.0
 10
80.66029811409997
 20
-2.833034615999997
 10
80.83014975389996
 20
-2.832263144200005
 10
80.99999999999999
 20
-2.831070278999998
  0
LINE
  5
1234
330
18
100
AcDbEntity
  8
1
  6
Continuous
370
    25
100
AcDbLine
 10
80.99999999999999
 20
-2.8310702791
 30
0.0
 11
80.99999999999999
 21
-4.634074705599998
 31
0.0
  0
ARC
  5
1235
330
18
100
AcDbEntity
  8
1
  6
Continuous
370
    25
100
AcDbCircle
 10
69.16200598499997
 20
7.301496363300002
 30
0.0
 40
16.81059068090021
100
AcDbArc
 50
311.041805866
 51
314.7648345143999
  0
LINE
  5
1236
330
18
100
AcDbEntity
  8
1
  6
Continuous
370
    25
100
AcDbLine
 10
78.43141807479996
 20
-5.603441124699997
 30
0.0
 11
80.19999999999997
 21
-5.377566976100006
 31
0.0
  0
LINE
  5
1237
330
18
100
AcDbEntity
  8
1
  6
Continuous
370
    25
100
AcDbLine
 10
78.37065724629998
 20
-5.516014925499998
 30
0.0
 11
78.43141807479996
 21
-5.603441124699997
 31
0.0
  0
ARC
  5
1238
330
18
100
AcDbEntity
  8
1
  6
Continuous
370
    25
100
AcDbCircle
 10
78.05756156239998
 20
-5.747816208500005
 30
0.0
 40
0.3895648111042075
100
AcDbArc
 50
36.51450238120001
 51
143.4854976187998
  0
LWPOLYLINE
  5
1239
330
18
100
AcDbEntity
  8
1
  6
Continuous
370
    25
100
AcDbPolyline
 90
        3
 70
   128
 43
0.0
 10
77.61632028609999
 20
-5.704580040299997
 10
77.68052803389996
 20
-5.6109935471
 10
77.74446587849998
 20
-5.516014925499998
  0
LINE
  5
123A
330
18
100
AcDbEntity
  8
1
  6
Continuous
370
    25
100
AcDbLine
 10
76.13221391709998
 20
-5.884098684399996
 30
0.0
 11
77.61632028609999
 21
-5.704580040299997
 31
0.0
  0
ARC
  5
123B
330
18
100
AcDbEntity
  8
1
  6
Continuous
370
    25
100
AcDbCircle
 10
89.32926590309994
 20
3.7705673261
 30
0.0
 40
16.35159799204203
100
AcDbArc
 50
214.6060858912997
 51
216.1883618543998
  0
ARC
  5
123C
330
18
100
AcDbEntity
  8
1
  6
Continuous
370
    25
100
AcDbCircle
 10
75.55756156239998
 20
-5.747816208500005
 30
0.0
 40
0.3895648111042032
100
AcDbArc
 50
36.51450238120001
 51
143.4854976187998
  0
ARC
  5
123D
330
18
100
AcDbEntity
  8
1
  6
Continuous
370
    25
100
AcDbCircle
 10
64.71126302459999
 20
1.503389096899999
 30
0.0
 40
12.65781952748996
100
AcDbArc
 50
323.4721832793003
 51
326.3202190058999
  0
LINE
  5
123E
330
18
100
AcDbEntity
  8
1
  6
Continuous
370
    25
100
AcDbLine
 10
73.83196424909995
 20
-6.150840000599997
 30
0.0
 11
74.88268153629999
 21
-6.030709432599997
 31
0.0
  0
ARC
  5
123F
330
18
100
AcDbEntity
  8
1
  6
Continuous
370
    25
100
AcDbCircle
 10
86.27497842829995
 20
3.376119989500004
 30
0.0
 40
15.67136141232514
100
AcDbArc
 50
214.5700258861002
 51
217.4393764413998
  0
ARC
  5
1240
330
18
100
AcDbEntity
  8
1
  6
Continuous
370
    25
100
AcDbCircle
 10
73.05756156239997
 20
-5.747816208500005
 30
0.0
 40
0.3895648111042159
100
AcDbArc
 50
36.51450238120001
 51
143.4854976187998
  0
ARC
  5
1241
330
18
100
AcDbEntity
  8
1
  6
Continuous
370
    25
100
AcDbCircle
 10
62.59829905249997
 20
1.230534118699998
 30
0.0
 40
12.18444193500747
100
AcDbArc
 50
321.6018798610002
 51
326.3786464258999
  0
LINE
  5
1242
330
18
100
AcDbEntity
  8
1
  6
Continuous
370
    25
100
AcDbLine
 10
71.53080388409995
 20
-6.403990112800009
 30
0.0
 11
72.14741478839997
 21
-6.337491642999999
 31
0.0
  0
ARC
  5
1243
330
18
100
AcDbEntity
  8
1
  6
Continuous
370
    25
100
AcDbCircle
 10
83.14540659659998
 20
2.920017818200001
 30
0.0
 40
14.8941639599305
100
AcDbArc
 50
214.4994649918003
 51
218.7569114545001
  0
ARC
  5
1244
330
18
100
AcDbEntity
  8
1
  6
Continuous
370
    25
100
AcDbCircle
 10
70.55756156239997
 20
-5.747816208500005
 30
0.0
 40
0.3895648111042201
100
AcDbArc
 50
36.51450238120001
 51
143.4854976187998
  0
ARC
  5
1245
330
18
100
AcDbEntity
  8
1
  6
Continuous
370
    25
100
AcDbCircle
 10
68.05756156239997
 20
-5.747816208500005
 30
0.0
 40
0.3895648111041762
100
AcDbArc
 50
36.51450238120001
 51
143.4854976187998
  0
ARC
  5
1246
330
18
100
AcDbEntity
  8
1
  6
Continuous
370
    25
100
AcDbCircle
 10
65.55756156239997
 20
-5.747816208500005
 30
0.0
 40
0.3895648111041424
100
AcDbArc
 50
36.51450238120001
 51
143.4854976187998
  0
ARC
  5
1247
330
18
100
AcDbEntity
  8
1
  6
Continuous
370
    25
100
AcDbCircle
 10
63.05756156239997
 20
-5.747816208500005
 30
0.0
 40
0.389564811104199
100
AcDbArc
 50
36.51450238120001
 51
143.4854976187998
  0
ARC
  5
1248
330
18
100
AcDbEntity
  8
1
  6
Continuous
370
    25
100
AcDbCircle
 10
60.55756156239997
 20
-5.747816208500005
 30
0.0
 40
0.3895648111041846
100
AcDbArc
 50
36.51450238120001
 51
143.4854976187998
  0
ARC
  5
1249
330
18
100
AcDbEntity
  8
1
  6
Continuous
370
    25
100
AcDbCircle
 10
58.05756156239997
 20
-5.747816208500005
 30
0.0
 40
0.3895648111042218
100
AcDbArc
 50
36.51450238120001
 51
143.4854976187998
  0
ARC
  5
124A
330
18
100
AcDbEntity
  8
1
  6
Continuous
370
    25
100
AcDbCircle
 10
55.55756156239997
 20
-5.747816208500005
 30
0.0
 40
0.3895648111041127
100
AcDbArc
 50
36.51450238120001
 51
143.4854976187998
  0
LINE
  5
124B
330
18
100
AcDbEntity
  8
1
  6
Continuous
370
    25
100
AcDbLine
 10
80.99999999999999
 20
0.7579020880999892
 30
0.0
 11
80.99999999999999
 21
3.026308524999997
 31
0.0
  0
ARC
  5
124C
330
18
100
AcDbEntity
  8
1
  6
Continuous
370
    25
100
AcDbCircle
 10
88.40886317789999
 20
-5.917503982899999
 30
0.0
 40
16.8850689747084
100
AcDbArc
 50
181.6510124935999
 51
189.5851871472998
  0
LWPOLYLINE
  5
124D
330
18
100
AcDbEntity
  8
1
  6
Continuous
370
    25
100
AcDbPolyline
 90
        5
 70
   128
 43
0.0
 10
71.75952463589998
 20
-8.729101463700002
 10
71.71954975449999
 20
-8.659847348100001
 10
71.51148689959999
 20
-8.299382078899999
 10
71.31306788349998
 20
-7.955609716000004
 10
71.11465604729997
 20
-7.611833252900004
  0
ARC
  5
124E
330
18
100
AcDbEntity
  8
1
  6
Continuous
370
    25
100
AcDbCircle
 10
84.05090770149998
 20
-5.043659875599998
 30
0.0
 40
13.18871189147483
100
AcDbArc
 50
182.0524930920998
 51
191.2286657508998
  0
ARC
  5
124F
330
18
100
AcDbEntity
  8
1
  6
Continuous
370
    25
100
AcDbCircle
 10
89.51889058449998
 20
-4.675967837099999
 30
0.0
 40
16.79544591033699
100
AcDbArc
 50
182.8669225820999
 51
189.8705146359998
  0
ARC
  5
1250
330
18
100
AcDbEntity
  8
1
  6
Continuous
370
    25
100
AcDbCircle
 10
-17.88100020490001
 20
39.82376483079998
 30
0.0
 40
102.4647876776208
100
AcDbArc
 50
331.7893076691997
 51
332.4584674003002
  0
ARC
  5
1251
330
18
100
AcDbEntity
  8
1
  6
Continuous
370
    25
100
AcDbCircle
 10
85.6737226057
 20
-5.914626839200008
 30
0.0
 40
13.53291608671464
100
AcDbArc
 50
181.7906202059999
 51
191.5010528661998
  0
ELLIPSE
  5
1252
330
18
100
AcDbEntity
  8
1
  6
Continuous
370
    25
100
AcDbEllipse
 10
-348.8475091939001
 20
7.910733435899992
 30
0.0
 11
441.6907165043322
 21
-8.623005938835753
 31
0.0
210
0.0
220
0.0
230
1.0
 40
0.0627247772
 41
5.97418597114009
 42
5.979066126956807
  0
ARC
  5
1253
330
18
100
AcDbEntity
  8
1
  6
Continuous
370
    25
100
AcDbCircle
 10
91.8898119209
 20
-5.502741137300006
 30
0.0
 40
18.06947411173235
100
AcDbArc
 50
182.0554718762998
 51
188.9482315338997
  0
LWPOLYLINE
  5
1254
330
18
100
AcDbEntity
  8
1
  6
Continuous
370
    25
100
AcDbPolyline
 90
        4
 70
   128
 43
0.0
 10
74.04025630689996
 20
-8.313303190700008
 10
73.99475517909997
 20
-8.234027746299997
 10
73.79368081919998
 20
-7.883584103499996
 10
73.59269767819997
 20
-7.533088676799994
  0
ARC
  5
1255
330
18
100
AcDbEntity
  8
1
  6
Continuous
370
    25
100
AcDbCircle
 10
90.90531958669997
 20
-4.606549041
 30
0.0
 40
17.55823201769055
100
AcDbArc
 50
182.9690851344999
 51
189.5946230041
  0
ELLIPSE
  5
1256
330
18
100
AcDbEntity
  8
1
  6
Continuous
370
    25
100
AcDbEllipse
 10
-348.8475091939001
 20
7.910733435899992
 30
0.0
 11
441.6907165043322
 21
-8.623005938835753
 31
0.0
210
0.0
220
0.0
230
1.0
 40
0.0627247772
 41
5.991573235960418
 42
6.000149957409735
  0
ARC
  5
1257
330
18
100
AcDbEntity
  8
1
  6
Continuous
370
    25
100
AcDbCircle
 10
90.90030892069995
 20
-5.264122776500006
 30
0.0
 40
16.03596090437636
100
AcDbArc
 50
182.740024519
 51
190.2092169797999
  0
ARC
  5
1258
330
18
100
AcDbEntity
  8
1
  6
Continuous
370
    25
100
AcDbCircle
 10
95.21634840729998
 20
-4.387151389099996
 30
0.0
 40
20.00376026218233
100
AcDbArc
 50
183.2350665383998
 51
188.8304183019
  0
LWPOLYLINE
  5
1259
330
18
100
AcDbEntity
  8
1
  6
Continuous
370
    25
100
AcDbPolyline
 90
        3
 70
   128
 43
0.0
 10
75.44969227389997
 20
-7.4579379221
 10
75.25951837869998
 20
-7.831816321000005
 10
75.11824365009998
 20
-8.106385593700004
  0
ARC
  5
125A
330
18
100
AcDbEntity
  8
1
  6
Continuous
370
    25
100
AcDbCircle
 10
96.67265185700001
 20
-4.952938682500004
 30
0.0
 40
20.56153325291279
100
AcDbArc
 50
182.5956133965999
 51
188.1479396086997
  0
LWPOLYLINE
  5
125B
330
18
100
AcDbEntity
  8
1
  6
Continuous
370
    25
100
AcDbPolyline
 90
        3
 70
   128
 43
0.0
 10
76.31867867609999
 20
-7.867115317500005
 10
76.27420051109995
 20
-7.788864475000008
 10
76.07019403069997
 20
-7.429619145000008
  0
ARC
  5
125C
330
18
100
AcDbEntity
  8
1
  6
Continuous
370
    25
100
AcDbCircle
 10
95.17687164939998
 20
-4.470107990900006
 30
0.0
 40
19.33452445485307
100
AcDbArc
 50
183.1009461216997
 51
188.8048062179998
  0
ELLIPSE
  5
125D
330
18
100
AcDbEntity
  8
1
  6
Continuous
370
    25
100
AcDbEllipse
 10
-348.8475091939001
 20
7.910733435899992
 30
0.0
 11
441.6907165043322
 21
-8.623005938835753
 31
0.0
210
0.0
220
0.0
230
1.0
 40
0.0627247772
 41
6.010007413941386
 42
6.022842346893507
  0
ARC
  5
125E
330
18
100
AcDbEntity
  8
1
  6
Continuous
370
    25
100
AcDbCircle
 10
96.86302825319998
 20
-4.521953305000004
 30
0.0
 40
19.28300737871462
100
AcDbArc
 50
183.5161564524999
 51
189.0445211404999
  0
ARC
  5
125F
330
18
100
AcDbEntity
  8
1
  6
Continuous
370
    25
100
AcDbCircle
 10
46.0732617699
 20
-9.746148038200008
 30
0.0
 40
2.995869027874336
100
AcDbArc
 50
60.79373606360019
 51
89.9026434393002
  0
ARC
  5
1260
330
18
100
AcDbEntity
  8
1
  6
Continuous
370
    25
100
AcDbCircle
 10
64.81057860999998
 20
-5.949873971699997
 30
0.0
 40
16.73395471405318
100
AcDbArc
 50
177.4721148507
 51
185.6383576168
  0
ARC
  5
1261
330
18
100
AcDbEntity
  8
1
  6
Continuous
370
    25
100
AcDbCircle
 10
46.07079727619999
 20
-9.750586497
 30
0.0
 40
3.00094578199289
100
AcDbArc
 50
45.94275032439999
 51
60.79401460630005
  0
ARC
  5
1262
330
18
100
AcDbEntity
  8
1
  6
Continuous
370
    25
100
AcDbCircle
 10
48.35743161859998
 20
-7.878778948800007
 30
0.0
 40
0.3479284939749925
100
AcDbArc
 50
89.48799486629997
 51
125.0568575766999
  0
ARC
  5
1263
330
18
100
AcDbEntity
  8
1
  6
Continuous
370
    25
100
AcDbCircle
 10
100.6929888998999
 20
-4.134663633800006
 30
0.0
 40
22.99005959653729
100
AcDbArc
 50
183.4446756345997
 51
188.0016141908999
  0
LINE
  5
1264
330
18
100
AcDbEntity
  8
1
  6
Continuous
370
    25
100
AcDbLine
 10
77.92675713409998
 20
-7.334902912100004
 30
0.0
 11
77.81977640679999
 21
-7.553278539999999
 31
0.0
  0
ARC
  5
1265
330
18
100
AcDbEntity
  8
1
  6
Continuous
370
    25
100
AcDbCircle
 10
50.86080971449998
 20
-7.888806285299997
 30
0.0
 40
0.3580671902818898
100
AcDbArc
 50
89.60815080919998
 51
150.1748779320001
  0
ARC
  5
1266
330
18
100
AcDbEntity
  8
1
  6
Continuous
370
    25
100
AcDbCircle
 10
103.4598588665999
 20
-4.211117484099998
 30
0.0
 40
25.06713812119703
100
AcDbArc
 50
183.1840628849998
 51
187.2723152116
  0
LINE
  5
1267
330
18
100
AcDbEntity
  8
1
  6
Continuous
370
    25
100
AcDbLine
 10
78.59436774209997
 20
-7.384249174800002
 30
0.0
 11
78.54710955149994
 21
-7.299812529500007
 31
0.0
  0
ARC
  5
1268
330
18
100
AcDbEntity
  8
1
  6
Continuous
370
    25
100
AcDbCircle
 10
102.3431446344
 20
-4.045295376199998
 30
0.0
 40
24.01755956727337
100
AcDbArc
 50
183.5107136742
 51
187.7878653204
  0
ARC
  5
1269
330
18
100
AcDbEntity
  8
1
  6
Continuous
370
    25
100
AcDbCircle
 10
53.36076837709999
 20
-7.888694814399997
 30
0.0
 40
0.3579120437921788
100
AcDbArc
 50
89.70471303290009
 51
150.1820874132001
  0
LINE
  5
126A
330
18
100
AcDbEntity
  8
1
  6
Continuous
370
    25
100
AcDbLine
 10
80.19999999999997
 20
-5.377566976100006
 30
0.0
 11
80.19999999999997
 21
-7.016359010700007
 31
0.0
  0
ELLIPSE
  5
126B
330
18
100
AcDbEntity
  8
1
  6
Continuous
370
    25
100
AcDbEllipse
 10
-348.8475091939001
 20
7.910733435899992
 30
0.0
 11
441.6907165043322
 21
-8.623005938835753
 31
0.0
210
0.0
220
0.0
230
1.0
 40
0.0627247772
 41
6.029712173929882
 42
6.04456441683716
  0
ARC
  5
126C
330
18
100
AcDbEntity
  8
1
  6
Continuous
370
    25
100
AcDbCircle
 10
63.36077065919997
 20
-7.888682837199995
 30
0.0
 40
0.3578967807685339
100
AcDbArc
 50
89.71157791030011
 51
150.1830476011001
  0
ARC
  5
126D
330
18
100
AcDbEntity
  8
1
  6
Continuous
370
    25
100
AcDbCircle
 10
60.86077065919997
 20
-7.888682837199995
 30
0.0
 40
0.3578967807687985
100
AcDbArc
 50
89.71157791030011
 51
150.1830476011001
  0
ARC
  5
126E
330
18
100
AcDbEntity
  8
1
  6
Continuous
370
    25
100
AcDbCircle
 10
55.86077065919997
 20
-7.888682837199995
 30
0.0
 40
0.3578967807686433
100
AcDbArc
 50
89.71157791019995
 51
150.1830476011001
  0
ARC
  5
126F
330
18
100
AcDbEntity
  8
1
  6
Continuous
370
    25
100
AcDbCircle
 10
58.36077065919997
 20
-7.888682837199995
 30
0.0
 40
0.3578967807687138
100
AcDbArc
 50
89.71157791019995
 51
150.1830476011001
  0
ARC
  5
1270
330
18
100
AcDbEntity
  8
1
  6
Continuous
370
    25
100
AcDbCircle
 10
65.84706246149997
 20
-7.876481784899996
 30
0.0
 40
0.3553283918019308
100
AcDbArc
 50
51.82054002460009
 51
151.0766817897
  0
ARC
  5
1271
330
18
100
AcDbEntity
  8
1
  6
Continuous
370
    25
100
AcDbCircle
 10
68.32848771189998
 20
-7.843759439200004
 30
0.0
 40
0.3547277889926166
100
AcDbArc
 50
29.86869650139995
 51
152.0290915698997
  0
ARC
  5
1272
330
18
100
AcDbEntity
  8
1
  6
Continuous
370
    25
100
AcDbCircle
 10
70.80858094349999
 20
-7.787064789800004
 30
0.0
 40
0.3526869159532142
100
AcDbArc
 50
29.79163637180015
 51
153.1621486310997
  0
ARC
  5
1273
330
18
100
AcDbEntity
  8
1
  6
Continuous
370
    25
100
AcDbCircle
 10
73.28811206899995
 20
-7.705947526900007
 30
0.0
 40
0.3502178969289552
100
AcDbArc
 50
29.5758377495001
 51
154.4825998184999
  0
ARC
  5
1274
330
18
100
AcDbEntity
  8
1
  6
Continuous
370
    25
100
AcDbCircle
 10
75.76703180269999
 20
-7.599100212500005
 30
0.0
 40
0.3473199803306805
100
AcDbArc
 50
29.20711731019986
 51
156.0190445168999
  0
ARC
  5
1275
330
18
100
AcDbEntity
  8
1
  6
Continuous
370
    25
100
AcDbCircle
 10
78.24527519929997
 20
-7.464830916700003
 30
0.0
 40
0.3439986108797294
100
AcDbArc
 50
28.66623817620002
 51
157.8087607571
  0
LINE
  5
1276
330
18
100
AcDbEntity
  8
1
  6
Continuous
370
    25
100
AcDbLine
 10
80.92794181989997
 20
-6.119522548499999
 30
0.0
 11
80.99999999999999
 21
-6.028412407499997
 31
0.0
  0
LWPOLYLINE
  5
1277
330
18
100
AcDbEntity
  8
1
  6
Continuous
370
    25
100
AcDbPolyline
 90
        3
 70
   128
 43
0.0
 10
80.19999999999997
 20
-7.016359010700007
 10
80.56711933399997
 20
-6.570617016099996
 10
80.92794181989997
 20
-6.119522548499999
  0
LINE
  5
1278
330
18
100
AcDbEntity
  8
1
  6
Continuous
370
    25
100
AcDbLine
 10
80.99999999999999
 20
-4.634074705599998
 30
0.0
 11
80.99999999999999
 21
-6.028412407499997
 31
0.0
  0
LINE
  5
1279
330
18
100
AcDbEntity
  8
1
  6
Continuous
370
    25
100
AcDbLine
 10
80.99999999999999
 20
-2.8310702791
 30
0.0
 11
80.99999999999999
 21
0.7579020880999892
 31
0.0
  0
ARC
  5
127A
330
18
100
AcDbEntity
  8
1
  6
Continuous
370
    25
100
AcDbCircle
 10
46.0716829378
 20
9.749995344699987
 30
0.0
 40
2.99999766196257
100
AcDbArc
 50
269.9962232672998
 51
299.1967299195
  0
ARC
  5
127B
330
18
100
AcDbEntity
  8
1
  6
Continuous
370
    25
100
AcDbCircle
 10
38.45021438850002
 20
-35.8141664585
 30
0.0
 40
50.04557319568296
100
AcDbArc
 50
56.78441022869989
 51
58.47276843719988
  0
LWPOLYLINE
  5
127C
330
18
100
AcDbEntity
  8
1
  6
Continuous
370
    25
100
AcDbPolyline
 90
       13
 70
   128
 43
0.0
 10
64.61923222699998
 20
6.844266492699992
 10
64.46014700989997
 20
6.946750857199994
 10
64.30721514599998
 20
7.058109119500002
 10
64.19693288589996
 20
7.149687883099992
 10
64.09399315059997
 20
7.249607703099997
 10
64.00261209709999
 20
7.359471486699995
 10
63.95276719479998
 20
7.435631009699987
 10
63.91254458329997
 20
7.517156149100003
 10
63.88520213119999
 20
7.605291307199995
 10
63.87521453239997
 20
7.696821107499999
 10
63.88343787249997
 20
7.777284322499999
 10
63.90689818439998
 20
7.854742305800002
 10
63.94693227309995
 20
7.931831617999987
  0
ARC
  5
127D
330
18
100
AcDbEntity
  8
1
  6
Continuous
370
    25
100
AcDbCircle
 10
148.6384925488
 20
55.66482098569999
 30
0.0
 40
97.0216664841214
100
AcDbArc
 50
209.4882479285998
 51
209.621472261
  0
ARC
  5
127E
330
18
100
AcDbEntity
  8
1
  6
Continuous
370
    25
100
AcDbCircle
 10
64.60763765869998
 20
7.885871117100002
 30
0.0
 40
0.3572347218067651
100
AcDbArc
 50
209.4657025285999
 51
330.1522983577998
  0
ARC
  5
127F
330
18
100
AcDbEntity
  8
1
  6
Continuous
370
    25
100
AcDbCircle
 10
146.6317278090999
 20
-39.48180148730001
 30
0.0
 40
94.36154922053059
100
AcDbArc
 50
149.9142231669
 51
149.9936170017
  0
ARC
  5
1280
330
18
100
AcDbEntity
  8
1
  6
Continuous
370
    25
100
AcDbCircle
 10
67.08849310379999
 20
7.862091342599986
 30
0.0
 40
0.3545624168931929
100
AcDbArc
 50
222.0421097878997
 51
305.7741524054002
  0
ARC
  5
1281
330
18
100
AcDbEntity
  8
1
  6
Continuous
370
    25
100
AcDbCircle
 10
46.07116400869998
 20
9.750092739999992
 30
0.0
 40
3.000335849323027
100
AcDbArc
 50
299.2044733162999
 51
336.3262120935998
  0
LWPOLYLINE
  5
1282
330
18
100
AcDbEntity
  8
1
  6
Continuous
370
    25
100
AcDbPolyline
 90
        3
 70
   128
 43
0.0
 10
53.22914804749999
 20
9.0989999556
 10
53.21080973449998
 20
9.088772014399999
 10
53.19743195479997
 20
9.0667076421
  0
LWPOLYLINE
  5
1283
330
18
100
AcDbEntity
  8
1
  6
Continuous
370
    25
100
AcDbPolyline
 90
        5
 70
   128
 43
0.0
 10
53.22914804749999
 20
9.0989999556
 10
53.02080661459999
 20
8.738626278300003
 10
52.81244896739996
 20
8.3782621179
 10
52.61944331819996
 20
8.044487832899996
 10
52.42641983119998
 20
7.710723980899992
  0
LINE
  5
1284
330
18
100
AcDbEntity
  8
1
  6
Continuous
370
    25
100
AcDbLine
 10
52.39266183059996
 20
7.678233931399994
 30
0.0
 11
52.39227263329997
 21
7.677658162200002
 31
0.0
  0
LWPOLYLINE
  5
1285
330
18
100
AcDbEntity
  8
1
  6
Continuous
370
    25
100
AcDbPolyline
 90
        5
 70
   128
 43
0.0
 10
55.72915653579997
 20
9.098999973300003
 10
55.52081687909996
 20
8.738624166600004
 10
55.31246137719996
 20
8.378257518099999
 10
55.11946150859998
 20
8.0444865069
 10
54.92644420429996
 20
7.710725574199996
  0
LINE
  5
1286
330
18
100
AcDbEntity
  8
1
  6
Continuous
370
    25
100
AcDbLine
 10
54.89266261239997
 20
7.678303532899994
 30
0.0
 11
54.89227434289998
 21
7.677732292099995
 31
0.0
  0
LWPOLYLINE
  5
1287
330
18
100
AcDbEntity
  8
1
  6
Continuous
370
    25
100
AcDbPolyline
 90
        3
 70
   128
 43
0.0
 10
55.72915653579997
 20
9.098999973300003
 10
55.71084800919997
 20
9.088814277699995
 10
55.69743208309997
 20
9.066728583899994
  0
LWPOLYLINE
  5
1288
330
18
100
AcDbEntity
  8
1
  6
Continuous
370
    25
100
AcDbPolyline
 90
        5
 70
   128
 43
0.0
 10
58.22915653579997
 20
9.098999973300003
 10
58.02081687909996
 20
8.738624166600004
 10
57.81246137719996
 20
8.378257518099999
 10
57.61946150859998
 20
8.0444865069
 10
57.42644420429996
 20
7.710725574199996
  0
LINE
  5
1289
330
18
100
AcDbEntity
  8
1
  6
Continuous
370
    25
100
AcDbLine
 10
57.39266261229996
 20
7.6783035344
 30
0.0
 11
57.39227429019996
 21
7.677732216299991
 31
0.0
  0
LWPOLYLINE
  5
128A
330
18
100
AcDbEntity
  8
1
  6
Continuous
370
    25
100
AcDbPolyline
 90
        3
 70
   128
 43
0.0
 10
58.22915653579997
 20
9.098999973300003
 10
58.21084800919997
 20
9.088814277699995
 10
58.19743208309997
 20
9.066728583700003
  0
LWPOLYLINE
  5
128B
330
18
100
AcDbEntity
  8
1
  6
Continuous
370
    25
100
AcDbPolyline
 90
        5
 70
   128
 43
0.0
 10
60.72915653579997
 20
9.098999973300003
 10
60.52081687909996
 20
8.738624166600004
 10
60.31246137719996
 20
8.378257518099999
 10
60.11946150859998
 20
8.0444865069
 10
59.92644420429996
 20
7.710725574199996
  0
LINE
  5
128C
330
18
100
AcDbEntity
  8
1
  6
Continuous
370
    25
100
AcDbLine
 10
59.89266261229996
 20
7.6783035344
 30
0.0
 11
59.89227429019996
 21
7.677732216299991
 31
0.0
  0
LWPOLYLINE
  5
128D
330
18
100
AcDbEntity
  8
1
  6
Continuous
370
    25
100
AcDbPolyline
 90
        3
 70
   128
 43
0.0
 10
60.72915653579997
 20
9.098999973300003
 10
60.71084800919997
 20
9.088814277699995
 10
60.69743208309997
 20
9.066728583700003
  0
LWPOLYLINE
  5
128E
330
18
100
AcDbEntity
  8
1
  6
Continuous
370
    25
100
AcDbPolyline
 90
        5
 70
   128
 43
0.0
 10
63.22915653579997
 20
9.098999973300003
 10
63.02081687909996
 20
8.738624166600004
 10
62.81246137719996
 20
8.378257518099999
 10
62.61946150859998
 20
8.0444865069
 10
62.42644420429996
 20
7.710725574199996
  0
LINE
  5
128F
330
18
100
AcDbEntity
  8
1
  6
Continuous
370
    25
100
AcDbLine
 10
62.39266261229996
 20
7.6783035344
 30
0.0
 11
62.39227429019996
 21
7.677732216299991
 31
0.0
  0
LWPOLYLINE
  5
1290
330
18
100
AcDbEntity
  8
1
  6
Continuous
370
    25
100
AcDbPolyline
 90
        3
 70
   128
 43
0.0
 10
63.22915653579997
 20
9.098999973300003
 10
63.21084800919997
 20
9.088814277699995
 10
63.19743208309997
 20
9.066728583700003
  0
LWPOLYLINE
  5
1291
330
18
100
AcDbEntity
  8
1
  6
Continuous
370
    25
100
AcDbPolyline
 90
        3
 70
   128
 43
0.0
 10
50.72909093689998
 20
9.0989997219
 10
50.71060102549997
 20
9.088540037999996
 10
50.69741736929998
 20
9.066577285700001
  0
LWPOLYLINE
  5
1292
330
18
100
AcDbEntity
  8
1
  6
Continuous
370
    25
100
AcDbPolyline
 90
        5
 70
   128
 43
0.0
 10
50.72909093689998
 20
9.0989997219
 10
50.52074567329997
 20
8.738630031699997
 10
50.31238388729995
 20
8.378270023799991
 10
50.11936772519998
 20
8.044488742699996
 10
49.92633338409998
 20
7.710718081199997
  0
LINE
  5
1293
330
18
100
AcDbEntity
  8
1
  6
Continuous
370
    25
100
AcDbLine
 10
49.89264886599997
 20
7.678087419599997
 30
0.0
 11
49.89225675869999
 21
7.677500971099987
 31
0.0
  0
ARC
  5
1294
330
18
100
AcDbEntity
  8
1
  6
Continuous
370
    25
100
AcDbCircle
 10
54.61307763299998
 20
7.891929206299997
 30
0.0
 40
0.3619853095177972
100
AcDbArc
 50
273.1924280566
 51
329.9614325104999
  0
ARC
  5
1295
330
18
100
AcDbEntity
  8
1
  6
Continuous
370
    25
100
AcDbCircle
 10
54.61310393919998
 20
7.891037586199997
 30
0.0
 40
0.3610936088392779
100
AcDbArc
 50
209.9569972982
 51
273.1961391803
  0
ARC
  5
1296
330
18
100
AcDbEntity
  8
1
  6
Continuous
370
    25
100
AcDbCircle
 10
57.11334852039998
 20
7.891443521399997
 30
0.0
 40
0.3615077920439978
100
AcDbArc
 50
209.9934212361999
 51
330.0065787637998
  0
ARC
  5
1297
330
18
100
AcDbEntity
  8
1
  6
Continuous
370
    25
100
AcDbCircle
 10
59.61334852039998
 20
7.891443521399997
 30
0.0
 40
0.3615077920439732
100
AcDbArc
 50
209.9934212361999
 51
330.0065787637998
  0
ARC
  5
1298
330
18
100
AcDbEntity
  8
1
  6
Continuous
370
    25
100
AcDbCircle
 10
62.11334852039998
 20
7.891443521399997
 30
0.0
 40
0.3615077920440544
100
AcDbArc
 50
209.9934212361999
 51
330.0065787637998
  0
ARC
  5
1299
330
18
100
AcDbEntity
  8
1
  6
Continuous
370
    25
100
AcDbCircle
 10
52.11331594919997
 20
7.891453331799992
 30
0.0
 40
0.3615205930415083
100
AcDbArc
 50
209.9945289180001
 51
330.0056629869998
  0
ARC
  5
129A
330
18
100
AcDbEntity
  8
1
  6
Continuous
370
    25
100
AcDbCircle
 10
49.61322134259996
 20
7.891457244900002
 30
0.0
 40
0.36153256536666
100
AcDbArc
 50
209.9954474139997
 51
330.0049625876001
  0
LINE
  5
129B
330
18
100
AcDbEntity
  8
1
  6
Continuous
370
    25
100
AcDbLine
 10
54.63323643389997
 20
6.844266492699992
 30
0.0
 11
54.63323643389997
 21
7.530505650000002
 31
0.0
  0
LINE
  5
129C
330
18
100
AcDbEntity
  8
1
  6
Continuous
370
    25
100
AcDbLine
 10
50.72909093689998
 20
9.0989997219
 30
0.0
 11
50.99991366189996
 21
9.098999770899991
 31
0.0
  0
LINE
  5
129D
330
18
100
AcDbEntity
  8
1
  6
Continuous
370
    25
100
AcDbLine
 10
53.22914804749999
 20
9.0989999556
 30
0.0
 11
53.49996494949998
 21
9.098999962299997
 31
0.0
  0
LWPOLYLINE
  5
129E
330
18
100
AcDbEntity
  8
1
  6
Continuous
370
    25
100
AcDbPolyline
 90
        6
 70
   128
 43
0.0
 10
49.30011059439998
 20
7.71071584069999
 10
49.19618317889996
 20
7.891045649099996
 10
49.09224889349999
 20
8.071371544199998
 10
48.98830818989996
 20
8.251693785499988
 10
48.88436148039999
 20
8.432012611099999
 10
48.81901074569997
 20
8.545371395099991
  0
LWPOLYLINE
  5
129F
330
18
100
AcDbEntity
  8
1
  6
Continuous
370
    25
100
AcDbPolyline
 90
        5
 70
   128
 43
0.0
 10
51.80021267249998
 20
7.710722932199992
 10
51.59235170479997
 20
8.071377148800001
 10
51.38446500019997
 20
8.432016702299996
 10
51.19219791459999
 20
8.765513110299997
 10
50.99991366189996
 20
9.098999770899991
  0
LWPOLYLINE
  5
12A0
330
18
100
AcDbEntity
  8
1
  6
Continuous
370
    25
100
AcDbPolyline
 90
        5
 70
   128
 43
0.0
 10
54.30025228149997
 20
7.7107255382
 10
54.09239443729997
 20
8.071379694699992
 10
53.88451062479997
 20
8.432019042500002
 10
53.69224644759996
 20
8.765514425800006
 10
53.49996494949998
 20
9.098999962299997
  0
LINE
  5
12A1
330
18
100
AcDbEntity
  8
1
  6
Continuous
370
    25
100
AcDbLine
 10
63.94693227309995
 20
7.931831617999987
 30
0.0
 11
64.06505582589997
 21
8.118813039199991
 31
0.0
  0
LINE
  5
12A2
330
18
100
AcDbEntity
  8
1
  6
Continuous
370
    25
100
AcDbLine
 10
63.22915653579997
 20
9.098999973300003
 30
0.0
 11
63.49997047929996
 21
9.098999973300003
 31
0.0
  0
LINE
  5
12A3
330
18
100
AcDbEntity
  8
1
  6
Continuous
370
    25
100
AcDbLine
 10
58.22915653579997
 20
9.098999973300003
 30
0.0
 11
58.49997047929996
 21
9.098999973300003
 31
0.0
  0
LINE
  5
12A4
330
18
100
AcDbEntity
  8
1
  6
Continuous
370
    25
100
AcDbLine
 10
60.72915653579997
 20
9.098999973300003
 30
0.0
 11
60.99997047929996
 21
9.098999973300003
 31
0.0
  0
LINE
  5
12A5
330
18
100
AcDbEntity
  8
1
  6
Continuous
370
    25
100
AcDbLine
 10
55.72915653579997
 20
9.098999973300003
 30
0.0
 11
55.99997047929996
 21
9.098999973300003
 31
0.0
  0
LWPOLYLINE
  5
12A6
330
18
100
AcDbEntity
  8
1
  6
Continuous
370
    25
100
AcDbPolyline
 90
        5
 70
   128
 43
0.0
 10
56.80025283649996
 20
7.710725574199996
 10
56.59239578179996
 20
8.071379866200004
 10
56.38451306789999
 20
8.432019373199999
 10
56.19225032749998
 20
8.765514602799987
 10
55.99997047929996
 20
9.098999973300003
  0
LWPOLYLINE
  5
12A7
330
18
100
AcDbEntity
  8
1
  6
Continuous
370
    25
100
AcDbPolyline
 90
        5
 70
   128
 43
0.0
 10
61.80025283649996
 20
7.710725574199996
 10
61.59239578179996
 20
8.071379866200004
 10
61.38451306789999
 20
8.432019373199999
 10
61.19225032749998
 20
8.765514602799987
 10
60.99997047929996
 20
9.098999973300003
  0
LWPOLYLINE
  5
12A8
330
18
100
AcDbEntity
  8
1
  6
Continuous
370
    25
100
AcDbPolyline
 90
        4
 70
   128
 43
0.0
 10
64.06505582589997
 20
8.118813039199991
 10
63.88451306789999
 20
8.432019373199999
 10
63.69225032749998
 20
8.765514602799987
 10
63.49997047929996
 20
9.098999973300003
  0
LWPOLYLINE
  5
12A9
330
18
100
AcDbEntity
  8
1
  6
Continuous
370
    25
100
AcDbPolyline
 90
        5
 70
   128
 43
0.0
 10
59.30025283649996
 20
7.710725574199996
 10
59.09239578179996
 20
8.071379866200004
 10
58.88451306789999
 20
8.432019373199999
 10
58.69225032749998
 20
8.765514602799987
 10
58.49997047929996
 20
9.098999973300003
  0
LWPOLYLINE
  5
12AA
330
18
100
AcDbEntity
  8
1
  6
Continuous
370
    25
100
AcDbPolyline
 90
        3
 70
   128
 43
0.0
 10
64.18533487439997
 20
7.906387948399987
 10
64.07621910119998
 20
8.099117764700004
 10
64.06505582589997
 20
8.118813039199991
  0
LWPOLYLINE
  5
12AB
330
18
100
AcDbEntity
  8
1
  6
Continuous
370
    25
100
AcDbPolyline
 90
        3
 70
   128
 43
0.0
 10
65.72195556529996
 20
9.097402543099995
 10
65.70396146759996
 20
9.079827251800004
 10
65.69404652469997
 20
9.05967876279999
  0
LWPOLYLINE
  5
12AC
330
18
100
AcDbEntity
  8
1
  6
Continuous
370
    25
100
AcDbPolyline
 90
        5
 70
   128
 43
0.0
 10
65.72195556529996
 20
9.097402543099995
 10
65.51342648249998
 20
8.737203941599997
 10
65.30486514549997
 20
8.377023819100003
 10
65.11111600689996
 20
8.042499181899996
 10
64.98295437409997
 20
7.821261498799997
  0
LWPOLYLINE
  5
12AD
330
18
100
AcDbEntity
  8
1
  6
Continuous
370
    25
100
AcDbPolyline
 90
        3
 70
   128
 43
0.0
 10
66.82517631639996
 20
7.624649187599993
 10
66.79626230309995
 20
7.660790441400003
 10
66.77566870469997
 20
7.693738422000002
  0
ELLIPSE
  5
12AE
330
18
100
AcDbEntity
  8
1
  6
Continuous
370
    25
100
AcDbEllipse
 10
57.96007902959998
 20
0.0
 30
0.0
 11
56.07419400263003
 21
1.119453328313405
 31
0.0
210
0.0
220
0.0
230
1.0
 40
0.1610343975
 41
1.423870405385645
 42
1.428714765504284
  0
ARC
  5
12AF
330
18
100
AcDbEntity
  8
1
  6
Continuous
370
    25
100
AcDbCircle
 10
-113.0132602763
 20
-91.9704853266
 30
0.0
 40
205.5651149380815
100
AcDbArc
 50
29.00136345940013
 51
29.44936642280018
  0
LINE
  5
12B0
330
18
100
AcDbEntity
  8
1
  6
Continuous
370
    25
100
AcDbLine
 10
68.20448356239997
 20
9.080605609199992
 30
0.0
 11
68.19399330819996
 21
9.059939114299991
 31
0.0
  0
LWPOLYLINE
  5
12B1
330
18
100
AcDbEntity
  8
1
  6
Continuous
370
    25
100
AcDbPolyline
 90
        5
 70
   128
 43
0.0
 10
68.20448356239997
 20
9.080605609199992
 10
67.99589476159997
 20
8.7204412245
 10
67.78726788629999
 20
8.360298662399991
 10
67.59197019209998
 20
8.02325551509999
 10
67.39662956209999
 20
7.686236983499995
  0
ARC
  5
12B2
330
18
100
AcDbEntity
  8
1
  6
Continuous
370
    25
100
AcDbCircle
 10
67.08348174399997
 20
7.867319937899999
 30
0.0
 40
0.3617355281539432
100
AcDbArc
 50
305.9340108389003
 51
329.9606350521
  0
LWPOLYLINE
  5
12B3
330
18
100
AcDbEntity
  8
1
  6
Continuous
370
    25
100
AcDbPolyline
 90
        3
 70
   128
 43
0.0
 10
80.19999999999997
 20
7.016359010800003
 10
80.56711933399997
 20
6.570617016200002
 10
80.92794181989997
 20
6.119522548599985
  0
ELLIPSE
  5
12B4
330
18
100
AcDbEntity
  8
1
  6
Continuous
370
    25
100
AcDbEllipse
 10
57.96007902959998
 20
0.0
 30
0.0
 11
56.07419400263003
 21
1.119453328313405
 31
0.0
210
0.0
220
0.0
230
1.0
 40
0.1610343975
 41
1.378977089902085
 42
1.383856826227779
  0
ARC
  5
12B5
330
18
100
AcDbEntity
  8
1
  6
Continuous
370
    25
100
AcDbCircle
 10
69.56860200129998
 20
7.818396060300003
 30
0.0
 40
0.3537606745456769
100
AcDbArc
 50
207.4262936614998
 51
330.1532093751
  0
LWPOLYLINE
  5
12B6
330
18
100
AcDbEntity
  8
1
  6
Continuous
370
    25
100
AcDbPolyline
 90
        5
 70
   128
 43
0.0
 10
70.61840000349997
 20
8.927104455399993
 10
70.47833636849998
 20
8.684858821799997
 10
70.26999383939998
 20
8.324553417899997
 10
70.07272602799999
 20
7.983439176899999
 10
69.87543961589998
 20
7.642335578799992
  0
ELLIPSE
  5
12B7
330
18
100
AcDbEntity
  8
1
  6
Continuous
370
    25
100
AcDbEllipse
 10
-348.8475091939001
 20
-7.910733435800002
 30
0.0
 11
441.6907165043451
 21
8.623005938835497
 31
0.0
210
0.0
220
0.0
230
1.0
 40
0.0627247772
 41
0.3141580965861991
 42
0.3173536413980431
  0
ARC
  5
12B8
330
18
100
AcDbEntity
  8
1
  6
Continuous
370
    25
100
AcDbCircle
 10
-33.89551953300002
 20
-48.2880941809
 30
0.0
 40
119.4999899376752
100
AcDbArc
 50
27.8809657153001
 51
28.56501626119986
  0
ARC
  5
12B9
330
18
100
AcDbEntity
  8
1
  6
Continuous
370
    25
100
AcDbCircle
 10
72.04841953809995
 20
7.749632681899996
 30
0.0
 40
0.3515060739640967
100
AcDbArc
 50
206.2026623393002
 51
330.2981394018001
  0
LWPOLYLINE
  5
12BA
330
18
100
AcDbEntity
  8
1
  6
Continuous
370
    25
100
AcDbPolyline
 90
        4
 70
   128
 43
0.0
 10
72.90015648509997
 20
8.524679816599999
 10
72.75307236759997
 20
8.2692378562
 10
72.55338607289998
 20
7.922364293499995
 10
72.35374313589997
 20
7.575466035499992
  0
ELLIPSE
  5
12BB
330
18
100
AcDbEntity
  8
1
  6
Continuous
370
    25
100
AcDbEllipse
 10
-348.8475091939001
 20
-7.910733435800002
 30
0.0
 11
441.6907165043451
 21
8.623005938835497
 31
0.0
210
0.0
220
0.0
230
1.0
 40
0.0627247772
 41
0.2937565241031835
 42
0.3004251566555627
  0
ARC
  5
12BC
330
18
100
AcDbEntity
  8
1
  6
Continuous
370
    25
100
AcDbCircle
 10
-6.020933638399995
 20
-33.70246314480001
 30
0.0
 40
90.19751478300491
100
AcDbArc
 50
27.18786468570008
 51
27.80028761229986
  0
ARC
  5
12BD
330
18
100
AcDbEntity
  8
1
  6
Continuous
370
    25
100
AcDbCircle
 10
74.52765199269997
 20
7.6558358033
 30
0.0
 40
0.3488224023133006
100
AcDbArc
 50
204.7782733929001
 51
330.5883374187
  0
LWPOLYLINE
  5
12BE
330
18
100
AcDbEntity
  8
1
  6
Continuous
370
    25
100
AcDbPolyline
 90
        3
 70
   128
 43
0.0
 10
75.17978017969999
 20
8.094354068100003
 10
75.03395227789998
 20
7.839134727800001
 10
74.83151602529999
 20
7.484535721399992
  0
ELLIPSE
  5
12BF
330
18
100
AcDbEntity
  8
1
  6
Continuous
370
    25
100
AcDbEllipse
 10
-348.8475091939001
 20
-7.910733435800002
 30
0.0
 11
441.6907165043451
 21
8.623005938835497
 31
0.0
210
0.0
220
0.0
230
1.0
 40
0.0627247772
 41
0.2719141947631377
 42
0.2825381475053404
  0
LWPOLYLINE
  5
12C0
330
18
100
AcDbEntity
  8
1
  6
Continuous
370
    25
100
AcDbPolyline
 90
        3
 70
   128
 43
0.0
 10
76.68829851929998
 20
7.399767478799994
 10
76.49897003759999
 20
7.7781215169
 10
76.46958593649997
 20
7.836330175899987
  0
ARC
  5
12C1
330
18
100
AcDbEntity
  8
1
  6
Continuous
370
    25
100
AcDbCircle
 10
77.00624286259999
 20
7.53551671089999
 30
0.0
 40
0.3457115263180494
100
AcDbArc
 50
203.1205003415998
 51
331.0403678257001
  0
LINE
  5
12C2
330
18
100
AcDbEntity
  8
1
  6
Continuous
370
    25
100
AcDbLine
 10
77.45689581869998
 20
7.630746021100001
 30
0.0
 11
77.30872698719998
 21
7.368125511200005
 31
0.0
  0
ELLIPSE
  5
12C3
330
18
100
AcDbEntity
  8
1
  6
Continuous
370
    25
100
AcDbEllipse
 10
-348.8475091939001
 20
-7.910733435800002
 30
0.0
 11
441.6907165043451
 21
8.623005938835497
 31
0.0
210
0.0
220
0.0
230
1.0
 40
0.0627247772
 41
0.2482592148589276
 42
0.2635013896281783
  0
ARC
  5
12C4
330
18
100
AcDbEntity
  8
1
  6
Continuous
370
    25
100
AcDbCircle
 10
79.48469784609999
 20
7.385220748599992
 30
0.0
 40
0.3415138670365652
100
AcDbArc
 50
202.3273241536999
 51
311.8275627298997
  0
ELLIPSE
  5
12C5
330
18
100
AcDbEntity
  8
1
  6
Continuous
370
    25
100
AcDbEllipse
 10
-348.8475091939001
 20
-7.910733435800002
 30
0.0
 11
441.6907165043451
 21
8.623005938835497
 31
0.0
210
0.0
220
0.0
230
1.0
 40
0.0627247772
 41
0.2386208903426249
 42
0.2432242381288516
  0
ARC
  5
12C6
330
18
100
AcDbEntity
  8
1
  6
Continuous
370
    25
100
AcDbCircle
 10
-67.38684594669999
 20
-66.47513115609999
 30
0.0
 40
155.4549089555757
100
AcDbArc
 50
28.48067238240014
 51
29.07873630159971
  0
LINE
  5
12C7
330
18
100
AcDbEntity
  8
1
  6
Continuous
370
    25
100
AcDbLine
 10
80.92794181989997
 20
6.119522548599985
 30
0.0
 11
80.99999999999999
 21
6.028412407499997
 31
0.0
  0
LINE
  5
12C8
330
18
100
AcDbEntity
  8
1
  6
Continuous
370
    25
100
AcDbLine
 10
80.99999999999999
 20
4.914009742499998
 30
0.0
 11
80.99999999999999
 21
6.028412407499997
 31
0.0
  0
LINE
  5
12C9
102
{ACAD_REACTORS
330
1653
102
}
330
18
100
AcDbEntity
  8
SK1
100
AcDbLine
 10
-27.5336310473
 20
0.0
 30
0.0
 11
-27.5336310473
 21
-7.0
 31
0.0
  0
LINE
  5
12CA
102
{ACAD_REACTORS
330
1653
102
}
330
18
100
AcDbEntity
  8
SK1
100
AcDbLine
 10
-27.5336310473
 20
7.0
 30
0.0
 11
-27.5336310473
 21
0.0
 31
0.0
  0
LINE
  5
12CB
330
18
100
AcDbEntity
  8
SK1
100
AcDbLine
 10
-28.64999999999999
 20
-6.850000000000001
 30
0.0
 11
-29.99999999999999
 21
-5.5
 31
0.0
  0
LINE
  5
12CC
330
18
100
AcDbEntity
  8
SK1
100
AcDbLine
 10
-29.99999999999999
 20
-5.5
 30
0.0
 11
-43.2205771366
 21
-5.5
 31
0.0
  0
LINE
  5
12CD
330
18
100
AcDbEntity
  8
SK1
100
AcDbLine
 10
-43.2205771366
 20
-4.083197276599998
 30
0.0
 11
-43.2205771366
 21
-5.5
 31
0.0
  0
LINE
  5
12CE
330
18
100
AcDbEntity
  8
SK1
100
AcDbLine
 10
-43.2205771366
 20
-4.083197276599998
 30
0.0
 11
-29.99999999999999
 21
-4.083197276599998
 31
0.0
  0
ARC
  5
12CF
330
18
100
AcDbEntity
  8
SK1
100
AcDbCircle
 10
-35.5
 20
0.0
 30
0.0
 40
6.849999999999985
100
AcDbArc
 50
323.4098254647999
 51
36.59017453520021
  0
LINE
  5
12D0
330
18
100
AcDbEntity
  8
SK1
100
AcDbLine
 10
-29.99999999999999
 20
4.083197276699998
 30
0.0
 11
-43.2205771366
 21
4.083197276699998
 31
0.0
  0
LINE
  5
12D1
330
18
100
AcDbEntity
  8
SK1
100
AcDbLine
 10
-43.2205771366
 20
5.5
 30
0.0
 11
-43.2205771366
 21
4.083197276699998
 31
0.0
  0
LINE
  5
12D2
330
18
100
AcDbEntity
  8
SK1
100
AcDbLine
 10
-43.2205771366
 20
5.5
 30
0.0
 11
-29.99999999999999
 21
5.5
 31
0.0
  0
LINE
  5
12D3
330
18
100
AcDbEntity
  8
SK1
100
AcDbLine
 10
-29.99999999999999
 20
5.5
 30
0.0
 11
-28.64999999999999
 21
6.850000000000001
 31
0.0
  0
LINE
  5
12D4
330
18
100
AcDbEntity
  8
SK1
100
AcDbLine
 10
-29.99999999999999
 20
-4.083197276599998
 30
0.0
 11
-29.99999999999999
 21
4.083197276699998
 31
0.0
  0
ARC
  5
12D5
330
18
100
AcDbEntity
  8
SK1
100
AcDbCircle
 10
-31.5384372965
 20
0.2627418692999939
 30
0.0
 40
12.46433224461004
100
AcDbArc
 50
181.2078557436998
 51
200.4059900059999
  0
ARC
  5
12D6
330
18
100
AcDbEntity
  8
SK1
100
AcDbCircle
 10
-31.5786387668
 20
-0.2550679942999992
 30
0.0
 40
12.4239798199604
100
AcDbArc
 50
159.5625362638999
 51
178.8236179863999
  0
LINE
  5
12D7
330
18
100
AcDbEntity
  8
SK1
100
AcDbLine
 10
-44.0
 20
5.5
 30
0.0
 11
-44.0
 21
0.0
 31
0.0
  0
LINE
  5
12D8
102
{ACAD_REACTORS
330
1515
102
}
330
18
100
AcDbEntity
  8
SK1
100
AcDbLine
 10
-44.0
 20
5.5
 30
0.0
 11
-43.2205771366
 21
5.5
 31
0.0
  0
LINE
  5
12D9
330
18
100
AcDbEntity
  8
SK1
100
AcDbLine
 10
-44.0
 20
0.0
 30
0.0
 11
-44.0
 21
-5.5
 31
0.0
  0
LINE
  5
12DA
102
{ACAD_REACTORS
330
1534
102
}
330
18
100
AcDbEntity
  8
SK1
100
AcDbLine
 10
-43.2205771366
 20
-5.5
 30
0.0
 11
-44.0
 21
-5.5
 31
0.0
  0
LINE
  5
12DB
330
18
100
AcDbEntity
  8
1
  6
Continuous
370
    25
100
AcDbLine
 10
17.00000000000001
 20
6.75
 30
0.0
 11
17.00000000000001
 21
-6.75
 31
0.0
  0
LINE
  5
12DC
330
18
100
AcDbEntity
  8
1
  6
Continuous
370
    25
100
AcDbLine
 10
46.07148518869998
 20
-4.318579177999993
 30
0.0
 11
46.07148518869998
 21
-6.75
 31
0.0
  0
ARC
  5
12DD
330
18
100
AcDbEntity
  8
1
  6
Continuous
370
    25
100
AcDbCircle
 10
59.50924033359997
 20
-5.180241931400007
 30
0.0
 40
11.15024157647323
100
AcDbArc
 50
181.0351659886998
 51
192.9417273792998
  0
ARC
  5
12DE
330
18
100
AcDbEntity
  8
1
  6
Continuous
370
    25
100
AcDbCircle
 10
61.64414409989998
 20
-5.247985304800006
 30
0.0
 40
10.77925082484661
100
AcDbArc
 50
181.1717280224
 51
193.0260382471996
  0
ARC
  5
12DF
330
18
100
AcDbEntity
  8
1
  6
Continuous
370
    25
100
AcDbCircle
 10
63.85624284599996
 20
-5.295047388299995
 30
0.0
 40
10.48819575730767
100
AcDbArc
 50
181.1782020576998
 51
193.1308755323998
  0
ARC
  5
12E0
330
18
100
AcDbEntity
  8
1
  6
Continuous
370
    25
100
AcDbCircle
 10
73.82047596759996
 20
-5.300931231999999
 30
0.0
 40
10.45203197006506
100
AcDbArc
 50
181.1791255352998
 51
193.1440972279998
  0
ARC
  5
12E1
330
18
100
AcDbEntity
  8
1
  6
Continuous
370
    25
100
AcDbCircle
 10
71.32047596759996
 20
-5.300931231999999
 30
0.0
 40
10.45203197007005
100
AcDbArc
 50
181.1791255352998
 51
193.1440972279998
  0
ARC
  5
12E2
330
18
100
AcDbEntity
  8
1
  6
Continuous
370
    25
100
AcDbCircle
 10
68.82047596749997
 20
-5.300931231999999
 30
0.0
 40
10.45203196999774
100
AcDbArc
 50
181.1791255352998
 51
193.1440972279998
  0
ARC
  5
12E3
330
18
100
AcDbEntity
  8
1
  6
Continuous
370
    25
100
AcDbCircle
 10
66.32047596739997
 20
-5.300931231999999
 30
0.0
 40
10.45203196989631
100
AcDbArc
 50
181.1791255352001
 51
193.1440972280999
  0
ARC
  5
12E4
330
18
100
AcDbEntity
  8
1
  6
Continuous
370
    25
100
AcDbCircle
 10
76.96070766349996
 20
-5.2397131393
 30
0.0
 40
11.09349182787154
100
AcDbArc
 50
181.4271938616998
 51
192.6311759635999
  0
ARC
  5
12E5
330
18
100
AcDbEntity
  8
1
  6
Continuous
370
    25
100
AcDbCircle
 10
79.96550716749998
 20
-5.179479988999997
 30
0.0
 40
11.59973277533233
100
AcDbArc
 50
181.6625156724
 51
192.3703587036996
  0
LWPOLYLINE
  5
12E6
330
18
100
AcDbEntity
  8
1
  6
Continuous
370
    25
100
AcDbPolyline
 90
        3
 70
   128
 43
0.0
 10
52.42641983119998
 20
7.710723980899992
 10
52.40779080399995
 20
7.700615376299992
 10
52.39266183059996
 20
7.678233931399994
  0
LWPOLYLINE
  5
12E7
330
18
100
AcDbEntity
  8
1
  6
Continuous
370
    25
100
AcDbPolyline
 90
        3
 70
   128
 43
0.0
 10
54.92644420429996
 20
7.710725574199996
 10
54.90790890719996
 20
7.700734614099997
 10
54.89266261239997
 20
7.678303532899994
  0
LWPOLYLINE
  5
12E8
330
18
100
AcDbEntity
  8
1
  6
Continuous
370
    25
100
AcDbPolyline
 90
        3
 70
   128
 43
0.0
 10
57.42644420429996
 20
7.710725574199996
 10
57.40790890959998
 20
7.7007346165
 10
57.39266261229996
 20
7.6783035344
  0
LWPOLYLINE
  5
12E9
330
18
100
AcDbEntity
  8
1
  6
Continuous
370
    25
100
AcDbPolyline
 90
        3
 70
   128
 43
0.0
 10
59.92644420429996
 20
7.710725574199996
 10
59.90790890959998
 20
7.7007346165
 10
59.89266261229996
 20
7.6783035344
  0
LWPOLYLINE
  5
12EA
330
18
100
AcDbEntity
  8
1
  6
Continuous
370
    25
100
AcDbPolyline
 90
        3
 70
   128
 43
0.0
 10
62.42644420429996
 20
7.710725574199996
 10
62.40790890959998
 20
7.7007346165
 10
62.39266261229996
 20
7.6783035344
  0
LWPOLYLINE
  5
12EB
330
18
100
AcDbEntity
  8
1
  6
Continuous
370
    25
100
AcDbPolyline
 90
        3
 70
   128
 43
0.0
 10
49.92633338409998
 20
7.710718081199997
 10
49.90754164529999
 20
7.700361546999999
 10
49.89264886599997
 20
7.678087419599997
  0
LWPOLYLINE
  5
12EC
330
18
100
AcDbEntity
  8
1
  6
Continuous
370
    25
100
AcDbPolyline
 90
        3
 70
   128
 43
0.0
 10
64.91748569359997
 20
7.708076736599997
 10
64.89934366239997
 20
7.690296601799992
 10
64.89082343609998
 20
7.67431084089999
  0
LINE
  5
12ED
330
18
100
AcDbEntity
  8
SK1
100
AcDbLine
 10
-27.99999999999999
 20
6.850000000000001
 30
0.0
 11
-27.99999999999999
 21
-6.850000000000001
 31
0.0
  0
LINE
  5
12F2
330
18
100
AcDbEntity
  8
SK4
100
AcDbLine
 10
-46.0
 20
0.0
 30
0.0
 11
82.99999999999998
 21
0.0
 31
0.0
  0
LINE
  5
12FC
330
18
100
AcDbEntity
  8
4
100
AcDbLine
 10
0.0
 20
0.0
 30
0.0
 11
82.99999999999998
 21
0.0
 31
0.0
  0
MTEXT
  5
12FD
330
18
100
AcDbEntity
  8
SK6
100
AcDbMText
 10
-43.93286160799998
 20
-35.0
 30
0.0
 40
3.5
 41
0.0
 71
     1
 72
     1
  1
T35-PS01B06-18X2.5-65R-H
  7
STANDARD 3.5 mm
 73
     1
 44
1.0
1001
ACAD
1000
MTEXTBEGIN
1070
    73
1070
     1
1070
    44
1040
1.0
1070
    74
1070
     0
1000
MTEXTEND
  0
LWPOLYLINE
  5
131B
102
{ACAD_REACTORS
330
1341
330
137E
330
13A2
330
14B2
330
14CA
330
14E2
330
1515
330
1534
102
}
330
18
100
AcDbEntity
  8
CUT
100
AcDbPolyline
 90
        6
 70
     1
 43
0.0
 10
48.99999999999997
 20
0.0
 10
80.99999999999999
 20
0.0
 10
80.99999999999999
 20
6.75
 10
80.19999999999997
 20
7.549999999999998
 10
69.83539898689996
 20
9.098999999999996
 10
48.99999999999997
 20
9.098999999999996
  0
LWPOLYLINE
  5
1321
102
{ACAD_REACTORS
330
14B2
330
14CA
330
14E2
102
}
330
18
100
AcDbEntity
  8
NOCUT
100
AcDbPolyline
 90
        7
 70
     1
 43
0.0
 10
0.0
 20
7.0
 10
16.4190524981
 20
7.0
 10
17.00000000000001
 20
6.75
 10
46.07148518869998
 20
6.75
 10
48.99999999999997
 20
9.098999999999996
 10
48.99999999999997
 20
0.0
 10
0.0
 20
0.0
  0
DIMENSION
  5
132A
102
{ACAD_XDICTIONARY
360
1337
102
}
102
{ACAD_REACTORS
330
1341
102
}
330
18
100
AcDbEntity
  8
2
100
AcDbDimension
  2
*D0
 10
105.0
 20
-7.549999999999998
 30
0.0
 11
105.0
 21
20.0
 31
0.0
 70
   160
  1
%%C<>
 71
     5
 42
15.1
  3
AM_DIN
100
AcDbAlignedDimension
 13
80.19999999999997
 23
7.549999999999998
 33
0.0
 14
80.19999999999997
 24
-7.549999999999998
 34
0.0
 50
90.0
100
AcDbRotatedDimension
1001
ACAD_DSTYLE_DIMINSPECT
1070
   396
1000
100%
1070
   395
1000

1070
   394
1070
    33
1070
   393
1070
     0
1001
ACAD
1000
DSTYLE
1002
{
1070
    78
1070
     8
1002
}
  0
DIMENSION
  5
1367
102
{ACAD_XDICTIONARY
360
1374
102
}
102
{ACAD_REACTORS
330
137E
102
}
330
18
100
AcDbEntity
  8
2
100
AcDbDimension
  2
*D1
 10
120.0
 20
-9.098999999999993
 30
0.0
 11
120.0
 21
22.92190934645113
 31
0.0
 70
   160
  1
M18x2.5
 71
     5
 42
18.198
  3
AM_DIN
100
AcDbAlignedDimension
 13
69.83539898689996
 23
9.098999999999996
 33
0.0
 14
69.83539898689996
 24
-9.098999999999996
 34
0.0
 50
90.0
100
AcDbRotatedDimension
1001
ACAD_DSTYLE_DIMINSPECT
1070
   396
1000
100%
1070
   395
1000

1070
   394
1070
    33
1070
   393
1070
     0
1001
ACAD
1000
DSTYLE
1002
{
1070
    78
1070
     8
1002
}
  0
DIMENSION
  5
1389
102
{ACAD_XDICTIONARY
360
1397
102
}
102
{ACAD_REACTORS
330
13A2
102
}
330
18
100
AcDbEntity
  8
2
100
AcDbDimension
  2
*D2
 10
69.83539898689996
 20
30.0
 30
0.0
 11
91.63773717498242
 21
30.0
 31
0.0
 70
   160
  1
<>\P"B"
 71
     5
 42
11.16460101310002
  3
AM_DIN
100
AcDbAlignedDimension
 13
80.99999999999999
 23
6.75
 33
0.0
 14
69.83539898689996
 24
9.098999999999996
 34
0.0
100
AcDbRotatedDimension
1001
ACAD_DSTYLE_DIMINSPECT
1070
   396
1000
100%
1070
   395
1000

1070
   394
1070
    33
1070
   393
1070
     0
1001
ACAD
1000
DSTYLE
1002
{
1070
    78
1070
     8
1070
   271
1070
     2
1070
     3
1000

1002
}
  0
DIMENSION
  5
149B
102
{ACAD_XDICTIONARY
360
14A8
102
}
102
{ACAD_REACTORS
330
14B2
102
}
330
18
100
AcDbEntity
  8
2
100
AcDbDimension
  2
*D3
 10
48.99999999999997
 20
45.0
 30
0.0
 11
64.99999999999997
 21
45.0
 31
0.0
 70
   160
 71
     5
 42
32.00000000000001
  3
AM_DIN
100
AcDbAlignedDimension
 13
80.99999999999999
 23
6.75
 33
0.0
 14
48.99999999999997
 24
9.098999999999996
 34
0.0
100
AcDbRotatedDimension
1001
ACAD
1000
DSTYLE
1002
{
1070
    78
1070
     8
1002
}
  0
DIMENSION
  5
14B3
102
{ACAD_XDICTIONARY
360
14C0
102
}
102
{ACAD_REACTORS
330
14CA
102
}
330
18
100
AcDbEntity
  8
2
100
AcDbDimension
  2
*D4
 10
17.00000000000003
 20
60.0
 30
0.0
 11
49.00000000000002
 21
60.0
 31
0.0
 70
   160
 71
     5
 42
63.99999999999995
  3
AM_DIN
100
AcDbAlignedDimension
 13
80.99999999999999
 23
6.75
 33
0.0
 14
17.00000000000003
 24
6.749999999999992
 34
0.0
100
AcDbRotatedDimension
1001
ACAD
1000
DSTYLE
1002
{
1070
    78
1070
     8
1002
}
  0
DIMENSION
  5
14CB
102
{ACAD_XDICTIONARY
360
14D8
102
}
102
{ACAD_REACTORS
330
14E2
102
}
330
18
100
AcDbEntity
  8
2
100
AcDbDimension
  2
*D5
 10
0.0000000000000046
 20
75.0
 30
0.0
 11
40.49999999999999
 21
75.0
 31
0.0
 70
   160
 71
     5
 42
80.99999999999999
  3
AM_DIN
100
AcDbAlignedDimension
 13
80.99999999999999
 23
6.75
 33
0.0
 14
0.0
 24
0.0
 34
0.0
100
AcDbRotatedDimension
1001
ACAD
1000
DSTYLE
1002
{
1070
    78
1070
     8
1002
}
  0
DIMENSION
  5
14FE
102
{ACAD_XDICTIONARY
360
150B
102
}
102
{ACAD_REACTORS
330
1515
102
}
330
18
100
AcDbEntity
  8
SK2
100
AcDbDimension
  2
*D6
 10
-43.99999999999999
 20
90.0
 30
0.0
 11
18.49999999999999
 21
92.81148981026001
 31
0.0
 70
    32
 71
     5
 42
125.0
  3
AM_DIN
100
AcDbAlignedDimension
 13
80.99999999999999
 23
6.75
 33
0.0
 14
-44.0
 24
5.5
 34
0.0
100
AcDbRotatedDimension
1001
ACAD
1000
DSTYLE
1002
{
1070
    78
1070
     8
1002
}
  0
DIMENSION
  5
151D
102
{ACAD_XDICTIONARY
360
152A
102
}
102
{ACAD_REACTORS
330
1534
102
}
330
18
100
AcDbEntity
  8
SK2
100
AcDbDimension
  2
*D7
 10
-44.0
 20
-30.0
 30
0.0
 11
15.0
 21
-30.0
 31
0.0
 70
   160
 71
     5
 42
113.8353989868999
  3
AM_DIN
100
AcDbAlignedDimension
 13
69.83539898689996
 23
9.098999999999996
 33
0.0
 14
-44.0
 24
-5.5
 34
0.0
100
AcDbRotatedDimension
1001
ACAD
1000
DSTYLE
1002
{
1070
    78
1070
     8
1002
}
  0
DIMENSION
  5
163C
102
{ACAD_XDICTIONARY
360
1649
102
}
102
{ACAD_REACTORS
330
1653
102
}
330
18
100
AcDbEntity
  8
SK2
100
AcDbDimension
  2
*D8
 10
-60.00000000000001
 20
-7.000000000032686
 30
0.0
 11
-60.0
 21
25.0
 31
0.0
 70
   160
  1
%%C<>
 71
     5
 42
14.00000000003268
  3
AM_DIN
100
AcDbAlignedDimension
 13
-27.5336310473
 23
7.0
 33
0.0
 14
-27.5336310473
 24
-7.000000000032677
 34
0.0
 50
90.0
100
AcDbRotatedDimension
1001
ACAD_DSTYLE_DIMINSPECT
1070
   396
1000
100%
1070
   395
1000

1070
   394
1070
    33
1070
   393
1070
     0
1001
ACAD
1000
DSTYLE
1002
{
1070
    78
1070
     8
1002
}
1001
ACAD_DSTYLE_DIMFLIPARROW_WHICH_SYMBOL
1070
   386
1070
     3
  0
VIEWPORT
  5
B5D
102
{ACAD_XDICTIONARY
360
B5E
102
}
330
B56
100
AcDbEntity
 67
     1
  8
0
100
AcDbViewport
 10
148.5000046679628
 20
105.0000033005797
 30
0.0
 40
499.9913678472733
 41
211.585230127294
 68
     1
 69
     1
 12
148.5000046679628
 22
105.0000033005797
 13
0.0
 23
0.0
 14
10.0
 24
10.0
 15
10.0
 25
10.0
 16
0.0
 26
0.0
 36
1.0
 17
0.0
 27
0.0
 37
0.0
 42
50.0
 43
0.0
 44
0.0
 45
211.585230127294
 50
0.0
 51
0.0
 72
  2000
 90
   819232
  1

281
     0
 71
     1
 74
     0
110
0.0
120
0.0
130
0.0
111
1.0
121
0.0
131
0.0
112
0.0
122
1.0
132
0.0
 79
     0
146
0.0
  0
VIEWPORT
  5
B61
102
{ACAD_XDICTIONARY
360
B62
102
}
330
B56
100
AcDbEntity
 67
     1
  8
1
100
AcDbViewport
 10
148.5
 20
105.0
 30
0.0
 40
297.0
 41
210.0
 68
     2
 69
     2
 12
30.49399710306193
 22
30.59799292776511
 13
0.0
 23
0.0
 14
5.0
 24
5.0
 15
5.0
 25
5.0
 16
0.0
 26
0.0
 36
1.0
 17
0.0
 27
0.0
 37
0.0
 42
50.0
 43
0.0
 44
0.0
 45
137.2429548082472
 50
0.0
 51
0.0
 72
  2000
 90
   819232
  1

281
     0
 71
     1
 74
     0
110
0.0
120
0.0
130
0.0
111
1.0
121
0.0
131
0.0
112
0.0
122
1.0
132
0.0
 79
     0
146
0.0
1001
GENIUS_GENODEF_13
1002
{
1000
HIER
1070
     0
1002
}
1002
{
1000
MANEDIT
1070
     0
1002
}
1002
{
1000
NOSEL
1070
     0
1002
}
1002
{
1000
BEHIND
1070
     0
1002
}
1002
{
1000
OTHER
1070
     0
1002
}
1002
{
1000
REACTOR
1002
}
1001
GENIUS_GENOBJ-N-SDF_13
1002
{
1000
OWNER
1000
GEN
1002
}
1001
GENIUS_GENSCREG_15
1000
PF
1040
0.0
1000
DF
1040
0.0
1000
MIN
1011
0.0
1021
0.0
1031
0.0
1000
MAX
1011
297.0
1021
210.0
1031
0.0
1000
FLAGS
1070
     4
  0
ENDSEC
  0
SECTION
  2
OBJECTS
  0
DICTIONARY
  5
C
330
0
100
AcDbDictionary
281
     1
  3
ACAD_2007HEADERVARS_RT
350
1D48
  3
ACAD_BACKGROUND
350
B0F
  3
ACAD_CIP_PREVIOUS_PRODUCT_INFO
350
CF7
  3
ACAD_COLOR
350
387
  3
ACAD_DETAILVIEWSTYLE
350
CEF
  3
ACAD_FIELDLIST
350
D13
  3
ACAD_GROUP
350
D
  3
ACAD_LAYOUT
350
301
  3
ACAD_MATERIAL
350
386
  3
ACAD_MLEADERSTYLE
350
46F
  3
ACAD_MLINESTYLE
350
E
  3
ACAD_PLOTSETTINGS
350
302
  3
ACAD_PLOTSTYLENAME
350
2FF
  3
ACAD_SCALELIST
350
44D
  3
ACAD_SECTIONVIEWSTYLE
350
CED
  3
ACAD_TABLESTYLE
350
388
  3
ACAD_VISUALSTYLE
350
3F2
  3
ACDB_RECOMPOSE_DATA
350
1D46
  3
AcDbVariableDictionary
350
357
  3
AcmDictionary
350
4D1
  3
AMG
350
478
  3
AMGSNAPSETTINGS
350
51E
  3
APPDATA
350
E9F
  3
DWGPROPS
350
1D47
  0
DICTIONARY
  5
A45
330
8
100
AcDbDictionary
280
     1
281
     1
  0
DICTIONARY
  5
43C
330
2
100
AcDbDictionary
280
     1
281
     1
  3
ACAD_LAYERSTATES
360
567
  3
ACLYDICTIONARY
360
EA4
  3
AMLAYER_GROUPCOLORS
360
E31
  0
DICTIONARY
  5
12FE
330
F
100
AcDbDictionary
280
     1
281
     1
  3
ADSK_XREC_LAYER_RECONCILED
360
12FF
  0
DICTIONARY
  5
1300
330
23
100
AcDbDictionary
280
     1
281
     1
  3
ADSK_XREC_LAYER_RECONCILED
360
1301
  0
DICTIONARY
  5
1302
330
24
100
AcDbDictionary
280
     1
281
     1
  3
ADSK_XREC_LAYER_RECONCILED
360
1303
  0
DICTIONARY
  5
1304
330
25
100
AcDbDictionary
280
     1
281
     1
  3
ADSK_XREC_LAYER_RECONCILED
360
1305
  0
DICTIONARY
  5
1306
330
27
100
AcDbDictionary
280
     1
281
     1
  3
ADSK_XREC_LAYER_RECONCILED
360
1307
  0
DICTIONARY
  5
130C
330
2A
100
AcDbDictionary
280
     1
281
     1
  3
ADSK_XREC_LAYER_RECONCILED
360
130D
  0
DICTIONARY
  5
130E
330
2B
100
AcDbDictionary
280
     1
281
     1
  3
ADSK_XREC_LAYER_RECONCILED
360
130F
  0
DICTIONARY
  5
1310
330
2E
100
AcDbDictionary
280
     1
281
     1
  3
ADSK_XREC_LAYER_RECONCILED
360
1311
  0
DICTIONARY
  5
EEC
330
EEB
100
AcDbDictionary
280
     1
281
     1
  3
ADSK_XREC_LAYER_RECONCILED
360
1312
  0
DICTIONARY
  5
EEE
330
EED
100
AcDbDictionary
280
     1
281
     1
  3
ADSK_XREC_LAYER_RECONCILED
360
1313
  0
DICTIONARY
  5
DB1
330
18
100
AcDbDictionary
280
     1
281
     1
  3
ACAD_SORTENTS
360
DB2
  3
DIM_BOUNDING_BOXES_V1
360
EA6
  0
DICTIONARY
  5
1337
330
132A
100
AcDbDictionary
280
     1
281
     1
  3
ACAD_DIMASSOC
360
1341
  0
DICTIONARY
  5
1374
330
1367
100
AcDbDictionary
280
     1
281
     1
  3
ACAD_DIMASSOC
360
137E
  0
DICTIONARY
  5
1397
330
1389
100
AcDbDictionary
280
     1
281
     1
  3
ACAD_DIMASSOC
360
13A2
  0
DICTIONARY
  5
14A8
330
149B
100
AcDbDictionary
280
     1
281
     1
  3
ACAD_DIMASSOC
360
14B2
  0
DICTIONARY
  5
14C0
330
14B3
100
AcDbDictionary
280
     1
281
     1
  3
ACAD_DIMASSOC
360
14CA
  0
DICTIONARY
  5
14D8
330
14CB
100
AcDbDictionary
280
     1
281
     1
  3
ACAD_DIMASSOC
360
14E2
  0
DICTIONARY
  5
150B
330
14FE
100
AcDbDictionary
280
     1
281
     1
  3
ACAD_DIMASSOC
360
1515
  0
DICTIONARY
  5
152A
330
151D
100
AcDbDictionary
280
     1
281
     1
  3
ACAD_DIMASSOC
360
1534
  0
DICTIONARY
  5
1649
330
163C
100
AcDbDictionary
280
     1
281
     1
  3
ACAD_DIMASSOC
360
1653
  0
DICTIONARY
  5
B5E
330
B5D
100
AcDbDictionary
280
     1
281
     1
  3
ACAD_XREC_ROUNDTRIP
360
1D76
  3
ASDK_XREC_ANNOTATION_SCALE_INFO
360
B5F
  0
DICTIONARY
  5
B62
330
B61
100
AcDbDictionary
280
     1
281
     1
  3
ACAD_XREC_ROUNDTRIP
360
1D77
  3
ASDK_XREC_ANNOTATION_SCALE_INFO
360
B63
  0
DICTIONARY
  5
1D48
102
{ACAD_REACTORS
330
C
102
}
330
C
100
AcDbDictionary
281
     1
  3
DIMARCSYM
350
1D49
  3
DIMJOGANG
350
1D4A
  0
DICTIONARY
  5
B0F
102
{ACAD_REACTORS
330
C
102
}
330
C
100
AcDbDictionary
281
     1
  0
XRECORD
  5
CF7
102
{ACAD_REACTORS
330
C
102
}
330
C
100
AcDbXrecord
280
     1
300
AMECH_PP
300
2020
300
87229AMECH_PP_2020_0F
  0
DICTIONARY
  5
387
102
{ACAD_REACTORS
330
C
102
}
330
C
100
AcDbDictionary
281
     1
  0
DICTIONARY
  5
CEF
102
{ACAD_REACTORS
330
C
102
}
330
C
100
AcDbDictionary
281
     1
  3
Metric50
350
CF0
  0
FIELDLIST
  5
D13
102
{ACAD_REACTORS
330
C
102
}
330
C
100
AcDbIdSet
 90
        0
100
AcDbFieldList
  0
DICTIONARY
  5
D
102
{ACAD_REACTORS
330
C
102
}
330
C
100
AcDbDictionary
281
     1
  0
DICTIONARY
  5
301
102
{ACAD_REACTORS
330
C
102
}
330
C
100
AcDbDictionary
281
     1
  3
Layout1
350
B57
  3
Model
350
303
  0
DICTIONARY
  5
386
102
{ACAD_REACTORS
330
C
102
}
330
C
100
AcDbDictionary
281
     1
  3
ByBlock
350
3F0
  3
ByLayer
350
3EF
  3
Global
350
3F1
  0
DICTIONARY
  5
46F
102
{ACAD_REACTORS
330
C
102
}
330
C
100
AcDbDictionary
281
     1
  3
Standard
350
470
  0
DICTIONARY
  5
E
102
{ACAD_REACTORS
330
C
102
}
330
C
100
AcDbDictionary
281
     1
  3
STANDARD
350
1B
  0
DICTIONARY
  5
302
102
{ACAD_REACTORS
330
C
102
}
330
C
100
AcDbDictionary
281
     1
  3
DWG To PDF A4 - landscape
350
7EF
  3
DWG To PDF A4 - portrait
350
7F8
  0
ACDBDICTIONARYWDFLT
  5
2FF
102
{ACAD_REACTORS
330
C
102
}
330
C
100
AcDbDictionary
281
     1
  3
Normal
350
300
100
AcDbDictionaryWithDefault
340
300
  0
DICTIONARY
  5
44D
102
{ACAD_REACTORS
330
C
102
}
330
C
100
AcDbDictionary
281
     1
  3
A0
350
BFC
  3
A1
350
BFD
  3
A2
350
BFE
  3
A3
350
BFF
  3
A4
350
C00
  3
A5
350
C01
  3
A6
350
44E
  3
A7
350
C02
  3
A8
350
C03
  3
A9
350
C04
  3
B0
350
C05
  3
B1
350
C06
  3
B2
350
C07
  0
DICTIONARY
  5
CED
102
{ACAD_REACTORS
330
C
102
}
330
C
100
AcDbDictionary
281
     1
  3
Metric50
350
CEE
  0
DICTIONARY
  5
388
102
{ACAD_REACTORS
330
C
102
}
330
C
100
AcDbDictionary
281
     1
  3
Standard
350
389
  0
DICTIONARY
  5
3F2
102
{ACAD_REACTORS
330
C
102
}
330
C
100
AcDbDictionary
281
     1
  3
2dWireframe
350
3F8
  3
3D Hidden
350
3FA
  3
3dWireframe
350
3F9
  3
Basic
350
3F7
  3
Brighten
350
3FE
  3
ColorChange
350
402
  3
Conceptual
350
3FB
  3
Dim
350
3FD
  3
EdgeColorOff
350
BDF
  3
Facepattern
350
401
  3
Flat
350
3F3
  3
FlatWithEdges
350
3F4
  3
Gouraud
350
3F5
  3
GouraudWithEdges
350
3F6
  3
Hidden
350
CE7
  3
JitterOff
350
BDD
  3
Linepattern
350
400
  3
OverhangOff
350
BDE
  3
Realistic
350
3FC
  3
Shaded
350
CEC
  3
Shaded with edges
350
CEB
  3
Shades of Gray
350
CE8
  3
Sketchy
350
CE9
  3
Thicken
350
3FF
  3
Wireframe
350
CE6
  3
X-Ray
350
CEA
  0
XRECORD
  5
1D46
102
{ACAD_REACTORS
330
C
102
}
330
C
100
AcDbXrecord
280
     1
 90
        1
330
389
  0
DICTIONARY
  5
357
102
{ACAD_REACTORS
330
C
102
}
330
C
100
AcDbDictionary
281
     1
  3
CANNOSCALE
350
57C
  3
CMLEADERSTYLE
350
57A
  3
CTABLESTYLE
350
38E
  3
CVIEWDETAILSTYLE
350
D2C
  3
CVIEWSECTIONSTYLE
350
D2D
  3
DIMASSOC
350
359
  3
HIDETEXT
350
358
  3
INDEXCTL
350
ACC
  3
LAYEREVAL
350
BF1
  3
LAYERNOTIFY
350
BF2
  3
LIGHTINGUNITS
350
57D
  3
MSLTSCALE
350
57B
  3
SOLIDHIST
350
156C
  3
SORTENTS
350
ACB
  3
XCLIPFRAME
350
1D44
  0
DICTIONARY
  5
4D1
102
{ACAD_REACTORS
330
C
102
}
330
C
100
AcDbDictionary
281
     1
  3
AcmStdDictionary
350
4DC
  3
AMDTSECTSYM_ARROWCOLOR
350
4F3
  0
DICTIONARY
  5
478
102
{ACAD_REACTORS
330
C
102
}
330
C
100
AcDbDictionary
281
     1
  0
DICTIONARY
  5
51E
102
{ACAD_REACTORS
330
C
102
}
330
C
100
AcDbDictionary
281
     1
  0
DICTIONARY
  5
E9F
102
{ACAD_REACTORS
330
C
102
}
330
C
100
AcDbDictionary
281
     1
  0
XRECORD
  5
1D47
102
{ACAD_REACTORS
330
C
102
}
330
C
100
AcDbXrecord
280
     1
  1
DWGPROPS COOKIE
  2

  3

  4
Philippe Vogel
  6
Secotools DIN Template metric
  7

  8
inpumpadp
  9

300
=
301
=
302
=
303
=
304
=
305
=
306
=
307
=
308
=
309
=
 40
0.063900462962963
 41
2460364.77318287
 42
2460446.481134259
  1
HTTP://WWW.SECOTOOLS.COM/
 90
        0
  0
DICTIONARY
  5
567
102
{ACAD_REACTORS
330
43C
102
}
330
43C
100
AcDbDictionary
281
     1
  3
BMG3.0
350
8E9
  0
DICTIONARY
  5
EA4
102
{ACAD_REACTORS
330
43C
102
}
330
43C
100
AcDbDictionary
281
     1
1001
ACAD
1000
<All
  0
DICTIONARY
  5
E31
102
{ACAD_REACTORS
330
43C
102
}
330
43C
100
AcDbDictionary
280
     1
281
     1
  0
XRECORD
  5
12FF
102
{ACAD_REACTORS
330
12FE
102
}
330
12FE
100
AcDbXrecord
280
     1
290
     1
  0
XRECORD
  5
1301
102
{ACAD_REACTORS
330
1300
102
}
330
1300
100
AcDbXrecord
280
     1
290
     1
  0
XRECORD
  5
1303
102
{ACAD_REACTORS
330
1302
102
}
330
1302
100
AcDbXrecord
280
     1
290
     1
  0
XRECORD
  5
1305
102
{ACAD_REACTORS
330
1304
102
}
330
1304
100
AcDbXrecord
280
     1
290
     1
  0
XRECORD
  5
1307
102
{ACAD_REACTORS
330
1306
102
}
330
1306
100
AcDbXrecord
280
     1
290
     1
  0
XRECORD
  5
130D
102
{ACAD_REACTORS
330
130C
102
}
330
130C
100
AcDbXrecord
280
     1
290
     1
  0
XRECORD
  5
130F
102
{ACAD_REACTORS
330
130E
102
}
330
130E
100
AcDbXrecord
280
     1
290
     1
  0
XRECORD
  5
1311
102
{ACAD_REACTORS
330
1310
102
}
330
1310
100
AcDbXrecord
280
     1
290
     1
  0
XRECORD
  5
1312
102
{ACAD_REACTORS
330
EEC
102
}
330
EEC
100
AcDbXrecord
280
     1
290
     1
  0
XRECORD
  5
1313
102
{ACAD_REACTORS
330
EEE
102
}
330
EEE
100
AcDbXrecord
280
     1
290
     1
  0
SORTENTSTABLE
  5
DB2
102
{ACAD_REACTORS
330
DB1
102
}
330
DB1
100
AcDbSortentsTable
330
18
331
131B
  5
12F4
331
1321
  5
12FB
  0
DICTIONARY
  5
EA6
102
{ACAD_REACTORS
330
DB1
102
}
330
DB1
100
AcDbDictionary
281
     1
  3
DBBIsEnabled
350
EAE
  3
DBBIsVisible
350
EAF
  0
DIMASSOC
  5
1341
102
{ACAD_REACTORS
330
1337
102
}
330
1337
100
AcDbDimAssoc
330
132A
 90
        1
 70
     0
 71
     0
  1
AcDbOsnapPointRef
 72
     1
331
131B
 73
     2
 91
        3
 40
1.0
 10
0.0
 20
0.0
 30
2.000000000000000E+50
 75
     0
  0
DIMASSOC
  5
137E
102
{ACAD_REACTORS
330
1374
102
}
330
1374
100
AcDbDimAssoc
330
1367
 90
        1
 70
     0
 71
     0
  1
AcDbOsnapPointRef
 72
     1
331
131B
 73
     2
 91
        4
 40
0.9999999999999998
 10
0.0
 20
0.0
 30
2.000000000000000E+50
 75
     0
  0
DIMASSOC
  5
13A2
102
{ACAD_REACTORS
330
1397
102
}
330
1397
100
AcDbDimAssoc
330
1389
 90
        3
 70
     0
 71
     0
  1
AcDbOsnapPointRef
 72
     1
331
131B
 73
     2
 91
        2
 40
1.0
 10
0.0
 20
0.0
 30
2.000000000000000E+50
 75
     0
  1
AcDbOsnapPointRef
 72
     1
331
131B
 73
     2
 91
        4
 40
0.9999999999999998
 10
0.0
 20
0.0
 30
2.000000000000000E+50
 75
     0
  0
DIMASSOC
  5
14B2
102
{ACAD_REACTORS
330
14A8
102
}
330
14A8
100
AcDbDimAssoc
330
149B
 90
        3
 70
     0
 71
     0
  1
AcDbOsnapPointRef
 72
     1
331
131B
 73
     2
 91
        2
 40
1.0
 10
0.0
 20
0.0
 30
2.000000000000000E+50
 75
     0
  1
AcDbOsnapPointRef
 72
     1
331
1321
 73
     2
 91
        4
 40
1.0
 10
0.0
 20
0.0
 30
2.000000000000000E+50
 75
     0
  0
DIMASSOC
  5
14CA
102
{ACAD_REACTORS
330
14C0
102
}
330
14C0
100
AcDbDimAssoc
330
14B3
 90
        3
 70
     0
 71
     0
  1
AcDbOsnapPointRef
 72
     1
331
131B
 73
     2
 91
        2
 40
1.0
 10
0.0
 20
0.0
 30
2.000000000000000E+50
 75
     0
  1
AcDbOsnapPointRef
 72
     6
331
1321
 73
     2
 91
        2
 40
1.0
 10
0.0
 20
0.0
 30
0.0
332
10FA
 74
     2
 92
        0
 75
     0
  0
DIMASSOC
  5
14E2
102
{ACAD_REACTORS
330
14D8
102
}
330
14D8
100
AcDbDimAssoc
330
14CB
 90
        3
 70
     0
 71
     0
  1
AcDbOsnapPointRef
 72
     1
331
131B
 73
     2
 91
        2
 40
1.0
 10
0.0
 20
0.0
 30
2.000000000000000E+50
 75
     0
  1
AcDbOsnapPointRef
 72
     1
331
1321
 73
     2
 91
        6
 40
1.0
 10
0.0
 20
0.0
 30
2.000000000000000E+50
 75
     0
  0
DIMASSOC
  5
1515
102
{ACAD_REACTORS
330
150B
102
}
330
150B
100
AcDbDimAssoc
330
14FE
 90
        3
 70
     0
 71
     0
  1
AcDbOsnapPointRef
 72
     1
331
131B
 73
     2
 91
        2
 40
1.0
 10
0.0
 20
0.0
 30
2.000000000000000E+50
 75
     0
  1
AcDbOsnapPointRef
 72
    13
331
12D8
 73
     2
 91
        0
 40
0.0
 10
0.0
 20
0.0
 30
2.000000000000000E+50
 75
     0
  0
DIMASSOC
  5
1534
102
{ACAD_REACTORS
330
152A
102
}
330
152A
100
AcDbDimAssoc
330
151D
 90
        3
 70
     0
 71
     0
  1
AcDbOsnapPointRef
 72
     1
331
131B
 73
     2
 91
        4
 40
0.9999999999999998
 10
0.0
 20
0.0
 30
2.000000000000000E+50
 75
     0
  1
AcDbOsnapPointRef
 72
     1
331
12DA
 73
     2
 91
        0
 40
1.0
 10
0.0
 20
0.0
 30
2.000000000000000E+50
 75
     0
  0
DIMASSOC
  5
1653
102
{ACAD_REACTORS
330
1649
102
}
330
1649
100
AcDbDimAssoc
330
163C
 90
        3
 70
     0
 71
     0
  1
AcDbOsnapPointRef
 72
    13
331
12CA
 73
     2
 91
        0
 40
0.0
 10
0.0
 20
0.0
 30
2.000000000000000E+50
 75
     0
  1
AcDbOsnapPointRef
 72
    11
331
12C9
 73
     2
 91
        0
 40
1.0
 10
0.0
 20
0.0
 30
0.0
332
1124
 74
     2
 92
        0
 75
     0
  0
XRECORD
  5
1D76
102
{ACAD_REACTORS
330
B5E
102
}
330
B5E
100
AcDbXrecord
280
     1
102
SHADEPLOT
 70
     0
  0
XRECORD
  5
B5F
102
{ACAD_REACTORS
330
B5E
102
}
330
B5E
100
AcDbXrecord
280
     1
 90
        1
340
44E
  0
XRECORD
  5
1D77
102
{ACAD_REACTORS
330
B62
102
}
330
B62
100
AcDbXrecord
280
     1
102
SHADEPLOT
 70
     0
  0
XRECORD
  5
B63
102
{ACAD_REACTORS
330
B62
102
}
330
B62
100
AcDbXrecord
280
     1
 90
        1
340
44E
  0
XRECORD
  5
1D49
102
{ACAD_REACTORS
330
1D48
102
}
330
1D48
100
AcDbXrecord
280
     1
 70
     1
  0
XRECORD
  5
1D4A
102
{ACAD_REACTORS
330
1D48
102
}
330
1D48
100
AcDbXrecord
280
     1
 40
1.570796326794896
  0
ACDBDETAILVIEWSTYLE
  5
CF0
102
{ACAD_XDICTIONARY
360
1D8E
102
}
102
{ACAD_REACTORS
330
CEF
102
}
330
CEF
100
AcDbModelDocViewStyle
 70
     0
  3
Metric50
290
     0
100
AcDbDetailViewStyle
 70
     0
 71
     0
 90
        3
 71
     1
340
10
 40
5.0
340
0
 40
5.0
300

 40
0.0
280
     1
 71
     2
340
14
 90
       25
 71
     3
340
10
 40
5.0
 90
        0
 40
15.0
 90
        1
300
%<\AcVar ViewDetailId>% (%<\AcVar ViewScale \f "%sn">%)
 71
     4
340
14
 90
       25
340
14
 90
       25
280
     0
  0
LAYOUT
  5
B57
102
{ACAD_XDICTIONARY
360
1D74
102
}
102
{ACAD_REACTORS
330
301
102
}
330
301
100
AcDbPlotSettings
  1

  2
DWG To PDF.pc3
  4
UserDefinedMetric (297.00 x 210.00mm)
  6

 40
0.0
 41
0.0
 42
0.0
 43
0.0
 44
297.0
 45
210.0
 46
0.0
 47
0.0
 48
0.0
 49
0.0
140
0.0
141
0.0
142
1.0
143
1.0
 70
   688
 72
     1
 73
     0
 74
     5
  7
monochrome.ctb
 75
    16
147
1.0
148
0.0
149
0.0
100
AcDbLayout
  1
Layout1
 70
     1
 71
     1
 10
0.0
 20
0.0
 11
297.0
 21
210.0
 12
0.0
 22
0.0
 32
0.0
 14
-0.0181221163693408
 24
-0.0128136176349472
 34
-0.0000000349181948
 15
297.018131452295
 25
210.0128202187944
 35
0.0000000814935747
146
0.0
 13
0.0
 23
0.0
 33
0.0
 16
1.0
 26
0.0
 36
0.0
 17
0.0
 27
1.0
 37
0.0
 76
     0
330
B56
331
B5D
1001
ACAD_PSEXT
1000
DWG To PDF.pc3
1000
PDF
1000
Datei
1000

1070
     0
  0
LAYOUT
  5
303
102
{ACAD_XDICTIONARY
360
1D4B
102
}
102
{ACAD_REACTORS
330
301
102
}
330
301
100
AcDbPlotSettings
  1

  2
Default Windows System Printer.pc3
  4
A4
  6

 40
4.233333110809326
 41
4.995328426361083
 42
4.233322143554686
 43
4.995330810546875
 44
209.9733276367186
 45
296.9683227539062
 46
0.0
 47
97.55556227323861
 48
0.0
 49
0.0
140
0.0
141
0.0
142
1.0
143
6.090554118624327
 70
  3764
 72
     1
 73
     1
 74
     1
  7
monochrome.ctb
 75
     0
147
0.164188673234525
148
197.0402205952446
149
599.055175279564
100
AcDbLayout
  1
Model
 70
     1
 71
     0
 10
0.0
 20
0.0
 11
12.0
 21
9.0
 12
0.0
 22
0.0
 32
0.0
 14
0.0
 24
0.0
 34
0.0
 15
0.0
 25
0.0
 35
0.0
146
0.0
 13
0.0
 23
0.0
 33
0.0
 16
1.0
 26
0.0
 36
0.0
 17
0.0
 27
1.0
 37
0.0
 76
     0
330
18
331
AD1
1001
ACAD_PSEXT
1000
Default Windows System Printer.pc3
1000
HP LaserJet 5100 PCL 6
1000
HPLaserJet5100Series
1000

1070
     0
  0
MATERIAL
  5
3F0
102
{ACAD_XDICTIONARY
360
15DD
102
}
102
{ACAD_REACTORS
330
386
102
}
330
386
100
AcDbMaterial
  1
ByBlock
 73
     1
 78
     1
172
     1
176
     1
270
     1
274
     1
  0
MATERIAL
  5
3EF
102
{ACAD_XDICTIONARY
360
15DB
102
}
102
{ACAD_REACTORS
330
386
102
}
330
386
100
AcDbMaterial
  1
ByLayer
 73
     1
 78
     1
172
     1
176
     1
270
     1
274
     1
  0
MATERIAL
  5
3F1
102
{ACAD_XDICTIONARY
360
15DF
102
}
102
{ACAD_REACTORS
330
386
102
}
330
386
100
AcDbMaterial
  1
Global
 73
     1
 78
     1
172
     1
176
     1
270
     1
274
     1
  0
MLEADERSTYLE
  5
470
102
{ACAD_XDICTIONARY
360
1D6E
102
}
102
{ACAD_REACTORS
330
46F
102
}
330
46F
100
AcDbMLeaderStyle
170
     2
171
     1
172
     0
 90
        2
 40
0.0
 41
0.0
173
     1
 91
-1056964608
340
12
 92
       -2
290
     1
 42
2.0
291
     1
 43
0.36
  3
Standard
 44
5.0
300

342
10
174
     0
178
     6
175
     1
176
     0
 93
-1056964608
 45
3.5
292
     0
297
     0
 46
4.0
 94
-1056964608
 47
1.0
 49
1.0
140
1.0
293
     1
141
0.0
294
     1
177
     0
142
1.0
295
     0
296
     0
143
0.125
1001
ACAD_MLEADERVER
1070
     2
  0
MLINESTYLE
  5
1B
102
{ACAD_REACTORS
330
E
102
}
330
E
100
AcDbMlineStyle
  2
STANDARD
 70
     0
  3

 62
     0
 51
90.0
 52
90.0
 71
     2
 49
0.5
 62
   256
  6
BYLAYER
 49
-0.5
 62
   256
  6
BYLAYER
  0
PLOTSETTINGS
  5
7EF
102
{ACAD_XDICTIONARY
360
1D70
102
}
102
{ACAD_REACTORS
330
302
102
}
330
302
100
AcDbPlotSettings
  1
DWG To PDF A4 - landscape
  2
DWG To PDF.pc3
  4
ISO_expand_A4_(297.00_x_210.00_MM)
  6

 40
5.793749809265136
 41
10.79374980926513
 42
5.79376220703125
 43
10.79374694824219
 44
297.0
 45
210.0
 46
99.7577788938406
 47
0.0
 48
0.0
 49
0.0
140
0.0
141
0.0
142
1.0
143
6.513831472368249
 70
 11956
 72
     1
 73
     0
 74
     1
  7
monochrome.ctb
 75
     0
147
0.153519476861201
148
197.0402205952446
149
599.055175279564
1001
ACAD_PSEXT
1000
DWG To PDF.pc3
1000
PDF
1000
Datei
1000

1070
     0
  0
PLOTSETTINGS
  5
7F8
102
{ACAD_XDICTIONARY
360
1D72
102
}
102
{ACAD_REACTORS
330
302
102
}
330
302
100
AcDbPlotSettings
  1
DWG To PDF A4 - portrait
  2
DWG To PDF.pc3
  4
ISO_expand_A4_(210.00_x_297.00_MM)
  6

 40
5.793749809265136
 41
10.79374980926513
 42
5.793746948242187
 43
10.79376220703125
 44
210.0
 45
297.0
 46
36.42621619811505
 47
0.0
 48
0.0
 49
0.0
140
0.0
141
0.0
142
1.0
143
4.456178811620381
 70
 11956
 72
     1
 73
     0
 74
     1
  7
monochrome.ctb
 75
     0
147
0.2244075119679441
148
197.0402205952446
149
599.055175279564
1001
ACAD_PSEXT
1000
DWG To PDF.pc3
1000
PDF
1000
Datei
1000

1070
     0
  0
ACDBPLACEHOLDER
  5
300
102
{ACAD_REACTORS
330
2FF
102
}
330
2FF
  0
SCALE
  5
BFC
102
{ACAD_REACTORS
330
44D
102
}
330
44D
100
AcDbScale
 70
     0
300
100:1
140
100.0
141
1.0
290
     0
  0
SCALE
  5
BFD
102
{ACAD_REACTORS
330
44D
102
}
330
44D
100
AcDbScale
 70
     0
300
50:1
140
50.0
141
1.0
290
     0
  0
SCALE
  5
BFE
102
{ACAD_REACTORS
330
44D
102
}
330
44D
100
AcDbScale
 70
     0
300
20:1
140
20.0
141
1.0
290
     0
  0
SCALE
  5
BFF
102
{ACAD_REACTORS
330
44D
102
}
330
44D
100
AcDbScale
 70
     0
300
10:1
140
10.0
141
1.0
290
     0
  0
SCALE
  5
C00
102
{ACAD_REACTORS
330
44D
102
}
330
44D
100
AcDbScale
 70
     0
300
5:1
140
5.0
141
1.0
290
     0
  0
SCALE
  5
C01
102
{ACAD_REACTORS
330
44D
102
}
330
44D
100
AcDbScale
 70
     0
300
2:1
140
2.0
141
1.0
290
     0
  0
SCALE
  5
44E
102
{ACAD_REACTORS
330
44D
102
}
330
44D
100
AcDbScale
 70
     0
300
1:1
140
1.0
141
1.0
290
     1
  0
SCALE
  5
C02
102
{ACAD_REACTORS
330
44D
102
}
330
44D
100
AcDbScale
 70
     0
300
1:2
140
1.0
141
2.0
290
     0
  0
SCALE
  5
C03
102
{ACAD_REACTORS
330
44D
102
}
330
44D
100
AcDbScale
 70
     0
300
1:5
140
1.0
141
5.0
290
     0
  0
SCALE
  5
C04
102
{ACAD_REACTORS
330
44D
102
}
330
44D
100
AcDbScale
 70
     0
300
1:10
140
1.0
141
10.0
290
     0
  0
SCALE
  5
C05
102
{ACAD_REACTORS
330
44D
102
}
330
44D
100
AcDbScale
 70
     0
300
1:20
140
1.0
141
20.0
290
     0
  0
SCALE
  5
C06
102
{ACAD_REACTORS
330
44D
102
}
330
44D
100
AcDbScale
 70
     0
300
1:50
140
1.0
141
50.0
290
     0
  0
SCALE
  5
C07
102
{ACAD_REACTORS
330
44D
102
}
330
44D
100
AcDbScale
 70
     0
300
1:100
140
1.0
141
100.0
290
     0
  0
ACDBSECTIONVIEWSTYLE
  5
CEE
102
{ACAD_XDICTIONARY
360
1D8C
102
}
102
{ACAD_REACTORS
330
CED
102
}
330
CED
100
AcDbModelDocViewStyle
 70
     0
  3
Metric50
290
     0
100
AcDbSectionViewStyle
 70
     0
 71
     0
 90
      102
 71
     1
340
10
 40
5.0
340
0
340
0
 40
5.0
300
I, O, Q, S, X, Z
 40
10.0
 90
        0
 40
2.5
 90
        0
 71
     2
340
14
 90
       25
340
14
 90
       50
 40
5.0
 40
2.5
 40
5.0
 71
     3
340
10
 40
5.0
 90
        0
 40
15.0
 90
        1
300
%<\AcVar ViewSectionStartId>%-%<\AcVar ViewSectionEndId>% (%<\AcVar ViewScale \f "%sn">%)
 71
     4
300
ANSI31
 40
1.0
 90
        0
290
     0
290
     0
 90
        6
 40
0.0
 40
1.570796326794896
 40
0.2617993877991494
 40
1.308996938995747
 40
-0.2617993877991494
 40
1.832595714594044
  0
TABLESTYLE
  5
389
102
{ACAD_XDICTIONARY
360
15C8
102
}
102
{ACAD_REACTORS
330
388
102
}
330
388
100
AcDbTableStyle
  3
Standard
 70
     0
 71
     0
 40
1.5
 41
1.5
280
     0
281
     0
  7
STANDARD
140
4.5
170
     2
 62
     0
 63
     7
283
     0
274
    -2
284
     1
 64
     0
275
    -2
285
     1
 65
     0
276
    -2
286
     1
 66
     0
277
    -2
287
     1
 67
     0
278
    -2
288
     1
 68
     0
279
    -2
289
     1
 69
     0
  7
STANDARD 5 mm
140
6.0
170
     5
 62
     0
 63
     7
283
     0
274
    -2
284
     1
 64
     0
275
    -2
285
     1
 65
     0
276
    -2
286
     1
 66
     0
277
    -2
287
     1
 67
     0
278
    -2
288
     1
 68
     0
279
    -2
289
     1
 69
     0
  7
STANDARD
140
4.5
170
     5
 62
     0
 63
     7
283
     0
274
    -2
284
     1
 64
     0
275
    -2
285
     1
 65
     0
276
    -2
286
     1
 66
     0
277
    -2
287
     1
 67
     0
278
    -2
288
     1
 68
     0
279
    -2
289
     1
 69
     0
  0
VISUALSTYLE
  5
3F8
102
{ACAD_XDICTIONARY
360
1D58
102
}
102
{ACAD_REACTORS
330
3F2
102
}
330
3F2
100
AcDbVisualStyle
  2

 70
     4
 71
     0
 72
     2
 73
     0
 90
        0
 40
-0.6
 41
-30.0
 62
     5
 63
     7
 74
     1
 91
        4
 64
     7
 65
   257
 75
     1
175
     1
 42
1.0
 92
        0
 66
   257
 43
1.0
 76
     1
 77
     6
 78
     2
 67
     7
 79
     5
170
     0
171
     0
290
     0
174
     0
 93
        1
 44
0.0
173
     0
291
     0
 45
0.0
1001
ACAD
1000
AcDbSavedByObjectVersion
1070
     0
  0
VISUALSTYLE
  5
3FA
102
{ACAD_XDICTIONARY
360
1D5C
102
}
102
{ACAD_REACTORS
330
3F2
102
}
330
3F2
100
AcDbVisualStyle
  2

 70
     6
 71
     1
 72
     2
 73
     2
 90
        0
 40
-0.6
 41
-30.0
 62
     5
 63
     7
 74
     2
 91
        2
 64
     7
 65
   257
 75
     2
175
     1
 42
40.0
 92
        0
 66
   257
 43
1.0
 76
     1
 77
     6
 78
     2
 67
     7
 79
     3
170
     0
171
     0
290
     0
174
     0
 93
        1
 44
0.0
173
     0
291
     0
 45
0.0
1001
ACAD
1000
AcDbSavedByObjectVersion
1070
     0
  0
VISUALSTYLE
  5
3F9
102
{ACAD_XDICTIONARY
360
1D5A
102
}
102
{ACAD_REACTORS
330
3F2
102
}
330
3F2
100
AcDbVisualStyle
  2

 70
     5
 71
     0
 72
     2
 73
     0
 90
        0
 40
-0.6
 41
-30.0
 62
     5
 63
     7
 74
     1
 91
        4
 64
     7
 65
   257
 75
     1
175
     1
 42
1.0
 92
        0
 66
   257
 43
1.0
 76
     1
 77
     6
 78
     2
 67
     7
 79
     5
170
     0
171
     0
290
     0
174
     0
 93
        1
 44
0.0
173
     0
291
     0
 45
0.0
1001
ACAD
1000
AcDbSavedByObjectVersion
1070
     0
  0
VISUALSTYLE
  5
3F7
102
{ACAD_XDICTIONARY
360
1D56
102
}
102
{ACAD_REACTORS
330
3F2
102
}
330
3F2
100
AcDbVisualStyle
  2

 70
     7
 71
     1
 72
     0
 73
     1
 90
        0
 40
-0.6
 41
-30.0
 62
     5
 63
     7
 74
     0
 91
        4
 64
     7
 65
   257
 75
     1
175
     1
 42
1.0
 92
        8
 66
     7
 43
1.0
 76
     1
 77
     6
 78
     2
 67
     7
 79
     5
170
     0
171
     0
290
     0
174
     0
 93
        1
 44
0.0
173
     0
291
     1
 45
0.0
1001
ACAD
1000
AcDbSavedByObjectVersion
1070
     0
  0
VISUALSTYLE
  5
3FE
102
{ACAD_XDICTIONARY
360
1D64
102
}
102
{ACAD_REACTORS
330
3F2
102
}
330
3F2
100
AcDbVisualStyle
  2

 70
    12
 71
     2
 72
     2
 73
     0
 90
        0
 40
-0.6
 41
-30.0
 62
     5
 63
     7
 74
     1
 91
        4
 64
     7
 65
   257
 75
     1
175
     1
 42
1.0
 92
        8
 66
     7
 43
1.0
 76
     1
 77
     6
 78
     2
 67
     7
 79
     5
170
     0
171
     0
290
     0
174
     0
 93
        1
 44
50.0
173
     0
291
     1
 45
0.0
1001
ACAD
1000
AcDbSavedByObjectVersion
1070
     0
  0
VISUALSTYLE
  5
402
102
{ACAD_XDICTIONARY
360
1D6C
102
}
102
{ACAD_REACTORS
330
3F2
102
}
330
3F2
100
AcDbVisualStyle
  2

 70
    16
 71
     2
 72
     2
 73
     3
 90
        0
 40
-0.6
 41
-30.0
 62
     5
 63
     8
 74
     1
 91
        4
 64
     7
 65
   257
 75
     1
175
     1
 42
1.0
 92
        8
 66
     8
 43
1.0
 76
     1
 77
     6
 78
     2
 67
     7
 79
     5
170
     0
171
     0
290
     0
174
     0
 93
        1
 44
0.0
173
     0
291
     1
 45
0.0
1001
ACAD
1000
AcDbSavedByObjectVersion
1070
     0
  0
VISUALSTYLE
  5
3FB
102
{ACAD_XDICTIONARY
360
1D5E
102
}
102
{ACAD_REACTORS
330
3F2
102
}
330
3F2
100
AcDbVisualStyle
  2

 70
     9
 71
     3
 72
     2
 73
     0
 90
        0
 40
-0.6
 41
-30.0
 62
     5
 63
     7
 74
     2
 91
        2
 64
     7
 65
   257
 75
     1
175
     1
 42
40.0
 92
        8
 66
     7
 43
1.0
 76
     1
 77
     6
 78
     2
 67
     7
 79
     3
170
     0
171
     0
290
     0
174
     0
 93
        1
 44
0.0
173
     0
291
     0
 45
0.0
1001
ACAD
1000
AcDbSavedByObjectVersion
1070
     0
  0
VISUALSTYLE
  5
3FD
102
{ACAD_XDICTIONARY
360
1D62
102
}
102
{ACAD_REACTORS
330
3F2
102
}
330
3F2
100
AcDbVisualStyle
  2

 70
    11
 71
     2
 72
     2
 73
     0
 90
        0
 40
-0.6
 41
-30.0
 62
     5
 63
     7
 74
     1
 91
        4
 64
     7
 65
   257
 75
     1
175
     1
 42
1.0
 92
        8
 66
     7
 43
1.0
 76
     1
 77
     6
 78
     2
 67
     7
 79
     5
170
     0
171
     0
290
     0
174
     0
 93
        1
 44
-50.0
173
     0
291
     1
 45
0.0
1001
ACAD
1000
AcDbSavedByObjectVersion
1070
     0
  0
VISUALSTYLE
  5
BDF
102
{ACAD_XDICTIONARY
360
1D7C
102
}
102
{ACAD_REACTORS
330
3F2
102
}
330
3F2
100
AcDbVisualStyle
  2

 70
    22
 71
     2
 72
     2
 73
     0
 90
        0
 40
-0.6
 41
-30.0
 62
     5
 63
     7
 74
     1
 91
        4
 64
     7
 65
   257
 75
     1
175
     1
 42
1.0
 92
        8
 66
     7
 43
1.0
 76
     1
 77
     6
 78
     2
 67
     7
 79
     5
170
     0
171
     0
290
     0
174
     0
 93
        1
 44
0.0
173
     0
291
     1
 45
0.0
1001
ACAD
1000
AcDbSavedByObjectVersion
1070
     0
  0
VISUALSTYLE
  5
401
102
{ACAD_XDICTIONARY
360
1D6A
102
}
102
{ACAD_REACTORS
330
3F2
102
}
330
3F2
100
AcDbVisualStyle
  2

 70
    15
 71
     2
 72
     2
 73
     0
 90
        0
 40
-0.6
 41
-30.0
 62
     5
 63
     7
 74
     1
 91
        4
 64
     7
 65
   257
 75
     1
175
     1
 42
1.0
 92
        8
 66
     7
 43
1.0
 76
     1
 77
     6
 78
     2
 67
     7
 79
     5
170
     0
171
     0
290
     0
174
     0
 93
        1
 44
0.0
173
     0
291
     1
 45
0.0
1001
ACAD
1000
AcDbSavedByObjectVersion
1070
     0
  0
VISUALSTYLE
  5
3F3
102
{ACAD_XDICTIONARY
360
1D4E
102
}
102
{ACAD_REACTORS
330
3F2
102
}
330
3F2
100
AcDbVisualStyle
  2

 70
     0
 71
     2
 72
     1
 73
     1
 90
        2
 40
-0.6
 41
30.0
 62
     5
 63
     7
 74
     0
 91
        4
 64
     7
 65
   257
 75
     1
175
     1
 42
1.0
 92
        8
 66
     7
 43
1.0
 76
     1
 77
     6
 78
     2
 67
     7
 79
     5
170
     0
171
     0
290
     0
174
     0
 93
       13
 44
0.0
173
     0
291
     1
 45
0.0
1001
ACAD
1000
AcDbSavedByObjectVersion
1070
     0
  0
VISUALSTYLE
  5
3F4
102
{ACAD_XDICTIONARY
360
1D50
102
}
102
{ACAD_REACTORS
330
3F2
102
}
330
3F2
100
AcDbVisualStyle
  2

 70
     1
 71
     2
 72
     1
 73
     1
 90
        2
 40
-0.6
 41
30.0
 62
     5
 63
     7
 74
     1
 91
        4
 64
     7
 65
   257
 75
     1
175
     1
 42
1.0
 92
        0
 66
   257
 43
1.0
 76
     1
 77
     6
 78
     2
 67
     7
 79
     5
170
     0
171
     0
290
     0
174
     0
 93
       13
 44
0.0
173
     0
291
     1
 45
0.0
1001
ACAD
1000
AcDbSavedByObjectVersion
1070
     0
  0
VISUALSTYLE
  5
3F5
102
{ACAD_XDICTIONARY
360
1D52
102
}
102
{ACAD_REACTORS
330
3F2
102
}
330
3F2
100
AcDbVisualStyle
  2

 70
     2
 71
     2
 72
     2
 73
     1
 90
        2
 40
-0.6
 41
30.0
 62
     5
 63
     7
 74
     0
 91
        4
 64
     7
 65
   257
 75
     1
175
     1
 42
1.0
 92
        0
 66
     7
 43
1.0
 76
     1
 77
     6
 78
     2
 67
     7
 79
     5
170
     0
171
     0
290
     0
174
     0
 93
       13
 44
0.0
173
     0
291
     1
 45
0.0
1001
ACAD
1000
AcDbSavedByObjectVersion
1070
     0
  0
VISUALSTYLE
  5
3F6
102
{ACAD_XDICTIONARY
360
1D54
102
}
102
{ACAD_REACTORS
330
3F2
102
}
330
3F2
100
AcDbVisualStyle
  2

 70
     3
 71
     2
 72
     2
 73
     1
 90
        2
 40
-0.6
 41
30.0
 62
     5
 63
     7
 74
     1
 91
        4
 64
     7
 65
   257
 75
     1
175
     1
 42
1.0
 92
        0
 66
   257
 43
1.0
 76
     1
 77
     6
 78
     2
 67
     7
 79
     5
170
     0
171
     0
290
     0
174
     0
 93
       13
 44
0.0
173
     0
291
     1
 45
0.0
1001
ACAD
1000
AcDbSavedByObjectVersion
1070
     0
  0
VISUALSTYLE
  5
CE7
102
{ACAD_XDICTIONARY
360
1D80
102
}
102
{ACAD_REACTORS
330
3F2
102
}
330
3F2
100
AcDbVisualStyle
  2

 70
     6
 71
     1
 72
     2
 73
     2
 90
        0
 40
-0.6
 41
-30.0
 62
     5
 63
     7
 74
     2
 91
        2
 64
     7
 65
   257
 75
     2
175
     1
 42
40.0
 92
        0
 66
   257
 43
1.0
 76
     1
 77
     6
 78
     2
 67
     7
 79
     3
170
     0
171
     0
290
     0
174
     0
 93
        1
 44
0.0
173
     0
291
     0
 45
0.0
1001
ACAD
1000
AcDbSavedByObjectVersion
1070
     0
  0
VISUALSTYLE
  5
BDD
102
{ACAD_XDICTIONARY
360
1D78
102
}
102
{ACAD_REACTORS
330
3F2
102
}
330
3F2
100
AcDbVisualStyle
  2

 70
    20
 71
     2
 72
     2
 73
     0
 90
        0
 40
-0.6
 41
-30.0
 62
     5
 63
     7
 74
     1
 91
        4
 64
     7
 65
   257
 75
     1
175
     1
 42
1.0
 92
       10
 66
     7
 43
1.0
 76
     1
 77
     6
 78
     2
 67
     7
 79
     5
170
     0
171
     0
290
     0
174
     0
 93
        1
 44
0.0
173
     0
291
     1
 45
0.0
1001
ACAD
1000
AcDbSavedByObjectVersion
1070
     0
  0
VISUALSTYLE
  5
400
102
{ACAD_XDICTIONARY
360
1D68
102
}
102
{ACAD_REACTORS
330
3F2
102
}
330
3F2
100
AcDbVisualStyle
  2

 70
    14
 71
     2
 72
     2
 73
     0
 90
        0
 40
-0.6
 41
-30.0
 62
     5
 63
     7
 74
     1
 91
        4
 64
     7
 65
   257
 75
     7
175
     7
 42
1.0
 92
        8
 66
     7
 43
1.0
 76
     1
 77
     6
 78
     2
 67
     7
 79
     5
170
     0
171
     0
290
     0
174
     0
 93
        1
 44
0.0
173
     0
291
     1
 45
0.0
1001
ACAD
1000
AcDbSavedByObjectVersion
1070
     0
  0
VISUALSTYLE
  5
BDE
102
{ACAD_XDICTIONARY
360
1D7A
102
}
102
{ACAD_REACTORS
330
3F2
102
}
330
3F2
100
AcDbVisualStyle
  2

 70
    21
 71
     2
 72
     2
 73
     0
 90
        0
 40
-0.6
 41
-30.0
 62
     5
 63
     7
 74
     1
 91
        4
 64
     7
 65
   257
 75
     1
175
     1
 42
1.0
 92
        9
 66
     7
 43
1.0
 76
     1
 77
     6
 78
     2
 67
     7
 79
     5
170
     0
171
     0
290
     0
174
     0
 93
        1
 44
0.0
173
     0
291
     1
 45
0.0
1001
ACAD
1000
AcDbSavedByObjectVersion
1070
     0
  0
VISUALSTYLE
  5
3FC
102
{ACAD_XDICTIONARY
360
1D60
102
}
102
{ACAD_REACTORS
330
3F2
102
}
330
3F2
100
AcDbVisualStyle
  2

 70
     8
 71
     2
 72
     2
 73
     0
 90
        0
 40
-0.6
 41
-30.0
 62
     5
 63
     7
 74
     1
 91
        0
 64
     7
 65
   257
 75
     1
175
     1
 42
1.0
 92
        8
 66
     8
 43
1.0
 76
     1
 77
     6
 78
     2
 67
     7
 79
     5
170
     0
171
     0
290
     0
174
     0
 93
       13
 44
0.0
173
     0
291
     0
 45
0.0
1001
ACAD
1000
AcDbSavedByObjectVersion
1070
     0
  0
VISUALSTYLE
  5
CEC
102
{ACAD_XDICTIONARY
360
1D8A
102
}
102
{ACAD_REACTORS
330
3F2
102
}
330
3F2
100
AcDbVisualStyle
  2

 70
    27
 71
     2
 72
     2
 73
     1
 90
        2
 40
-0.6
 41
30.0
 62
     5
 63
     7
 74
     0
 91
        4
 64
     7
 65
   257
 75
     1
175
     1
 42
1.0
 92
        8
 66
   257
 43
1.0
 76
     1
 77
     6
 78
     2
 67
     8
 79
     3
170
     0
171
     0
290
     0
174
     0
 93
        5
 44
0.0
173
     0
291
     0
 45
0.0
1001
ACAD
1000
AcDbSavedByObjectVersion
1070
     0
  0
VISUALSTYLE
  5
CEB
102
{ACAD_XDICTIONARY
360
1D88
102
}
102
{ACAD_REACTORS
330
3F2
102
}
330
3F2
100
AcDbVisualStyle
  2

 70
    26
 71
     2
 72
     2
 73
     1
 90
        2
 40
-0.6
 41
30.0
 62
     5
 63
     7
 74
     1
 91
        2
 64
     7
 65
   257
 75
     2
175
     1
 42
1.0
 92
        8
 66
   257
 43
1.0
 76
     1
 77
     6
 78
     2
 67
     7
 79
     3
170
     0
171
     0
290
     0
174
     0
 93
        5
 44
0.0
173
     0
291
     0
 45
0.0
1001
ACAD
1000
AcDbSavedByObjectVersion
1070
     0
  0
VISUALSTYLE
  5
CE8
102
{ACAD_XDICTIONARY
360
1D82
102
}
102
{ACAD_REACTORS
330
3F2
102
}
330
3F2
100
AcDbVisualStyle
  2

 70
    23
 71
     2
 72
     2
 73
     3
 90
        0
 40
-0.6
 41
-30.0
 62
     5
 63
     7
 74
     2
 91
        2
 64
     7
 65
     7
 75
     1
175
     1
 42
40.0
 92
        8
 66
     7
 43
1.0
 76
     1
 77
     6
 78
     2
 67
     7
 79
     3
170
     0
171
     0
290
     0
174
     0
 93
        1
 44
0.0
173
     0
291
     0
 45
0.0
1001
ACAD
1000
AcDbSavedByObjectVersion
1070
     0
  0
VISUALSTYLE
  5
CE9
102
{ACAD_XDICTIONARY
360
1D84
102
}
102
{ACAD_REACTORS
330
3F2
102
}
330
3F2
100
AcDbVisualStyle
  2

 70
    24
 71
     1
 72
     2
 73
     2
 90
        0
 40
-0.6
 41
-30.0
 62
     5
 63
     7
 74
     2
 91
        2
 64
     7
 65
     7
 75
     1
175
     1
 42
40.0
 92
       11
 66
     7
 43
1.0
 76
     1
 77
     6
 78
     2
 67
     7
 79
     6
170
     0
171
     0
290
     0
174
     0
 93
        1
 44
0.0
173
     0
291
     0
 45
0.0
1001
ACAD
1000
AcDbSavedByObjectVersion
1070
     0
  0
VISUALSTYLE
  5
3FF
102
{ACAD_XDICTIONARY
360
1D66
102
}
102
{ACAD_REACTORS
330
3F2
102
}
330
3F2
100
AcDbVisualStyle
  2

 70
    13
 71
     2
 72
     2
 73
     0
 90
        0
 40
-0.6
 41
-30.0
 62
     5
 63
     7
 74
     1
 91
        4
 64
     7
 65
   257
 75
     1
175
     1
 42
1.0
 92
       12
 66
     7
 43
1.0
 76
     1
 77
     6
 78
     2
 67
     7
 79
     5
170
     0
171
     0
290
     0
174
     0
 93
        1
 44
0.0
173
     0
291
     1
 45
0.0
1001
ACAD
1000
AcDbSavedByObjectVersion
1070
     0
  0
VISUALSTYLE
  5
CE6
102
{ACAD_XDICTIONARY
360
1D7E
102
}
102
{ACAD_REACTORS
330
3F2
102
}
330
3F2
100
AcDbVisualStyle
  2

 70
     5
 71
     0
 72
     2
 73
     0
 90
        0
 40
-0.6
 41
-30.0
 62
     5
 63
     7
 74
     1
 91
        4
 64
     7
 65
   257
 75
     1
175
     1
 42
1.0
 92
        0
 66
   257
 43
1.0
 76
     1
 77
     6
 78
     2
 67
     7
 79
     3
170
     0
171
     0
290
     0
174
     0
 93
        1
 44
0.0
173
     0
291
     0
 45
0.0
1001
ACAD
1000
AcDbSavedByObjectVersion
1070
     0
  0
VISUALSTYLE
  5
CEA
102
{ACAD_XDICTIONARY
360
1D86
102
}
102
{ACAD_REACTORS
330
3F2
102
}
330
3F2
100
AcDbVisualStyle
  2

 70
    25
 71
     2
 72
     2
 73
     1
 90
        1
 40
0.5
 41
-30.0
 62
     5
 63
     7
 74
     1
 91
        0
 64
     7
 65
   257
 75
     1
175
     1
 42
1.0
 92
        8
 66
     7
 43
1.0
 76
     1
 77
     6
 78
     2
 67
     7
 79
     3
170
     0
171
     0
290
     0
174
     0
 93
       13
 44
0.0
173
     0
291
     0
 45
0.0
1001
ACAD
1000
AcDbSavedByObjectVersion
1070
     0
  0
DICTIONARYVAR
  5
57C
102
{ACAD_REACTORS
330
357
102
}
330
357
100
DictionaryVariables
280
     0
  1
1:1
  0
DICTIONARYVAR
  5
57A
102
{ACAD_REACTORS
330
357
102
}
330
357
100
DictionaryVariables
280
     0
  1
STANDARD
  0
DICTIONARYVAR
  5
38E
102
{ACAD_REACTORS
330
357
102
}
330
357
100
DictionaryVariables
280
     0
  1
STANDARD
  0
DICTIONARYVAR
  5
D2C
102
{ACAD_REACTORS
330
357
102
}
330
357
100
DictionaryVariables
280
     0
  1
Metric50
  0
DICTIONARYVAR
  5
D2D
102
{ACAD_REACTORS
330
357
102
}
330
357
100
DictionaryVariables
280
     0
  1
Metric50
  0
DICTIONARYVAR
  5
359
102
{ACAD_REACTORS
330
357
102
}
330
357
100
DictionaryVariables
280
     0
  1
2
  0
DICTIONARYVAR
  5
358
102
{ACAD_REACTORS
330
357
102
}
330
357
100
DictionaryVariables
280
     0
  1
1
  0
DICTIONARYVAR
  5
ACC
102
{ACAD_REACTORS
330
357
102
}
330
357
100
DictionaryVariables
280
     0
  1
0
  0
DICTIONARYVAR
  5
BF1
102
{ACAD_REACTORS
330
357
102
}
330
357
100
DictionaryVariables
280
     0
  1
1
  0
DICTIONARYVAR
  5
BF2
102
{ACAD_REACTORS
330
357
102
}
330
357
100
DictionaryVariables
280
     0
  1
15
  0
DICTIONARYVAR
  5
57D
102
{ACAD_REACTORS
330
357
102
}
330
357
100
DictionaryVariables
280
     0
  1
0
  0
DICTIONARYVAR
  5
57B
102
{ACAD_REACTORS
330
357
102
}
330
357
100
DictionaryVariables
280
     0
  1
0
  0
DICTIONARYVAR
  5
156C
102
{ACAD_REACTORS
330
357
102
}
330
357
100
DictionaryVariables
280
     0
  1
1
  0
DICTIONARYVAR
  5
ACB
102
{ACAD_REACTORS
330
357
102
}
330
357
100
DictionaryVariables
280
     0
  1
127
  0
DICTIONARYVAR
  5
1D44
102
{ACAD_REACTORS
330
357
102
}
330
357
100
DictionaryVariables
280
     0
  1
2
  0
DICTIONARY
  5
4DC
102
{ACAD_REACTORS
330
4D1
102
}
330
4D1
100
AcDbDictionary
281
     1
  0
XRECORD
  5
4F3
102
{ACAD_REACTORS
330
4D1
102
}
330
4D1
100
AcDbXrecord
280
     1
 90
-1023410169
  0
XRECORD
  5
8E9
102
{ACAD_REACTORS
330
567
102
}
330
567
100
AcDbXrecord
280
     1
 91
     1023
301

290
     0
302
1
  8
200
 90
        8
 62
     2
370
    50
331
14
  1
Color_2
  8
160
 90
        8
 62
     1
370
    35
331
14
  1
Color_1
  8
150
 90
        8
 62
    96
370
    50
331
14
  1
Color_96
 92
-1040154880
  8
140
 90
        8
 62
     5
370
    35
331
14
  1
Color_5
  8
130
 90
        8
 62
     6
370
    35
331
14
  1
Color_6
  8
120
 90
        8
 62
     3
370
    50
331
14
  1
Color_3
  8
110
 90
        8
 62
     7
370
    25
331
14
  1
Color_7
  8
100
 90
        8
 62
     4
370
    50
331
14
  1
Color_4
  8
INFTEXT69
 90
        8
 62
     5
370
    -3
331
14
  1
Color_5
  8
INFTEXT68
 90
        8
 62
     5
370
    -3
331
14
  1
Color_5
  8
INFTEXT67
 90
        8
 62
     5
370
    -3
331
14
  1
Color_5
  8
INFTEXT66
 90
        8
 62
     5
370
    -3
331
14
  1
Color_5
  8
INFTEXT65
 90
        8
 62
     5
370
    -3
331
14
  1
Color_5
  8
INFTEXT64
 90
        8
 62
     5
370
    -3
331
14
  1
Color_5
  8
INFTEXT63
 90
        8
 62
     5
370
    -3
331
14
  1
Color_5
  8
INFTEXT62
 90
        8
 62
     5
370
    -3
331
14
  1
Color_5
  8
RECON69
 90
        8
 62
     5
370
    35
331
14
  1
Color_5
  8
RECON68
 90
        8
 62
     5
370
    35
331
14
  1
Color_5
  8
RECON67
 90
        8
 62
     5
370
    35
331
14
  1
Color_5
  8
RECON66
 90
        8
 62
     5
370
    35
331
14
  1
Color_5
  8
RECON65
 90
        8
 62
     5
370
    35
331
14
  1
Color_5
  8
RECON64
 90
        8
 62
     5
370
    35
331
14
  1
Color_5
  8
RECON63
 90
        8
 62
     5
370
    35
331
14
  1
Color_5
  8
RECON62
 90
        8
 62
     5
370
    35
331
14
  1
Color_5
  8
RECON61
 90
        8
 62
     5
370
    35
331
14
  1
Color_5
  8
SK69
 90
        8
 62
     5
370
    35
331
14
  1
Color_5
  8
SK68
 90
        8
 62
     5
370
    35
331
14
  1
Color_5
  8
SK67
 90
        8
 62
     5
370
    35
331
14
  1
Color_5
  8
SK66
 90
        8
 62
     5
370
    35
331
14
  1
Color_5
  8
SK65
 90
        8
 62
     5
370
    35
331
14
  1
Color_5
  8
SK64
 90
        8
 62
     5
370
    35
331
14
  1
Color_5
  8
SK63
 90
        8
 62
     5
370
    35
331
14
  1
Color_5
  8
SK62
 90
        8
 62
     5
370
    35
331
14
  1
Color_5
  8
SK61
 90
        8
 62
     5
370
    35
331
14
  1
Color_5
  8
SKVIEW69
 90
        8
 62
     5
370
    35
331
14
  1
Color_5
  8
SKVIEW68
 90
        8
 62
     5
370
    35
331
14
  1
Color_5
  8
SKVIEW67
 90
        8
 62
     5
370
    35
331
14
  1
Color_5
  8
SKVIEW66
 90
        8
 62
     5
370
    35
331
14
  1
Color_5
  8
SKVIEW65
 90
        8
 62
     5
370
    35
331
14
  1
Color_5
  8
SKVIEW64
 90
        8
 62
     5
370
    35
331
14
  1
Color_5
  8
SKVIEW63
 90
        8
 62
     5
370
    35
331
14
  1
Color_5
  8
SKVIEW62
 90
        8
 62
     5
370
    35
331
14
  1
Color_5
  8
SKVIEW61
 90
        8
 62
     5
370
    35
331
14
  1
Color_5
  8
69
 90
        8
 62
     5
370
    35
331
14
  1
Color_5
  8
68
 90
        8
 62
     5
370
    35
331
14
  1
Color_5
  8
67
 90
        8
 62
     5
370
    35
331
14
  1
Color_5
  8
66
 90
        8
 62
     5
370
    35
331
14
  1
Color_5
  8
65
 90
        8
 62
     5
370
    35
331
14
  1
Color_5
  8
64
 90
        8
 62
     5
370
    35
331
14
  1
Color_5
  8
63
 90
        8
 62
     5
370
    35
331
14
  1
Color_5
  8
62
 90
        8
 62
     5
370
    35
331
14
  1
Color_5
  8
61
 90
        8
 62
     5
370
    35
331
14
  1
Color_5
  8
59
 90
        8
 62
     5
370
    -3
331
14
  1
Color_5
  8
58
 90
        8
 62
     5
370
    -3
331
14
  1
Color_5
  8
57
 90
        8
 62
     5
370
    -3
331
14
  1
Color_5
  8
56
 90
        8
 62
     5
370
    -3
331
14
  1
Color_5
  8
55
 90
        8
 62
     5
370
    -3
331
14
  1
Color_5
  8
54
 90
        8
 62
     5
370
    -3
331
14
  1
Color_5
  8
53
 90
        8
 62
     5
370
    -3
331
14
  1
Color_5
  8
52
 90
        8
 62
     5
370
    -3
331
14
  1
Color_5
  8
51
 90
        8
 62
     5
370
    -3
331
14
  1
Color_5
  8
FRAME59
 90
        8
 62
     7
370
    -3
331
14
  1
Color_7
  8
FRAME58
 90
        8
 62
     7
370
    -3
331
14
  1
Color_7
  8
FRAME57
 90
        8
 62
     7
370
    -3
331
14
  1
Color_7
  8
FRAME56
 90
        8
 62
     7
370
    -3
331
14
  1
Color_7
  8
FRAME55
 90
        8
 62
     7
370
    -3
331
14
  1
Color_7
  8
FRAME54
 90
        8
 62
     7
370
    -3
331
14
  1
Color_7
  8
FRAME53
 90
        8
 62
     7
370
    -3
331
14
  1
Color_7
  8
FRAME52
 90
        8
 62
     7
370
    -3
331
14
  1
Color_7
  8
RECON7
 90
        8
 62
     5
370
    25
331
14
  1
Color_5
  8
RECON6
 90
        8
 62
     5
370
    35
331
14
  1
Color_5
  8
RECON4
 90
        8
 62
     2
370
    25
331
14
  1
Color_2
  8
RECON3
 90
        8
 62
     1
370
    35
331
14
  1
Color_1
  8
RECON2
 90
        8
 62
     7
370
    25
331
14
  1
Color_7
  8
RECON1
 90
        8
 62
     4
370
    50
331
14
  1
Color_4
  8
SKVIEW7
 90
        8
 62
     5
370
    25
331
14
  1
Color_5
  8
SK7
 90
        8
 62
     5
370
    25
331
14
  1
Color_5
  8
7
 90
        8
 62
     5
370
    25
331
14
  1
Color_5
  8
INFMAINVIEW
 90
        8
 62
     9
370
    18
331
14
  1
Color_9
  8
INFTOTAL
 90
        8
 62
     9
370
    18
331
14
  1
Color_9
  8
INFTEXT61
 90
        8
 62
     5
370
    -3
331
14
  1
Color_5
  8
INFWKP
 90
        8
 62
    30
370
    25
331
14
  1
Color_30
  8
SKVIEW6
 90
        8
 62
     5
370
    35
331
14
  1
Color_5
  8
SKVIEW4
 90
        8
 62
     2
370
    25
331
14
  1
Color_2
  8
SKVIEW3
 90
        8
 62
     1
370
    35
331
14
  1
Color_1
  8
SKVIEW2
 90
        8
 62
     7
370
    25
331
14
  1
Color_7
  8
SKVIEW1
 90
        8
 62
     4
370
    50
331
14
  1
Color_4
  8
NOCUT
 90
        8
 62
     7
370
    25
331
14
  1
Color_7
  8
CUT
 90
        8
 62
     1
370
    25
331
14
  1
Color_1
  8
DEFPOINTS
 90
        0
 62
     7
370
    -3
331
14
  1
Color_7
  8
SK6
 90
        8
 62
     5
370
    35
331
14
  1
Color_5
  8
6
 90
        8
 62
     5
370
    35
331
14
  1
Color_5
  8
FRAME51
 90
        8
 62
     7
370
    -3
331
14
  1
Color_7
  8
SK4
 90
        8
 62
     2
370
    25
331
14
  1
Color_2
  8
4
 90
        8
 62
     2
370
    25
331
14
  1
Color_2
  8
SK3
 90
        8
 62
     1
370
    35
331
14
  1
Color_1
  8
3
 90
        8
 62
     1
370
    35
331
14
  1
Color_1
  8
SK2
 90
        8
 62
     7
370
    25
331
14
  1
Color_7
  8
2
 90
        8
 62
     7
370
    25
331
14
  1
Color_7
  8
SK1
 90
        8
 62
     4
370
    50
331
14
  1
Color_4
  8
1
 90
        8
 62
     4
370
    50
331
14
  1
Color_4
  8
0
 90
        0
 62
     7
370
    -3
331
14
  1
Color_7
  0
XRECORD
  5
EAE
102
{ACAD_REACTORS
330
EA6
102
}
330
EA6
100
AcDbXrecord
280
     1
290
     1
  0
XRECORD
  5
EAF
102
{ACAD_REACTORS
330
EA6
102
}
330
EA6
100
AcDbXrecord
280
     1
290
     1
  0
DICTIONARY
  5
1D8E
330
CF0
100
AcDbDictionary
280
     1
281
     1
  3
ACAD_XREC_ROUNDTRIP
360
1D8F
  0
DICTIONARY
  5
1D74
330
B57
100
AcDbDictionary
280
     1
281
     1
  3
ACAD_XREC_ROUNDTRIP
360
1D75
  0
DICTIONARY
  5
1D4B
330
303
100
AcDbDictionary
280
     1
281
     1
  3
ACAD_XREC_ROUNDTRIP
360
1D4C
  0
DICTIONARY
  5
15DD
330
3F0
100
AcDbDictionary
280
     1
281
     1
  3
ACAD_XREC_ROUNDTRIP
360
15DE
  0
DICTIONARY
  5
15DB
330
3EF
100
AcDbDictionary
280
     1
281
     1
  3
ACAD_XREC_ROUNDTRIP
360
15DC
  0
DICTIONARY
  5
15DF
330
3F1
100
AcDbDictionary
280
     1
281
     1
  3
ACAD_XREC_ROUNDTRIP
360
15E0
  0
DICTIONARY
  5
1D6E
330
470
100
AcDbDictionary
280
     1
281
     1
  3
ACAD_XREC_ROUNDTRIP
360
1D6F
  0
DICTIONARY
  5
1D70
330
7EF
100
AcDbDictionary
280
     1
281
     1
  3
ACAD_XREC_ROUNDTRIP
360
1D71
  0
DICTIONARY
  5
1D72
330
7F8
100
AcDbDictionary
280
     1
281
     1
  3
ACAD_XREC_ROUNDTRIP
360
1D73
  0
DICTIONARY
  5
1D8C
330
CEE
100
AcDbDictionary
280
     1
281
     1
  3
ACAD_XREC_ROUNDTRIP
360
1D8D
  0
DICTIONARY
  5
15C8
330
389
100
AcDbDictionary
280
     1
281
     1
  3
ACAD_ROUNDTRIP_2008_TABLESTYLE_CELLSTYLEMAP
360
1D45
  3
ACAD_XREC_ROUNDTRIP
360
1D4D
  0
DICTIONARY
  5
1D58
330
3F8
100
AcDbDictionary
280
     1
281
     1
  3
ACAD_XREC_ROUNDTRIP
360
1D59
  0
DICTIONARY
  5
1D5C
330
3FA
100
AcDbDictionary
280
     1
281
     1
  3
ACAD_XREC_ROUNDTRIP
360
1D5D
  0
DICTIONARY
  5
1D5A
330
3F9
100
AcDbDictionary
280
     1
281
     1
  3
ACAD_XREC_ROUNDTRIP
360
1D5B
  0
DICTIONARY
  5
1D56
330
3F7
100
AcDbDictionary
280
     1
281
     1
  3
ACAD_XREC_ROUNDTRIP
360
1D57
  0
DICTIONARY
  5
1D64
330
3FE
100
AcDbDictionary
280
     1
281
     1
  3
ACAD_XREC_ROUNDTRIP
360
1D65
  0
DICTIONARY
  5
1D6C
330
402
100
AcDbDictionary
280
     1
281
     1
  3
ACAD_XREC_ROUNDTRIP
360
1D6D
  0
DICTIONARY
  5
1D5E
330
3FB
100
AcDbDictionary
280
     1
281
     1
  3
ACAD_XREC_ROUNDTRIP
360
1D5F
  0
DICTIONARY
  5
1D62
330
3FD
100
AcDbDictionary
280
     1
281
     1
  3
ACAD_XREC_ROUNDTRIP
360
1D63
  0
DICTIONARY
  5
1D7C
330
BDF
100
AcDbDictionary
280
     1
281
     1
  3
ACAD_XREC_ROUNDTRIP
360
1D7D
  0
DICTIONARY
  5
1D6A
330
401
100
AcDbDictionary
280
     1
281
     1
  3
ACAD_XREC_ROUNDTRIP
360
1D6B
  0
DICTIONARY
  5
1D4E
330
3F3
100
AcDbDictionary
280
     1
281
     1
  3
ACAD_XREC_ROUNDTRIP
360
1D4F
  0
DICTIONARY
  5
1D50
330
3F4
100
AcDbDictionary
280
     1
281
     1
  3
ACAD_XREC_ROUNDTRIP
360
1D51
  0
DICTIONARY
  5
1D52
330
3F5
100
AcDbDictionary
280
     1
281
     1
  3
ACAD_XREC_ROUNDTRIP
360
1D53
  0
DICTIONARY
  5
1D54
330
3F6
100
AcDbDictionary
280
     1
281
     1
  3
ACAD_XREC_ROUNDTRIP
360
1D55
  0
DICTIONARY
  5
1D80
330
CE7
100
AcDbDictionary
280
     1
281
     1
  3
ACAD_XREC_ROUNDTRIP
360
1D81
  0
DICTIONARY
  5
1D78
330
BDD
100
AcDbDictionary
280
     1
281
     1
  3
ACAD_XREC_ROUNDTRIP
360
1D79
  0
DICTIONARY
  5
1D68
330
400
100
AcDbDictionary
280
     1
281
     1
  3
ACAD_XREC_ROUNDTRIP
360
1D69
  0
DICTIONARY
  5
1D7A
330
BDE
100
AcDbDictionary
280
     1
281
     1
  3
ACAD_XREC_ROUNDTRIP
360
1D7B
  0
DICTIONARY
  5
1D60
330
3FC
100
AcDbDictionary
280
     1
281
     1
  3
ACAD_XREC_ROUNDTRIP
360
1D61
  0
DICTIONARY
  5
1D8A
330
CEC
100
AcDbDictionary
280
     1
281
     1
  3
ACAD_XREC_ROUNDTRIP
360
1D8B
  0
DICTIONARY
  5
1D88
330
CEB
100
AcDbDictionary
280
     1
281
     1
  3
ACAD_XREC_ROUNDTRIP
360
1D89
  0
DICTIONARY
  5
1D82
330
CE8
100
AcDbDictionary
280
     1
281
     1
  3
ACAD_XREC_ROUNDTRIP
360
1D83
  0
DICTIONARY
  5
1D84
330
CE9
100
AcDbDictionary
280
     1
281
     1
  3
ACAD_XREC_ROUNDTRIP
360
1D85
  0
DICTIONARY
  5
1D66
330
3FF
100
AcDbDictionary
280
     1
281
     1
  3
ACAD_XREC_ROUNDTRIP
360
1D67
  0
DICTIONARY
  5
1D7E
330
CE6
100
AcDbDictionary
280
     1
281
     1
  3
ACAD_XREC_ROUNDTRIP
360
1D7F
  0
DICTIONARY
  5
1D86
330
CEA
100
AcDbDictionary
280
     1
281
     1
  3
ACAD_XREC_ROUNDTRIP
360
1D87
  0
XRECORD
  5
1D8F
102
{ACAD_REACTORS
330
1D8E
102
}
330
1D8E
100
AcDbXrecord
280
     1
102
DISPLAYNAME
  1
Metric50
102
FLAGS
 90
        0
  0
XRECORD
  5
1D75
102
{ACAD_REACTORS
330
1D74
102
}
330
1D74
100
AcDbXrecord
280
     1
102
SHADEPLOT
 70
     0
102
SHADEPLOTRESLEVEL
 70
     2
102
SHADEPLOTCUSTOMDPI
 70
   300
  0
XRECORD
  5
1D4C
102
{ACAD_REACTORS
330
1D4B
102
}
330
1D4B
100
AcDbXrecord
280
     1
102
SHADEPLOT
 70
     0
102
SHADEPLOTRESLEVEL
 70
     2
102
SHADEPLOTCUSTOMDPI
 70
   300
  0
XRECORD
  5
15DE
102
{ACAD_REACTORS
330
15DD
102
}
330
15DD
100
AcDbXrecord
280
     1
102
MATERIAL
148
0.0
149
0.0
149
0.0
 93
        0
 94
      127
282
     0
 72
     1
 77
     1
171
     1
175
     1
179
     1
273
     0
  0
XRECORD
  5
15DC
102
{ACAD_REACTORS
330
15DB
102
}
330
15DB
100
AcDbXrecord
280
     1
102
MATERIAL
148
0.0
149
0.0
149
0.0
 93
        0
 94
      127
282
     0
 72
     1
 77
     1
171
     1
175
     1
179
     1
273
     0
  0
XRECORD
  5
15E0
102
{ACAD_REACTORS
330
15DF
102
}
330
15DF
100
AcDbXrecord
280
     1
102
MATERIAL
148
0.0
149
0.0
149
0.0
 93
        0
 94
      127
282
     0
 72
     1
 77
     1
171
     1
175
     1
179
     1
273
     0
  0
XRECORD
  5
1D6F
102
{ACAD_REACTORS
330
1D6E
102
}
330
1D6E
100
AcDbXrecord
280
     1
102
ACAD_ROUNDTRIP_2012_MLEADER_STYLE
298
     1
  0
XRECORD
  5
1D71
102
{ACAD_REACTORS
330
1D70
102
}
330
1D70
100
AcDbXrecord
280
     1
102
SHADEPLOT
 70
     0
102
SHADEPLOTRESLEVEL
 70
     2
102
SHADEPLOTCUSTOMDPI
 70
   300
  0
XRECORD
  5
1D73
102
{ACAD_REACTORS
330
1D72
102
}
330
1D72
100
AcDbXrecord
280
     1
102
SHADEPLOT
 70
     0
102
SHADEPLOTRESLEVEL
 70
     2
102
SHADEPLOTCUSTOMDPI
 70
   300
  0
XRECORD
  5
1D8D
102
{ACAD_REACTORS
330
1D8C
102
}
330
1D8C
100
AcDbXrecord
280
     1
102
DISPLAYNAME
  1
Metric50
102
FLAGS
 90
        0
  0
CELLSTYLEMAP
  5
1D45
102
{ACAD_REACTORS
330
15C8
102
}
330
15C8
100
AcDbCellStyleMap
 90
        3
300
CELLSTYLE
  1
TABLEFORMAT_BEGIN
 90
        5
170
     1
 91
        0
 92
    32768
 62
   257
 93
        1
300
CONTENTFORMAT
  1
CONTENTFORMAT_BEGIN
 90
        0
 91
        0
 92
        4
 93
        0
300

 40
0.0
140
1.0
 94
        5
 62
     0
340
1E
144
6.0
309
CONTENTFORMAT_END
171
     1
301
MARGIN
  1
CELLMARGIN_BEGIN
 40
1.5
 40
1.5
 40
1.5
 40
1.5
 40
0.18
 40
0.18
309
CELLMARGIN_END
 94
        6
 95
        1
302
GRIDFORMAT
  1
GRIDFORMAT_BEGIN
 90
        0
 91
        1
 62
     0
 92
       -2
340
0
 93
        0
 40
0.045
309
GRIDFORMAT_END
 95
        2
302
GRIDFORMAT
  1
GRIDFORMAT_BEGIN
 90
        0
 91
        1
 62
     0
 92
       -2
340
0
 93
        0
 40
0.045
309
GRIDFORMAT_END
 95
        4
302
GRIDFORMAT
  1
GRIDFORMAT_BEGIN
 90
        0
 91
        1
 62
     0
 92
       -2
340
0
 93
        0
 40
0.045
309
GRIDFORMAT_END
 95
        8
302
GRIDFORMAT
  1
GRIDFORMAT_BEGIN
 90
        0
 91
        1
 62
     0
 92
       -2
340
0
 93
        0
 40
0.045
309
GRIDFORMAT_END
 95
       16
302
GRIDFORMAT
  1
GRIDFORMAT_BEGIN
 90
        0
 91
        1
 62
     0
 92
       -2
340
0
 93
        0
 40
0.045
309
GRIDFORMAT_END
 95
       32
302
GRIDFORMAT
  1
GRIDFORMAT_BEGIN
 90
        0
 91
        1
 62
     0
 92
       -2
340
0
 93
        0
 40
0.045
309
GRIDFORMAT_END
309
TABLEFORMAT_END
  1
CELLSTYLE_BEGIN
 90
        1
 91
        1
300
_TITLE
309
CELLSTYLE_END
300
CELLSTYLE
  1
TABLEFORMAT_BEGIN
 90
        5
170
     1
 91
        0
 92
        0
 62
   257
 93
        1
300
CONTENTFORMAT
  1
CONTENTFORMAT_BEGIN
 90
        0
 91
        0
 92
        4
 93
        0
300

 40
0.0
140
1.0
 94
        5
 62
     0
340
10
144
4.5
309
CONTENTFORMAT_END
171
     1
301
MARGIN
  1
CELLMARGIN_BEGIN
 40
1.5
 40
1.5
 40
1.5
 40
1.5
 40
0.18
 40
0.18
309
CELLMARGIN_END
 94
        6
 95
        1
302
GRIDFORMAT
  1
GRIDFORMAT_BEGIN
 90
        0
 91
        1
 62
     0
 92
       -2
340
0
 93
        0
 40
0.045
309
GRIDFORMAT_END
 95
        2
302
GRIDFORMAT
  1
GRIDFORMAT_BEGIN
 90
        0
 91
        1
 62
     0
 92
       -2
340
0
 93
        0
 40
0.045
309
GRIDFORMAT_END
 95
        4
302
GRIDFORMAT
  1
GRIDFORMAT_BEGIN
 90
        0
 91
        1
 62
     0
 92
       -2
340
0
 93
        0
 40
0.045
309
GRIDFORMAT_END
 95
        8
302
GRIDFORMAT
  1
GRIDFORMAT_BEGIN
 90
        0
 91
        1
 62
     0
 92
       -2
340
0
 93
        0
 40
0.045
309
GRIDFORMAT_END
 95
       16
302
GRIDFORMAT
  1
GRIDFORMAT_BEGIN
 90
        0
 91
        1
 62
     0
 92
       -2
340
0
 93
        0
 40
0.045
309
GRIDFORMAT_END
 95
       32
302
GRIDFORMAT
  1
GRIDFORMAT_BEGIN
 90
        0
 91
        1
 62
     0
 92
       -2
340
0
 93
        0
 40
0.045
309
GRIDFORMAT_END
309
TABLEFORMAT_END
  1
CELLSTYLE_BEGIN
 90
        2
 91
        1
300
_HEADER
309
CELLSTYLE_END
300
CELLSTYLE
  1
TABLEFORMAT_BEGIN
 90
        5
170
     1
 91
        0
 92
        0
 62
   257
 93
        1
300
CONTENTFORMAT
  1
CONTENTFORMAT_BEGIN
 90
        0
 91
        0
 92
        4
 93
        0
300

 40
0.0
140
1.0
 94
        2
 62
     0
340
10
144
4.5
309
CONTENTFORMAT_END
171
     1
301
MARGIN
  1
CELLMARGIN_BEGIN
 40
1.5
 40
1.5
 40
1.5
 40
1.5
 40
0.18
 40
0.18
309
CELLMARGIN_END
 94
        6
 95
        1
302
GRIDFORMAT
  1
GRIDFORMAT_BEGIN
 90
        0
 91
        1
 62
     0
 92
       -2
340
0
 93
        0
 40
0.045
309
GRIDFORMAT_END
 95
        2
302
GRIDFORMAT
  1
GRIDFORMAT_BEGIN
 90
        0
 91
        1
 62
     0
 92
       -2
340
0
 93
        0
 40
0.045
309
GRIDFORMAT_END
 95
        4
302
GRIDFORMAT
  1
GRIDFORMAT_BEGIN
 90
        0
 91
        1
 62
     0
 92
       -2
340
0
 93
        0
 40
0.045
309
GRIDFORMAT_END
 95
        8
302
GRIDFORMAT
  1
GRIDFORMAT_BEGIN
 90
        0
 91
        1
 62
     0
 92
       -2
340
0
 93
        0
 40
0.045
309
GRIDFORMAT_END
 95
       16
302
GRIDFORMAT
  1
GRIDFORMAT_BEGIN
 90
        0
 91
        1
 62
     0
 92
       -2
340
0
 93
        0
 40
0.045
309
GRIDFORMAT_END
 95
       32
302
GRIDFORMAT
  1
GRIDFORMAT_BEGIN
 90
        0
 91
        1
 62
     0
 92
       -2
340
0
 93
        0
 40
0.045
309
GRIDFORMAT_END
309
TABLEFORMAT_END
  1
CELLSTYLE_BEGIN
 90
        3
 91
        2
300
_DATA
309
CELLSTYLE_END
  0
XRECORD
  5
1D4D
102
{ACAD_REACTORS
330
15C8
102
}
330
15C8
100
AcDbXrecord
280
     1
102
ACAD_ROUNDTRIP_PRE2007_TABLESTYLE
 90
        4
 91
        0
  1

 92
        4
 93
        0
  2

 94
        4
 95
        0
  3

  0
XRECORD
  5
1D59
102
{ACAD_REACTORS
330
1D58
102
}
330
1D58
100
AcDbXrecord
280
     1
102
RTVSPost2010Prop28
280
     1
102
RTVSPost2010PropOp28
 70
     1
102
RTVSPost2010Prop29
280
     1
102
RTVSPost2010PropOp29
 70
     1
102
RTVSPost2010Prop30
280
     0
102
RTVSPost2010PropOp30
 70
     1
102
RTVSPost2010Prop31
280
     0
102
RTVSPost2010PropOp31
 70
     1
102
RTVSPost2010Prop32
280
     0
102
RTVSPost2010PropOp32
 70
     1
102
RTVSPost2010Prop33
280
     0
102
RTVSPost2010PropOp33
 70
     1
102
RTVSPost2010Prop34
280
     0
102
RTVSPost2010PropOp34
 70
     1
102
RTVSPost2010Prop35
280
     0
102
RTVSPost2010PropOp35
 70
     1
102
RTVSPost2010Prop36
280
     0
102
RTVSPost2010PropOp36
 70
     1
102
RTVSPost2010Prop37
 90
       50
102
RTVSPost2010PropOp37
 70
     1
102
RTVSPost2010Prop38
140
0.0
102
RTVSPost2010PropOp38
 70
     1
102
RTVSPost2010Prop39
140
1.0
102
RTVSPost2010PropOp39
 70
     1
102
RTVSPost2010Prop40
 90
        0
102
RTVSPost2010PropOp40
 70
     1
102
RTVSPost2010Prop41ColorIndex
 90
       18
102
RTVSPost2010Prop41ColorRGB
 90
        0
102
RTVSPost2010PropOp41
 70
     1
102
RTVSPost2010Prop42
 90
       50
102
RTVSPost2010PropOp42
 70
     1
102
RTVSPost2010Prop43
 90
        3
102
RTVSPost2010PropOp43
 70
     1
102
RTVSPost2010Prop44ColorIndex
 90
        5
102
RTVSPost2010Prop44ColorRGB
 90
      255
102
RTVSPost2010PropOp44
 70
     1
102
RTVSPost2010Prop45
280
     0
102
RTVSPost2010PropOp45
 70
     1
102
RTVSPost2010Prop46
 90
       50
102
RTVSPost2010PropOp46
 70
     1
102
RTVSPost2010Prop47
 90
       50
102
RTVSPost2010PropOp47
 70
     1
102
RTVSPost2010Prop48
 90
       50
102
RTVSPost2010PropOp48
 70
     1
102
RTVSPost2010Prop49
280
     0
102
RTVSPost2010PropOp49
 70
     1
102
RTVSPost2010Prop50
 90
       50
102
RTVSPost2010PropOp50
 70
     1
102
RTVSPost2010Prop51ColorIndex
 90
      256
102
RTVSPost2010Prop51ColorRGB
 90
-16777216
102
RTVSPost2010PropOp51
 70
     0
102
RTVSPost2010Prop52
140
1.0
102
RTVSPost2010PropOp52
 70
     0
102
RTVSPost2010Prop53
 90
        2
102
RTVSPost2010PropOp53
 70
     1
102
RTVSPost2010Prop54
  1
strokes_ogs.tif
102
RTVSPost2010PropOp54
 70
     1
102
RTVSPost2010Prop55
280
     0
102
RTVSPost2010PropOp55
 70
     1
102
RTVSPost2010Prop56
140
1.0
102
RTVSPost2010PropOp56
 70
     1
102
RTVSPost2010Prop57
140
1.0
102
RTVSPost2010PropOp57
 70
     1
102
RTVSPropertyOp0
 70
     1
102
RTVSPropertyOp1
 70
     1
102
RTVSPropertyOp2
 70
     1
102
RTVSPropertyOp3
 70
     1
102
RTVSPropertyOp4
 70
     1
102
RTVSPropertyOp5
 70
     1
102
RTVSPropertyOp6
 70
     1
102
RTVSPropertyOp7
 70
     1
102
RTVSPropertyOp8
 70
     1
102
RTVSPropertyOp9
 70
     1
102
RTVSPropertyOp10
 70
     1
102
RTVSPropertyOp11
 70
     1
102
RTVSPropertyOp12
 70
     1
102
RTVSPropertyOp13
 70
     1
102
RTVSPropertyOp14
 70
     1
102
RTVSPropertyOp15
 70
     1
102
RTVSPropertyOp16
 70
     1
102
RTVSPropertyOp17
 70
     1
102
RTVSPropertyOp18
 70
     1
102
RTVSPropertyOp19
 70
     1
102
RTVSPropertyOp20
 70
     1
102
RTVSPropertyOp21
 70
     1
102
RTVSPropertyOp22
 70
     1
102
RTVSPropertyOp23
 70
     1
102
RTVSPropertyOp24
 70
     1
102
RTVSPropertyOp25
 70
     1
102
RTVSPropertyOp26
 70
     1
102
RTVSPropertyOp27
 70
     1
102
RTVSPropertyOp28
 70
     1
102
RTVSPropertyOp29
 70
     1
102
RTVSPropertyOp30
 70
     1
102
RTVSPropertyOp31
 70
     1
102
RTVSPropertyOp32
 70
     1
102
RTVSPropertyOp33
 70
     1
102
RTVSPropertyOp34
 70
     1
102
RTVSPropertyOp35
 70
     1
102
RTVSPropertyOp36
 70
     1
102
RTVSPropertyOp37
 70
     1
102
RTVSPropertyOp38
 70
     1
102
RTVSPropertyOp39
 70
     1
102
RTVSPropertyOp40
 70
     1
102
RTVSPropertyOp41
 70
     1
102
RTVSPropertyOp42
 70
     1
102
RTVSPropertyOp43
 70
     1
102
RTVSPropertyOp44
 70
     1
102
RTVSPropertyOp45
 70
     1
102
RTVSPropertyOp46
 70
     1
102
RTVSPropertyOp47
 70
     1
102
RTVSPropertyOp48
 70
     1
102
RTVSPropertyOp49
 70
     1
102
RTVSPropertyOp50
 70
     1
102
RTVSPropertyOp51
 70
     0
102
RTVSPropertyOp52
 70
     0
102
RTVSPropertyOp53
 70
     1
102
RTVSPropertyOp54
 70
     1
102
RTVSPropertyOp55
 70
     1
102
RTVSPropertyOp56
 70
     1
102
RTVSPropertyOp57
 70
     1
102
RTVSPropertyOp58
 70
     1
102
RTVSPropertyOp59
 70
     1
102
RTVSPropertyOp60
 70
     1
102
RTVSPropertyOp61
 70
     1
102
RTVSPropertyOp62
 70
     1
  0
XRECORD
  5
1D5D
102
{ACAD_REACTORS
330
1D5C
102
}
330
1D5C
100
AcDbXrecord
280
     1
102
RTVSPost2010Prop28
280
     0
102
RTVSPost2010PropOp28
 70
     1
102
RTVSPost2010Prop29
280
     1
102
RTVSPost2010PropOp29
 70
     1
102
RTVSPost2010Prop30
280
     1
102
RTVSPost2010PropOp30
 70
     1
102
RTVSPost2010Prop31
280
     0
102
RTVSPost2010PropOp31
 70
     1
102
RTVSPost2010Prop32
280
     0
102
RTVSPost2010PropOp32
 70
     1
102
RTVSPost2010Prop33
280
     0
102
RTVSPost2010PropOp33
 70
     1
102
RTVSPost2010Prop34
280
     0
102
RTVSPost2010PropOp34
 70
     1
102
RTVSPost2010Prop35
280
     0
102
RTVSPost2010PropOp35
 70
     1
102
RTVSPost2010Prop36
280
     0
102
RTVSPost2010PropOp36
 70
     1
102
RTVSPost2010Prop37
 90
       50
102
RTVSPost2010PropOp37
 70
     1
102
RTVSPost2010Prop38
140
0.0
102
RTVSPost2010PropOp38
 70
     1
102
RTVSPost2010Prop39
140
1.0
102
RTVSPost2010PropOp39
 70
     1
102
RTVSPost2010Prop40
 90
        0
102
RTVSPost2010PropOp40
 70
     1
102
RTVSPost2010Prop41ColorIndex
 90
       18
102
RTVSPost2010Prop41ColorRGB
 90
        0
102
RTVSPost2010PropOp41
 70
     1
102
RTVSPost2010Prop42
 90
       50
102
RTVSPost2010PropOp42
 70
     1
102
RTVSPost2010Prop43
 90
        3
102
RTVSPost2010PropOp43
 70
     1
102
RTVSPost2010Prop44ColorIndex
 90
        5
102
RTVSPost2010Prop44ColorRGB
 90
      255
102
RTVSPost2010PropOp44
 70
     1
102
RTVSPost2010Prop45
280
     0
102
RTVSPost2010PropOp45
 70
     1
102
RTVSPost2010Prop46
 90
       50
102
RTVSPost2010PropOp46
 70
     1
102
RTVSPost2010Prop47
 90
       50
102
RTVSPost2010PropOp47
 70
     1
102
RTVSPost2010Prop48
 90
       50
102
RTVSPost2010PropOp48
 70
     1
102
RTVSPost2010Prop49
280
     0
102
RTVSPost2010PropOp49
 70
     1
102
RTVSPost2010Prop50
 90
       50
102
RTVSPost2010PropOp50
 70
     1
102
RTVSPost2010Prop51ColorIndex
 90
      256
102
RTVSPost2010Prop51ColorRGB
 90
-16777216
102
RTVSPost2010PropOp51
 70
     0
102
RTVSPost2010Prop52
140
1.0
102
RTVSPost2010PropOp52
 70
     0
102
RTVSPost2010Prop53
 90
        2
102
RTVSPost2010PropOp53
 70
     1
102
RTVSPost2010Prop54
  1
strokes_ogs.tif
102
RTVSPost2010PropOp54
 70
     1
102
RTVSPost2010Prop55
280
     0
102
RTVSPost2010PropOp55
 70
     1
102
RTVSPost2010Prop56
140
1.0
102
RTVSPost2010PropOp56
 70
     1
102
RTVSPost2010Prop57
140
1.0
102
RTVSPost2010PropOp57
 70
     1
102
RTVSPropertyOp0
 70
     1
102
RTVSPropertyOp1
 70
     1
102
RTVSPropertyOp2
 70
     1
102
RTVSPropertyOp3
 70
     1
102
RTVSPropertyOp4
 70
     1
102
RTVSPropertyOp5
 70
     1
102
RTVSPropertyOp6
 70
     1
102
RTVSPropertyOp7
 70
     1
102
RTVSPropertyOp8
 70
     1
102
RTVSPropertyOp9
 70
     1
102
RTVSPropertyOp10
 70
     1
102
RTVSPropertyOp11
 70
     1
102
RTVSPropertyOp12
 70
     1
102
RTVSPropertyOp13
 70
     1
102
RTVSPropertyOp14
 70
     1
102
RTVSPropertyOp15
 70
     1
102
RTVSPropertyOp16
 70
     1
102
RTVSPropertyOp17
 70
     1
102
RTVSPropertyOp18
 70
     1
102
RTVSPropertyOp19
 70
     1
102
RTVSPropertyOp20
 70
     1
102
RTVSPropertyOp21
 70
     1
102
RTVSPropertyOp22
 70
     1
102
RTVSPropertyOp23
 70
     1
102
RTVSPropertyOp24
 70
     1
102
RTVSPropertyOp25
 70
     1
102
RTVSPropertyOp26
 70
     1
102
RTVSPropertyOp27
 70
     1
102
RTVSPropertyOp28
 70
     1
102
RTVSPropertyOp29
 70
     1
102
RTVSPropertyOp30
 70
     1
102
RTVSPropertyOp31
 70
     1
102
RTVSPropertyOp32
 70
     1
102
RTVSPropertyOp33
 70
     1
102
RTVSPropertyOp34
 70
     1
102
RTVSPropertyOp35
 70
     1
102
RTVSPropertyOp36
 70
     1
102
RTVSPropertyOp37
 70
     1
102
RTVSPropertyOp38
 70
     1
102
RTVSPropertyOp39
 70
     1
102
RTVSPropertyOp40
 70
     1
102
RTVSPropertyOp41
 70
     1
102
RTVSPropertyOp42
 70
     1
102
RTVSPropertyOp43
 70
     1
102
RTVSPropertyOp44
 70
     1
102
RTVSPropertyOp45
 70
     1
102
RTVSPropertyOp46
 70
     1
102
RTVSPropertyOp47
 70
     1
102
RTVSPropertyOp48
 70
     1
102
RTVSPropertyOp49
 70
     1
102
RTVSPropertyOp50
 70
     1
102
RTVSPropertyOp51
 70
     0
102
RTVSPropertyOp52
 70
     0
102
RTVSPropertyOp53
 70
     1
102
RTVSPropertyOp54
 70
     1
102
RTVSPropertyOp55
 70
     1
102
RTVSPropertyOp56
 70
     1
102
RTVSPropertyOp57
 70
     1
102
RTVSPropertyOp58
 70
     1
102
RTVSPropertyOp59
 70
     1
102
RTVSPropertyOp60
 70
     1
102
RTVSPropertyOp61
 70
     1
102
RTVSPropertyOp62
 70
     1
  0
XRECORD
  5
1D5B
102
{ACAD_REACTORS
330
1D5A
102
}
330
1D5A
100
AcDbXrecord
280
     1
102
RTVSPost2010Prop28
280
     0
102
RTVSPost2010PropOp28
 70
     1
102
RTVSPost2010Prop29
280
     1
102
RTVSPost2010PropOp29
 70
     1
102
RTVSPost2010Prop30
280
     1
102
RTVSPost2010PropOp30
 70
     1
102
RTVSPost2010Prop31
280
     0
102
RTVSPost2010PropOp31
 70
     1
102
RTVSPost2010Prop32
280
     0
102
RTVSPost2010PropOp32
 70
     1
102
RTVSPost2010Prop33
280
     0
102
RTVSPost2010PropOp33
 70
     1
102
RTVSPost2010Prop34
280
     0
102
RTVSPost2010PropOp34
 70
     1
102
RTVSPost2010Prop35
280
     0
102
RTVSPost2010PropOp35
 70
     1
102
RTVSPost2010Prop36
280
     0
102
RTVSPost2010PropOp36
 70
     1
102
RTVSPost2010Prop37
 90
       50
102
RTVSPost2010PropOp37
 70
     1
102
RTVSPost2010Prop38
140
0.0
102
RTVSPost2010PropOp38
 70
     1
102
RTVSPost2010Prop39
140
1.0
102
RTVSPost2010PropOp39
 70
     1
102
RTVSPost2010Prop40
 90
        0
102
RTVSPost2010PropOp40
 70
     1
102
RTVSPost2010Prop41ColorIndex
 90
       18
102
RTVSPost2010Prop41ColorRGB
 90
        0
102
RTVSPost2010PropOp41
 70
     1
102
RTVSPost2010Prop42
 90
       50
102
RTVSPost2010PropOp42
 70
     1
102
RTVSPost2010Prop43
 90
        3
102
RTVSPost2010PropOp43
 70
     1
102
RTVSPost2010Prop44ColorIndex
 90
        5
102
RTVSPost2010Prop44ColorRGB
 90
      255
102
RTVSPost2010PropOp44
 70
     1
102
RTVSPost2010Prop45
280
     0
102
RTVSPost2010PropOp45
 70
     1
102
RTVSPost2010Prop46
 90
       50
102
RTVSPost2010PropOp46
 70
     1
102
RTVSPost2010Prop47
 90
       50
102
RTVSPost2010PropOp47
 70
     1
102
RTVSPost2010Prop48
 90
       50
102
RTVSPost2010PropOp48
 70
     1
102
RTVSPost2010Prop49
280
     0
102
RTVSPost2010PropOp49
 70
     1
102
RTVSPost2010Prop50
 90
       50
102
RTVSPost2010PropOp50
 70
     1
102
RTVSPost2010Prop51ColorIndex
 90
      256
102
RTVSPost2010Prop51ColorRGB
 90
-16777216
102
RTVSPost2010PropOp51
 70
     0
102
RTVSPost2010Prop52
140
1.0
102
RTVSPost2010PropOp52
 70
     0
102
RTVSPost2010Prop53
 90
        2
102
RTVSPost2010PropOp53
 70
     1
102
RTVSPost2010Prop54
  1
strokes_ogs.tif
102
RTVSPost2010PropOp54
 70
     1
102
RTVSPost2010Prop55
280
     0
102
RTVSPost2010PropOp55
 70
     1
102
RTVSPost2010Prop56
140
1.0
102
RTVSPost2010PropOp56
 70
     1
102
RTVSPost2010Prop57
140
1.0
102
RTVSPost2010PropOp57
 70
     1
102
RTVSPropertyOp0
 70
     1
102
RTVSPropertyOp1
 70
     1
102
RTVSPropertyOp2
 70
     1
102
RTVSPropertyOp3
 70
     1
102
RTVSPropertyOp4
 70
     1
102
RTVSPropertyOp5
 70
     1
102
RTVSPropertyOp6
 70
     1
102
RTVSPropertyOp7
 70
     1
102
RTVSPropertyOp8
 70
     1
102
RTVSPropertyOp9
 70
     1
102
RTVSPropertyOp10
 70
     1
102
RTVSPropertyOp11
 70
     1
102
RTVSPropertyOp12
 70
     1
102
RTVSPropertyOp13
 70
     1
102
RTVSPropertyOp14
 70
     1
102
RTVSPropertyOp15
 70
     1
102
RTVSPropertyOp16
 70
     1
102
RTVSPropertyOp17
 70
     1
102
RTVSPropertyOp18
 70
     1
102
RTVSPropertyOp19
 70
     1
102
RTVSPropertyOp20
 70
     1
102
RTVSPropertyOp21
 70
     1
102
RTVSPropertyOp22
 70
     1
102
RTVSPropertyOp23
 70
     1
102
RTVSPropertyOp24
 70
     1
102
RTVSPropertyOp25
 70
     1
102
RTVSPropertyOp26
 70
     1
102
RTVSPropertyOp27
 70
     1
102
RTVSPropertyOp28
 70
     1
102
RTVSPropertyOp29
 70
     1
102
RTVSPropertyOp30
 70
     1
102
RTVSPropertyOp31
 70
     1
102
RTVSPropertyOp32
 70
     1
102
RTVSPropertyOp33
 70
     1
102
RTVSPropertyOp34
 70
     1
102
RTVSPropertyOp35
 70
     1
102
RTVSPropertyOp36
 70
     1
102
RTVSPropertyOp37
 70
     1
102
RTVSPropertyOp38
 70
     1
102
RTVSPropertyOp39
 70
     1
102
RTVSPropertyOp40
 70
     1
102
RTVSPropertyOp41
 70
     1
102
RTVSPropertyOp42
 70
     1
102
RTVSPropertyOp43
 70
     1
102
RTVSPropertyOp44
 70
     1
102
RTVSPropertyOp45
 70
     1
102
RTVSPropertyOp46
 70
     1
102
RTVSPropertyOp47
 70
     1
102
RTVSPropertyOp48
 70
     1
102
RTVSPropertyOp49
 70
     1
102
RTVSPropertyOp50
 70
     1
102
RTVSPropertyOp51
 70
     0
102
RTVSPropertyOp52
 70
     0
102
RTVSPropertyOp53
 70
     1
102
RTVSPropertyOp54
 70
     1
102
RTVSPropertyOp55
 70
     1
102
RTVSPropertyOp56
 70
     1
102
RTVSPropertyOp57
 70
     1
102
RTVSPropertyOp58
 70
     1
102
RTVSPropertyOp59
 70
     1
102
RTVSPropertyOp60
 70
     1
102
RTVSPropertyOp61
 70
     1
102
RTVSPropertyOp62
 70
     1
  0
XRECORD
  5
1D57
102
{ACAD_REACTORS
330
1D56
102
}
330
1D56
100
AcDbXrecord
280
     1
102
RTVSPost2010Prop28
280
     0
102
RTVSPost2010PropOp28
 70
     1
102
RTVSPost2010Prop29
280
     1
102
RTVSPost2010PropOp29
 70
     1
102
RTVSPost2010Prop30
280
     1
102
RTVSPost2010PropOp30
 70
     1
102
RTVSPost2010Prop31
280
     0
102
RTVSPost2010PropOp31
 70
     1
102
RTVSPost2010Prop32
280
     0
102
RTVSPost2010PropOp32
 70
     1
102
RTVSPost2010Prop33
280
     0
102
RTVSPost2010PropOp33
 70
     1
102
RTVSPost2010Prop34
280
     0
102
RTVSPost2010PropOp34
 70
     1
102
RTVSPost2010Prop35
280
     0
102
RTVSPost2010PropOp35
 70
     1
102
RTVSPost2010Prop36
280
     0
102
RTVSPost2010PropOp36
 70
     1
102
RTVSPost2010Prop37
 90
       50
102
RTVSPost2010PropOp37
 70
     1
102
RTVSPost2010Prop38
140
0.0
102
RTVSPost2010PropOp38
 70
     1
102
RTVSPost2010Prop39
140
1.0
102
RTVSPost2010PropOp39
 70
     1
102
RTVSPost2010Prop40
 90
        0
102
RTVSPost2010PropOp40
 70
     1
102
RTVSPost2010Prop41ColorIndex
 90
       18
102
RTVSPost2010Prop41ColorRGB
 90
        0
102
RTVSPost2010PropOp41
 70
     1
102
RTVSPost2010Prop42
 90
       50
102
RTVSPost2010PropOp42
 70
     1
102
RTVSPost2010Prop43
 90
        3
102
RTVSPost2010PropOp43
 70
     1
102
RTVSPost2010Prop44ColorIndex
 90
        5
102
RTVSPost2010Prop44ColorRGB
 90
      255
102
RTVSPost2010PropOp44
 70
     1
102
RTVSPost2010Prop45
280
     0
102
RTVSPost2010PropOp45
 70
     1
102
RTVSPost2010Prop46
 90
       50
102
RTVSPost2010PropOp46
 70
     1
102
RTVSPost2010Prop47
 90
       50
102
RTVSPost2010PropOp47
 70
     1
102
RTVSPost2010Prop48
 90
       50
102
RTVSPost2010PropOp48
 70
     1
102
RTVSPost2010Prop49
280
     0
102
RTVSPost2010PropOp49
 70
     1
102
RTVSPost2010Prop50
 90
       50
102
RTVSPost2010PropOp50
 70
     1
102
RTVSPost2010Prop51ColorIndex
 90
      256
102
RTVSPost2010Prop51ColorRGB
 90
-16777216
102
RTVSPost2010PropOp51
 70
     0
102
RTVSPost2010Prop52
140
1.0
102
RTVSPost2010PropOp52
 70
     0
102
RTVSPost2010Prop53
 90
        2
102
RTVSPost2010PropOp53
 70
     1
102
RTVSPost2010Prop54
  1
strokes_ogs.tif
102
RTVSPost2010PropOp54
 70
     1
102
RTVSPost2010Prop55
280
     0
102
RTVSPost2010PropOp55
 70
     1
102
RTVSPost2010Prop56
140
1.0
102
RTVSPost2010PropOp56
 70
     1
102
RTVSPost2010Prop57
140
1.0
102
RTVSPost2010PropOp57
 70
     1
102
RTVSPropertyOp0
 70
     1
102
RTVSPropertyOp1
 70
     1
102
RTVSPropertyOp2
 70
     1
102
RTVSPropertyOp3
 70
     1
102
RTVSPropertyOp4
 70
     1
102
RTVSPropertyOp5
 70
     1
102
RTVSPropertyOp6
 70
     1
102
RTVSPropertyOp7
 70
     1
102
RTVSPropertyOp8
 70
     1
102
RTVSPropertyOp9
 70
     1
102
RTVSPropertyOp10
 70
     1
102
RTVSPropertyOp11
 70
     1
102
RTVSPropertyOp12
 70
     1
102
RTVSPropertyOp13
 70
     1
102
RTVSPropertyOp14
 70
     1
102
RTVSPropertyOp15
 70
     1
102
RTVSPropertyOp16
 70
     1
102
RTVSPropertyOp17
 70
     1
102
RTVSPropertyOp18
 70
     1
102
RTVSPropertyOp19
 70
     1
102
RTVSPropertyOp20
 70
     1
102
RTVSPropertyOp21
 70
     1
102
RTVSPropertyOp22
 70
     1
102
RTVSPropertyOp23
 70
     1
102
RTVSPropertyOp24
 70
     1
102
RTVSPropertyOp25
 70
     1
102
RTVSPropertyOp26
 70
     1
102
RTVSPropertyOp27
 70
     1
102
RTVSPropertyOp28
 70
     1
102
RTVSPropertyOp29
 70
     1
102
RTVSPropertyOp30
 70
     1
102
RTVSPropertyOp31
 70
     1
102
RTVSPropertyOp32
 70
     1
102
RTVSPropertyOp33
 70
     1
102
RTVSPropertyOp34
 70
     1
102
RTVSPropertyOp35
 70
     1
102
RTVSPropertyOp36
 70
     1
102
RTVSPropertyOp37
 70
     1
102
RTVSPropertyOp38
 70
     1
102
RTVSPropertyOp39
 70
     1
102
RTVSPropertyOp40
 70
     1
102
RTVSPropertyOp41
 70
     1
102
RTVSPropertyOp42
 70
     1
102
RTVSPropertyOp43
 70
     1
102
RTVSPropertyOp44
 70
     1
102
RTVSPropertyOp45
 70
     1
102
RTVSPropertyOp46
 70
     1
102
RTVSPropertyOp47
 70
     1
102
RTVSPropertyOp48
 70
     1
102
RTVSPropertyOp49
 70
     1
102
RTVSPropertyOp50
 70
     1
102
RTVSPropertyOp51
 70
     0
102
RTVSPropertyOp52
 70
     0
102
RTVSPropertyOp53
 70
     1
102
RTVSPropertyOp54
 70
     1
102
RTVSPropertyOp55
 70
     1
102
RTVSPropertyOp56
 70
     1
102
RTVSPropertyOp57
 70
     1
102
RTVSPropertyOp58
 70
     1
102
RTVSPropertyOp59
 70
     1
102
RTVSPropertyOp60
 70
     1
102
RTVSPropertyOp61
 70
     1
102
RTVSPropertyOp62
 70
     1
  0
XRECORD
  5
1D65
102
{ACAD_REACTORS
330
1D64
102
}
330
1D64
100
AcDbXrecord
280
     1
102
RTVSPost2010Prop28
280
     0
102
RTVSPost2010PropOp28
 70
     1
102
RTVSPost2010Prop29
280
     1
102
RTVSPost2010PropOp29
 70
     1
102
RTVSPost2010Prop30
280
     1
102
RTVSPost2010PropOp30
 70
     1
102
RTVSPost2010Prop31
280
     0
102
RTVSPost2010PropOp31
 70
     1
102
RTVSPost2010Prop32
280
     0
102
RTVSPost2010PropOp32
 70
     1
102
RTVSPost2010Prop33
280
     0
102
RTVSPost2010PropOp33
 70
     1
102
RTVSPost2010Prop34
280
     0
102
RTVSPost2010PropOp34
 70
     1
102
RTVSPost2010Prop35
280
     0
102
RTVSPost2010PropOp35
 70
     1
102
RTVSPost2010Prop36
280
     0
102
RTVSPost2010PropOp36
 70
     1
102
RTVSPost2010Prop37
 90
       50
102
RTVSPost2010PropOp37
 70
     1
102
RTVSPost2010Prop38
140
0.0
102
RTVSPost2010PropOp38
 70
     1
102
RTVSPost2010Prop39
140
1.0
102
RTVSPost2010PropOp39
 70
     1
102
RTVSPost2010Prop40
 90
        0
102
RTVSPost2010PropOp40
 70
     1
102
RTVSPost2010Prop41ColorIndex
 90
       18
102
RTVSPost2010Prop41ColorRGB
 90
        0
102
RTVSPost2010PropOp41
 70
     1
102
RTVSPost2010Prop42
 90
       50
102
RTVSPost2010PropOp42
 70
     1
102
RTVSPost2010Prop43
 90
        3
102
RTVSPost2010PropOp43
 70
     1
102
RTVSPost2010Prop44ColorIndex
 90
        5
102
RTVSPost2010Prop44ColorRGB
 90
      255
102
RTVSPost2010PropOp44
 70
     1
102
RTVSPost2010Prop45
280
     0
102
RTVSPost2010PropOp45
 70
     1
102
RTVSPost2010Prop46
 90
       50
102
RTVSPost2010PropOp46
 70
     1
102
RTVSPost2010Prop47
 90
       50
102
RTVSPost2010PropOp47
 70
     1
102
RTVSPost2010Prop48
 90
       50
102
RTVSPost2010PropOp48
 70
     1
102
RTVSPost2010Prop49
280
     0
102
RTVSPost2010PropOp49
 70
     1
102
RTVSPost2010Prop50
 90
       50
102
RTVSPost2010PropOp50
 70
     1
102
RTVSPost2010Prop51ColorIndex
 90
      256
102
RTVSPost2010Prop51ColorRGB
 90
-16777216
102
RTVSPost2010PropOp51
 70
     0
102
RTVSPost2010Prop52
140
1.0
102
RTVSPost2010PropOp52
 70
     0
102
RTVSPost2010Prop53
 90
        2
102
RTVSPost2010PropOp53
 70
     1
102
RTVSPost2010Prop54
  1
strokes_ogs.tif
102
RTVSPost2010PropOp54
 70
     1
102
RTVSPost2010Prop55
280
     0
102
RTVSPost2010PropOp55
 70
     1
102
RTVSPost2010Prop56
140
1.0
102
RTVSPost2010PropOp56
 70
     1
102
RTVSPost2010Prop57
140
1.0
102
RTVSPost2010PropOp57
 70
     1
102
RTVSPropertyOp0
 70
     1
102
RTVSPropertyOp1
 70
     1
102
RTVSPropertyOp2
 70
     1
102
RTVSPropertyOp3
 70
     1
102
RTVSPropertyOp4
 70
     1
102
RTVSPropertyOp5
 70
     1
102
RTVSPropertyOp6
 70
     1
102
RTVSPropertyOp7
 70
     1
102
RTVSPropertyOp8
 70
     1
102
RTVSPropertyOp9
 70
     1
102
RTVSPropertyOp10
 70
     1
102
RTVSPropertyOp11
 70
     1
102
RTVSPropertyOp12
 70
     1
102
RTVSPropertyOp13
 70
     1
102
RTVSPropertyOp14
 70
     1
102
RTVSPropertyOp15
 70
     1
102
RTVSPropertyOp16
 70
     1
102
RTVSPropertyOp17
 70
     1
102
RTVSPropertyOp18
 70
     1
102
RTVSPropertyOp19
 70
     1
102
RTVSPropertyOp20
 70
     1
102
RTVSPropertyOp21
 70
     1
102
RTVSPropertyOp22
 70
     1
102
RTVSPropertyOp23
 70
     1
102
RTVSPropertyOp24
 70
     1
102
RTVSPropertyOp25
 70
     1
102
RTVSPropertyOp26
 70
     1
102
RTVSPropertyOp27
 70
     1
102
RTVSPropertyOp28
 70
     1
102
RTVSPropertyOp29
 70
     1
102
RTVSPropertyOp30
 70
     1
102
RTVSPropertyOp31
 70
     1
102
RTVSPropertyOp32
 70
     1
102
RTVSPropertyOp33
 70
     1
102
RTVSPropertyOp34
 70
     1
102
RTVSPropertyOp35
 70
     1
102
RTVSPropertyOp36
 70
     1
102
RTVSPropertyOp37
 70
     1
102
RTVSPropertyOp38
 70
     1
102
RTVSPropertyOp39
 70
     1
102
RTVSPropertyOp40
 70
     1
102
RTVSPropertyOp41
 70
     1
102
RTVSPropertyOp42
 70
     1
102
RTVSPropertyOp43
 70
     1
102
RTVSPropertyOp44
 70
     1
102
RTVSPropertyOp45
 70
     1
102
RTVSPropertyOp46
 70
     1
102
RTVSPropertyOp47
 70
     1
102
RTVSPropertyOp48
 70
     1
102
RTVSPropertyOp49
 70
     1
102
RTVSPropertyOp50
 70
     1
102
RTVSPropertyOp51
 70
     0
102
RTVSPropertyOp52
 70
     0
102
RTVSPropertyOp53
 70
     1
102
RTVSPropertyOp54
 70
     1
102
RTVSPropertyOp55
 70
     1
102
RTVSPropertyOp56
 70
     1
102
RTVSPropertyOp57
 70
     1
102
RTVSPropertyOp58
 70
     1
102
RTVSPropertyOp59
 70
     1
102
RTVSPropertyOp60
 70
     1
102
RTVSPropertyOp61
 70
     1
102
RTVSPropertyOp62
 70
     1
  0
XRECORD
  5
1D6D
102
{ACAD_REACTORS
330
1D6C
102
}
330
1D6C
100
AcDbXrecord
280
     1
102
RTVSPost2010Prop28
280
     0
102
RTVSPost2010PropOp28
 70
     1
102
RTVSPost2010Prop29
280
     1
102
RTVSPost2010PropOp29
 70
     1
102
RTVSPost2010Prop30
280
     1
102
RTVSPost2010PropOp30
 70
     1
102
RTVSPost2010Prop31
280
     0
102
RTVSPost2010PropOp31
 70
     1
102
RTVSPost2010Prop32
280
     0
102
RTVSPost2010PropOp32
 70
     1
102
RTVSPost2010Prop33
280
     0
102
RTVSPost2010PropOp33
 70
     1
102
RTVSPost2010Prop34
280
     0
102
RTVSPost2010PropOp34
 70
     1
102
RTVSPost2010Prop35
280
     0
102
RTVSPost2010PropOp35
 70
     1
102
RTVSPost2010Prop36
280
     0
102
RTVSPost2010PropOp36
 70
     1
102
RTVSPost2010Prop37
 90
       50
102
RTVSPost2010PropOp37
 70
     1
102
RTVSPost2010Prop38
140
0.0
102
RTVSPost2010PropOp38
 70
     1
102
RTVSPost2010Prop39
140
1.0
102
RTVSPost2010PropOp39
 70
     1
102
RTVSPost2010Prop40
 90
        0
102
RTVSPost2010PropOp40
 70
     1
102
RTVSPost2010Prop41ColorIndex
 90
       18
102
RTVSPost2010Prop41ColorRGB
 90
        0
102
RTVSPost2010PropOp41
 70
     1
102
RTVSPost2010Prop42
 90
       50
102
RTVSPost2010PropOp42
 70
     1
102
RTVSPost2010Prop43
 90
        3
102
RTVSPost2010PropOp43
 70
     1
102
RTVSPost2010Prop44ColorIndex
 90
        5
102
RTVSPost2010Prop44ColorRGB
 90
      255
102
RTVSPost2010PropOp44
 70
     1
102
RTVSPost2010Prop45
280
     0
102
RTVSPost2010PropOp45
 70
     1
102
RTVSPost2010Prop46
 90
       50
102
RTVSPost2010PropOp46
 70
     1
102
RTVSPost2010Prop47
 90
       50
102
RTVSPost2010PropOp47
 70
     1
102
RTVSPost2010Prop48
 90
       50
102
RTVSPost2010PropOp48
 70
     1
102
RTVSPost2010Prop49
280
     0
102
RTVSPost2010PropOp49
 70
     1
102
RTVSPost2010Prop50
 90
       50
102
RTVSPost2010PropOp50
 70
     1
102
RTVSPost2010Prop51ColorIndex
 90
      256
102
RTVSPost2010Prop51ColorRGB
 90
-16777216
102
RTVSPost2010PropOp51
 70
     0
102
RTVSPost2010Prop52
140
1.0
102
RTVSPost2010PropOp52
 70
     0
102
RTVSPost2010Prop53
 90
        2
102
RTVSPost2010PropOp53
 70
     1
102
RTVSPost2010Prop54
  1
strokes_ogs.tif
102
RTVSPost2010PropOp54
 70
     1
102
RTVSPost2010Prop55
280
     0
102
RTVSPost2010PropOp55
 70
     1
102
RTVSPost2010Prop56
140
1.0
102
RTVSPost2010PropOp56
 70
     1
102
RTVSPost2010Prop57
140
1.0
102
RTVSPost2010PropOp57
 70
     1
102
RTVSPropertyOp0
 70
     1
102
RTVSPropertyOp1
 70
     1
102
RTVSPropertyOp2
 70
     1
102
RTVSPropertyOp3
 70
     1
102
RTVSPropertyOp4
 70
     1
102
RTVSPropertyOp5
 70
     1
102
RTVSPropertyOp6
 70
     1
102
RTVSPropertyOp7
 70
     1
102
RTVSPropertyOp8
 70
     1
102
RTVSPropertyOp9
 70
     1
102
RTVSPropertyOp10
 70
     1
102
RTVSPropertyOp11
 70
     1
102
RTVSPropertyOp12
 70
     1
102
RTVSPropertyOp13
 70
     1
102
RTVSPropertyOp14
 70
     1
102
RTVSPropertyOp15
 70
     1
102
RTVSPropertyOp16
 70
     1
102
RTVSPropertyOp17
 70
     1
102
RTVSPropertyOp18
 70
     1
102
RTVSPropertyOp19
 70
     1
102
RTVSPropertyOp20
 70
     1
102
RTVSPropertyOp21
 70
     1
102
RTVSPropertyOp22
 70
     1
102
RTVSPropertyOp23
 70
     1
102
RTVSPropertyOp24
 70
     1
102
RTVSPropertyOp25
 70
     1
102
RTVSPropertyOp26
 70
     1
102
RTVSPropertyOp27
 70
     1
102
RTVSPropertyOp28
 70
     1
102
RTVSPropertyOp29
 70
     1
102
RTVSPropertyOp30
 70
     1
102
RTVSPropertyOp31
 70
     1
102
RTVSPropertyOp32
 70
     1
102
RTVSPropertyOp33
 70
     1
102
RTVSPropertyOp34
 70
     1
102
RTVSPropertyOp35
 70
     1
102
RTVSPropertyOp36
 70
     1
102
RTVSPropertyOp37
 70
     1
102
RTVSPropertyOp38
 70
     1
102
RTVSPropertyOp39
 70
     1
102
RTVSPropertyOp40
 70
     1
102
RTVSPropertyOp41
 70
     1
102
RTVSPropertyOp42
 70
     1
102
RTVSPropertyOp43
 70
     1
102
RTVSPropertyOp44
 70
     1
102
RTVSPropertyOp45
 70
     1
102
RTVSPropertyOp46
 70
     1
102
RTVSPropertyOp47
 70
     1
102
RTVSPropertyOp48
 70
     1
102
RTVSPropertyOp49
 70
     1
102
RTVSPropertyOp50
 70
     1
102
RTVSPropertyOp51
 70
     0
102
RTVSPropertyOp52
 70
     0
102
RTVSPropertyOp53
 70
     1
102
RTVSPropertyOp54
 70
     1
102
RTVSPropertyOp55
 70
     1
102
RTVSPropertyOp56
 70
     1
102
RTVSPropertyOp57
 70
     1
102
RTVSPropertyOp58
 70
     1
102
RTVSPropertyOp59
 70
     1
102
RTVSPropertyOp60
 70
     1
102
RTVSPropertyOp61
 70
     1
102
RTVSPropertyOp62
 70
     1
  0
XRECORD
  5
1D5F
102
{ACAD_REACTORS
330
1D5E
102
}
330
1D5E
100
AcDbXrecord
280
     1
102
RTVSPost2010Prop28
280
     0
102
RTVSPost2010PropOp28
 70
     1
102
RTVSPost2010Prop29
280
     1
102
RTVSPost2010PropOp29
 70
     1
102
RTVSPost2010Prop30
280
     1
102
RTVSPost2010PropOp30
 70
     1
102
RTVSPost2010Prop31
280
     0
102
RTVSPost2010PropOp31
 70
     1
102
RTVSPost2010Prop32
280
     0
102
RTVSPost2010PropOp32
 70
     1
102
RTVSPost2010Prop33
280
     0
102
RTVSPost2010PropOp33
 70
     1
102
RTVSPost2010Prop34
280
     0
102
RTVSPost2010PropOp34
 70
     1
102
RTVSPost2010Prop35
280
     0
102
RTVSPost2010PropOp35
 70
     1
102
RTVSPost2010Prop36
280
     0
102
RTVSPost2010PropOp36
 70
     1
102
RTVSPost2010Prop37
 90
       50
102
RTVSPost2010PropOp37
 70
     1
102
RTVSPost2010Prop38
140
0.0
102
RTVSPost2010PropOp38
 70
     1
102
RTVSPost2010Prop39
140
1.0
102
RTVSPost2010PropOp39
 70
     1
102
RTVSPost2010Prop40
 90
        0
102
RTVSPost2010PropOp40
 70
     1
102
RTVSPost2010Prop41ColorIndex
 90
       18
102
RTVSPost2010Prop41ColorRGB
 90
        0
102
RTVSPost2010PropOp41
 70
     1
102
RTVSPost2010Prop42
 90
       50
102
RTVSPost2010PropOp42
 70
     1
102
RTVSPost2010Prop43
 90
        3
102
RTVSPost2010PropOp43
 70
     1
102
RTVSPost2010Prop44ColorIndex
 90
        5
102
RTVSPost2010Prop44ColorRGB
 90
      255
102
RTVSPost2010PropOp44
 70
     1
102
RTVSPost2010Prop45
280
     0
102
RTVSPost2010PropOp45
 70
     1
102
RTVSPost2010Prop46
 90
       50
102
RTVSPost2010PropOp46
 70
     1
102
RTVSPost2010Prop47
 90
       50
102
RTVSPost2010PropOp47
 70
     1
102
RTVSPost2010Prop48
 90
       50
102
RTVSPost2010PropOp48
 70
     1
102
RTVSPost2010Prop49
280
     0
102
RTVSPost2010PropOp49
 70
     1
102
RTVSPost2010Prop50
 90
       50
102
RTVSPost2010PropOp50
 70
     1
102
RTVSPost2010Prop51ColorIndex
 90
      256
102
RTVSPost2010Prop51ColorRGB
 90
-16777216
102
RTVSPost2010PropOp51
 70
     0
102
RTVSPost2010Prop52
140
1.0
102
RTVSPost2010PropOp52
 70
     0
102
RTVSPost2010Prop53
 90
        2
102
RTVSPost2010PropOp53
 70
     1
102
RTVSPost2010Prop54
  1
strokes_ogs.tif
102
RTVSPost2010PropOp54
 70
     1
102
RTVSPost2010Prop55
280
     0
102
RTVSPost2010PropOp55
 70
     1
102
RTVSPost2010Prop56
140
1.0
102
RTVSPost2010PropOp56
 70
     1
102
RTVSPost2010Prop57
140
1.0
102
RTVSPost2010PropOp57
 70
     1
102
RTVSPropertyOp0
 70
     1
102
RTVSPropertyOp1
 70
     1
102
RTVSPropertyOp2
 70
     1
102
RTVSPropertyOp3
 70
     1
102
RTVSPropertyOp4
 70
     1
102
RTVSPropertyOp5
 70
     1
102
RTVSPropertyOp6
 70
     1
102
RTVSPropertyOp7
 70
     1
102
RTVSPropertyOp8
 70
     1
102
RTVSPropertyOp9
 70
     1
102
RTVSPropertyOp10
 70
     1
102
RTVSPropertyOp11
 70
     1
102
RTVSPropertyOp12
 70
     1
102
RTVSPropertyOp13
 70
     1
102
RTVSPropertyOp14
 70
     1
102
RTVSPropertyOp15
 70
     1
102
RTVSPropertyOp16
 70
     1
102
RTVSPropertyOp17
 70
     1
102
RTVSPropertyOp18
 70
     1
102
RTVSPropertyOp19
 70
     1
102
RTVSPropertyOp20
 70
     1
102
RTVSPropertyOp21
 70
     1
102
RTVSPropertyOp22
 70
     1
102
RTVSPropertyOp23
 70
     1
102
RTVSPropertyOp24
 70
     1
102
RTVSPropertyOp25
 70
     1
102
RTVSPropertyOp26
 70
     1
102
RTVSPropertyOp27
 70
     1
102
RTVSPropertyOp28
 70
     1
102
RTVSPropertyOp29
 70
     1
102
RTVSPropertyOp30
 70
     1
102
RTVSPropertyOp31
 70
     1
102
RTVSPropertyOp32
 70
     1
102
RTVSPropertyOp33
 70
     1
102
RTVSPropertyOp34
 70
     1
102
RTVSPropertyOp35
 70
     1
102
RTVSPropertyOp36
 70
     1
102
RTVSPropertyOp37
 70
     1
102
RTVSPropertyOp38
 70
     1
102
RTVSPropertyOp39
 70
     1
102
RTVSPropertyOp40
 70
     1
102
RTVSPropertyOp41
 70
     1
102
RTVSPropertyOp42
 70
     1
102
RTVSPropertyOp43
 70
     1
102
RTVSPropertyOp44
 70
     1
102
RTVSPropertyOp45
 70
     1
102
RTVSPropertyOp46
 70
     1
102
RTVSPropertyOp47
 70
     1
102
RTVSPropertyOp48
 70
     1
102
RTVSPropertyOp49
 70
     1
102
RTVSPropertyOp50
 70
     1
102
RTVSPropertyOp51
 70
     0
102
RTVSPropertyOp52
 70
     0
102
RTVSPropertyOp53
 70
     1
102
RTVSPropertyOp54
 70
     1
102
RTVSPropertyOp55
 70
     1
102
RTVSPropertyOp56
 70
     1
102
RTVSPropertyOp57
 70
     1
102
RTVSPropertyOp58
 70
     1
102
RTVSPropertyOp59
 70
     1
102
RTVSPropertyOp60
 70
     1
102
RTVSPropertyOp61
 70
     1
102
RTVSPropertyOp62
 70
     1
  0
XRECORD
  5
1D63
102
{ACAD_REACTORS
330
1D62
102
}
330
1D62
100
AcDbXrecord
280
     1
102
RTVSPost2010Prop28
280
     0
102
RTVSPost2010PropOp28
 70
     1
102
RTVSPost2010Prop29
280
     1
102
RTVSPost2010PropOp29
 70
     1
102
RTVSPost2010Prop30
280
     1
102
RTVSPost2010PropOp30
 70
     1
102
RTVSPost2010Prop31
280
     0
102
RTVSPost2010PropOp31
 70
     1
102
RTVSPost2010Prop32
280
     0
102
RTVSPost2010PropOp32
 70
     1
102
RTVSPost2010Prop33
280
     0
102
RTVSPost2010PropOp33
 70
     1
102
RTVSPost2010Prop34
280
     0
102
RTVSPost2010PropOp34
 70
     1
102
RTVSPost2010Prop35
280
     0
102
RTVSPost2010PropOp35
 70
     1
102
RTVSPost2010Prop36
280
     0
102
RTVSPost2010PropOp36
 70
     1
102
RTVSPost2010Prop37
 90
       50
102
RTVSPost2010PropOp37
 70
     1
102
RTVSPost2010Prop38
140
0.0
102
RTVSPost2010PropOp38
 70
     1
102
RTVSPost2010Prop39
140
1.0
102
RTVSPost2010PropOp39
 70
     1
102
RTVSPost2010Prop40
 90
        0
102
RTVSPost2010PropOp40
 70
     1
102
RTVSPost2010Prop41ColorIndex
 90
       18
102
RTVSPost2010Prop41ColorRGB
 90
        0
102
RTVSPost2010PropOp41
 70
     1
102
RTVSPost2010Prop42
 90
       50
102
RTVSPost2010PropOp42
 70
     1
102
RTVSPost2010Prop43
 90
        3
102
RTVSPost2010PropOp43
 70
     1
102
RTVSPost2010Prop44ColorIndex
 90
        5
102
RTVSPost2010Prop44ColorRGB
 90
      255
102
RTVSPost2010PropOp44
 70
     1
102
RTVSPost2010Prop45
280
     0
102
RTVSPost2010PropOp45
 70
     1
102
RTVSPost2010Prop46
 90
       50
102
RTVSPost2010PropOp46
 70
     1
102
RTVSPost2010Prop47
 90
       50
102
RTVSPost2010PropOp47
 70
     1
102
RTVSPost2010Prop48
 90
       50
102
RTVSPost2010PropOp48
 70
     1
102
RTVSPost2010Prop49
280
     0
102
RTVSPost2010PropOp49
 70
     1
102
RTVSPost2010Prop50
 90
       50
102
RTVSPost2010PropOp50
 70
     1
102
RTVSPost2010Prop51ColorIndex
 90
      256
102
RTVSPost2010Prop51ColorRGB
 90
-16777216
102
RTVSPost2010PropOp51
 70
     0
102
RTVSPost2010Prop52
140
1.0
102
RTVSPost2010PropOp52
 70
     0
102
RTVSPost2010Prop53
 90
        2
102
RTVSPost2010PropOp53
 70
     1
102
RTVSPost2010Prop54
  1
strokes_ogs.tif
102
RTVSPost2010PropOp54
 70
     1
102
RTVSPost2010Prop55
280
     0
102
RTVSPost2010PropOp55
 70
     1
102
RTVSPost2010Prop56
140
1.0
102
RTVSPost2010PropOp56
 70
     1
102
RTVSPost2010Prop57
140
1.0
102
RTVSPost2010PropOp57
 70
     1
102
RTVSPropertyOp0
 70
     1
102
RTVSPropertyOp1
 70
     1
102
RTVSPropertyOp2
 70
     1
102
RTVSPropertyOp3
 70
     1
102
RTVSPropertyOp4
 70
     1
102
RTVSPropertyOp5
 70
     1
102
RTVSPropertyOp6
 70
     1
102
RTVSPropertyOp7
 70
     1
102
RTVSPropertyOp8
 70
     1
102
RTVSPropertyOp9
 70
     1
102
RTVSPropertyOp10
 70
     1
102
RTVSPropertyOp11
 70
     1
102
RTVSPropertyOp12
 70
     1
102
RTVSPropertyOp13
 70
     1
102
RTVSPropertyOp14
 70
     1
102
RTVSPropertyOp15
 70
     1
102
RTVSPropertyOp16
 70
     1
102
RTVSPropertyOp17
 70
     1
102
RTVSPropertyOp18
 70
     1
102
RTVSPropertyOp19
 70
     1
102
RTVSPropertyOp20
 70
     1
102
RTVSPropertyOp21
 70
     1
102
RTVSPropertyOp22
 70
     1
102
RTVSPropertyOp23
 70
     1
102
RTVSPropertyOp24
 70
     1
102
RTVSPropertyOp25
 70
     1
102
RTVSPropertyOp26
 70
     1
102
RTVSPropertyOp27
 70
     1
102
RTVSPropertyOp28
 70
     1
102
RTVSPropertyOp29
 70
     1
102
RTVSPropertyOp30
 70
     1
102
RTVSPropertyOp31
 70
     1
102
RTVSPropertyOp32
 70
     1
102
RTVSPropertyOp33
 70
     1
102
RTVSPropertyOp34
 70
     1
102
RTVSPropertyOp35
 70
     1
102
RTVSPropertyOp36
 70
     1
102
RTVSPropertyOp37
 70
     1
102
RTVSPropertyOp38
 70
     1
102
RTVSPropertyOp39
 70
     1
102
RTVSPropertyOp40
 70
     1
102
RTVSPropertyOp41
 70
     1
102
RTVSPropertyOp42
 70
     1
102
RTVSPropertyOp43
 70
     1
102
RTVSPropertyOp44
 70
     1
102
RTVSPropertyOp45
 70
     1
102
RTVSPropertyOp46
 70
     1
102
RTVSPropertyOp47
 70
     1
102
RTVSPropertyOp48
 70
     1
102
RTVSPropertyOp49
 70
     1
102
RTVSPropertyOp50
 70
     1
102
RTVSPropertyOp51
 70
     0
102
RTVSPropertyOp52
 70
     0
102
RTVSPropertyOp53
 70
     1
102
RTVSPropertyOp54
 70
     1
102
RTVSPropertyOp55
 70
     1
102
RTVSPropertyOp56
 70
     1
102
RTVSPropertyOp57
 70
     1
102
RTVSPropertyOp58
 70
     1
102
RTVSPropertyOp59
 70
     1
102
RTVSPropertyOp60
 70
     1
102
RTVSPropertyOp61
 70
     1
102
RTVSPropertyOp62
 70
     1
  0
XRECORD
  5
1D7D
102
{ACAD_REACTORS
330
1D7C
102
}
330
1D7C
100
AcDbXrecord
280
     1
102
RTVSPost2010Prop28
280
     0
102
RTVSPost2010PropOp28
 70
     1
102
RTVSPost2010Prop29
280
     1
102
RTVSPost2010PropOp29
 70
     1
102
RTVSPost2010Prop30
280
     1
102
RTVSPost2010PropOp30
 70
     1
102
RTVSPost2010Prop31
280
     0
102
RTVSPost2010PropOp31
 70
     1
102
RTVSPost2010Prop32
280
     0
102
RTVSPost2010PropOp32
 70
     1
102
RTVSPost2010Prop33
280
     0
102
RTVSPost2010PropOp33
 70
     1
102
RTVSPost2010Prop34
280
     0
102
RTVSPost2010PropOp34
 70
     1
102
RTVSPost2010Prop35
280
     0
102
RTVSPost2010PropOp35
 70
     1
102
RTVSPost2010Prop36
280
     0
102
RTVSPost2010PropOp36
 70
     1
102
RTVSPost2010Prop37
 90
       50
102
RTVSPost2010PropOp37
 70
     1
102
RTVSPost2010Prop38
140
0.0
102
RTVSPost2010PropOp38
 70
     1
102
RTVSPost2010Prop39
140
1.0
102
RTVSPost2010PropOp39
 70
     1
102
RTVSPost2010Prop40
 90
        0
102
RTVSPost2010PropOp40
 70
     1
102
RTVSPost2010Prop41ColorIndex
 90
       18
102
RTVSPost2010Prop41ColorRGB
 90
        0
102
RTVSPost2010PropOp41
 70
     1
102
RTVSPost2010Prop42
 90
       50
102
RTVSPost2010PropOp42
 70
     1
102
RTVSPost2010Prop43
 90
        3
102
RTVSPost2010PropOp43
 70
     1
102
RTVSPost2010Prop44ColorIndex
 90
        5
102
RTVSPost2010Prop44ColorRGB
 90
      255
102
RTVSPost2010PropOp44
 70
     1
102
RTVSPost2010Prop45
280
     0
102
RTVSPost2010PropOp45
 70
     1
102
RTVSPost2010Prop46
 90
       50
102
RTVSPost2010PropOp46
 70
     1
102
RTVSPost2010Prop47
 90
       50
102
RTVSPost2010PropOp47
 70
     1
102
RTVSPost2010Prop48
 90
       50
102
RTVSPost2010PropOp48
 70
     1
102
RTVSPost2010Prop49
280
     0
102
RTVSPost2010PropOp49
 70
     1
102
RTVSPost2010Prop50
 90
       50
102
RTVSPost2010PropOp50
 70
     1
102
RTVSPost2010Prop51ColorIndex
 90
      256
102
RTVSPost2010Prop51ColorRGB
 90
-16777216
102
RTVSPost2010PropOp51
 70
     0
102
RTVSPost2010Prop52
140
1.0
102
RTVSPost2010PropOp52
 70
     0
102
RTVSPost2010Prop53
 90
        2
102
RTVSPost2010PropOp53
 70
     1
102
RTVSPost2010Prop54
  1
strokes_ogs.tif
102
RTVSPost2010PropOp54
 70
     1
102
RTVSPost2010Prop55
280
     0
102
RTVSPost2010PropOp55
 70
     1
102
RTVSPost2010Prop56
140
1.0
102
RTVSPost2010PropOp56
 70
     1
102
RTVSPost2010Prop57
140
1.0
102
RTVSPost2010PropOp57
 70
     1
102
RTVSPropertyOp0
 70
     0
102
RTVSPropertyOp1
 70
     0
102
RTVSPropertyOp2
 70
     0
102
RTVSPropertyOp3
 70
     0
102
RTVSPropertyOp4
 70
     0
102
RTVSPropertyOp5
 70
     0
102
RTVSPropertyOp6
 70
     0
102
RTVSPropertyOp7
 70
     0
102
RTVSPropertyOp8
 70
     0
102
RTVSPropertyOp9
 70
     0
102
RTVSPropertyOp10
 70
     0
102
RTVSPropertyOp11
 70
     0
102
RTVSPropertyOp12
 70
     0
102
RTVSPropertyOp13
 70
     0
102
RTVSPropertyOp14
 70
     2
102
RTVSPropertyOp15
 70
     0
102
RTVSPropertyOp16
 70
     0
102
RTVSPropertyOp17
 70
     0
102
RTVSPropertyOp18
 70
     0
102
RTVSPropertyOp19
 70
     0
102
RTVSPropertyOp20
 70
     0
102
RTVSPropertyOp21
 70
     0
102
RTVSPropertyOp22
 70
     0
102
RTVSPropertyOp23
 70
     0
102
RTVSPropertyOp24
 70
     0
102
RTVSPropertyOp25
 70
     0
102
RTVSPropertyOp26
 70
     0
102
RTVSPropertyOp27
 70
     0
102
RTVSPropertyOp28
 70
     1
102
RTVSPropertyOp29
 70
     1
102
RTVSPropertyOp30
 70
     1
102
RTVSPropertyOp31
 70
     1
102
RTVSPropertyOp32
 70
     1
102
RTVSPropertyOp33
 70
     1
102
RTVSPropertyOp34
 70
     1
102
RTVSPropertyOp35
 70
     1
102
RTVSPropertyOp36
 70
     1
102
RTVSPropertyOp37
 70
     1
102
RTVSPropertyOp38
 70
     1
102
RTVSPropertyOp39
 70
     1
102
RTVSPropertyOp40
 70
     1
102
RTVSPropertyOp41
 70
     1
102
RTVSPropertyOp42
 70
     1
102
RTVSPropertyOp43
 70
     1
102
RTVSPropertyOp44
 70
     1
102
RTVSPropertyOp45
 70
     1
102
RTVSPropertyOp46
 70
     1
102
RTVSPropertyOp47
 70
     1
102
RTVSPropertyOp48
 70
     1
102
RTVSPropertyOp49
 70
     1
102
RTVSPropertyOp50
 70
     1
102
RTVSPropertyOp51
 70
     0
102
RTVSPropertyOp52
 70
     0
102
RTVSPropertyOp53
 70
     1
102
RTVSPropertyOp54
 70
     1
102
RTVSPropertyOp55
 70
     1
102
RTVSPropertyOp56
 70
     1
102
RTVSPropertyOp57
 70
     1
102
RTVSPropertyOp58
 70
     1
102
RTVSPropertyOp59
 70
     1
102
RTVSPropertyOp60
 70
     1
102
RTVSPropertyOp61
 70
     1
102
RTVSPropertyOp62
 70
     1
  0
XRECORD
  5
1D6B
102
{ACAD_REACTORS
330
1D6A
102
}
330
1D6A
100
AcDbXrecord
280
     1
102
RTVSPost2010Prop28
280
     0
102
RTVSPost2010PropOp28
 70
     1
102
RTVSPost2010Prop29
280
     1
102
RTVSPost2010PropOp29
 70
     1
102
RTVSPost2010Prop30
280
     1
102
RTVSPost2010PropOp30
 70
     1
102
RTVSPost2010Prop31
280
     0
102
RTVSPost2010PropOp31
 70
     1
102
RTVSPost2010Prop32
280
     0
102
RTVSPost2010PropOp32
 70
     1
102
RTVSPost2010Prop33
280
     0
102
RTVSPost2010PropOp33
 70
     1
102
RTVSPost2010Prop34
280
     0
102
RTVSPost2010PropOp34
 70
     1
102
RTVSPost2010Prop35
280
     0
102
RTVSPost2010PropOp35
 70
     1
102
RTVSPost2010Prop36
280
     0
102
RTVSPost2010PropOp36
 70
     1
102
RTVSPost2010Prop37
 90
       50
102
RTVSPost2010PropOp37
 70
     1
102
RTVSPost2010Prop38
140
0.0
102
RTVSPost2010PropOp38
 70
     1
102
RTVSPost2010Prop39
140
1.0
102
RTVSPost2010PropOp39
 70
     1
102
RTVSPost2010Prop40
 90
        0
102
RTVSPost2010PropOp40
 70
     1
102
RTVSPost2010Prop41ColorIndex
 90
       18
102
RTVSPost2010Prop41ColorRGB
 90
        0
102
RTVSPost2010PropOp41
 70
     1
102
RTVSPost2010Prop42
 90
       50
102
RTVSPost2010PropOp42
 70
     1
102
RTVSPost2010Prop43
 90
        3
102
RTVSPost2010PropOp43
 70
     1
102
RTVSPost2010Prop44ColorIndex
 90
        5
102
RTVSPost2010Prop44ColorRGB
 90
      255
102
RTVSPost2010PropOp44
 70
     1
102
RTVSPost2010Prop45
280
     0
102
RTVSPost2010PropOp45
 70
     1
102
RTVSPost2010Prop46
 90
       50
102
RTVSPost2010PropOp46
 70
     1
102
RTVSPost2010Prop47
 90
       50
102
RTVSPost2010PropOp47
 70
     1
102
RTVSPost2010Prop48
 90
       50
102
RTVSPost2010PropOp48
 70
     1
102
RTVSPost2010Prop49
280
     0
102
RTVSPost2010PropOp49
 70
     1
102
RTVSPost2010Prop50
 90
       50
102
RTVSPost2010PropOp50
 70
     1
102
RTVSPost2010Prop51ColorIndex
 90
      256
102
RTVSPost2010Prop51ColorRGB
 90
-16777216
102
RTVSPost2010PropOp51
 70
     0
102
RTVSPost2010Prop52
140
1.0
102
RTVSPost2010PropOp52
 70
     0
102
RTVSPost2010Prop53
 90
        2
102
RTVSPost2010PropOp53
 70
     1
102
RTVSPost2010Prop54
  1
strokes_ogs.tif
102
RTVSPost2010PropOp54
 70
     1
102
RTVSPost2010Prop55
280
     0
102
RTVSPost2010PropOp55
 70
     1
102
RTVSPost2010Prop56
140
1.0
102
RTVSPost2010PropOp56
 70
     1
102
RTVSPost2010Prop57
140
1.0
102
RTVSPost2010PropOp57
 70
     1
102
RTVSPropertyOp0
 70
     1
102
RTVSPropertyOp1
 70
     1
102
RTVSPropertyOp2
 70
     1
102
RTVSPropertyOp3
 70
     1
102
RTVSPropertyOp4
 70
     1
102
RTVSPropertyOp5
 70
     1
102
RTVSPropertyOp6
 70
     1
102
RTVSPropertyOp7
 70
     1
102
RTVSPropertyOp8
 70
     1
102
RTVSPropertyOp9
 70
     1
102
RTVSPropertyOp10
 70
     1
102
RTVSPropertyOp11
 70
     1
102
RTVSPropertyOp12
 70
     1
102
RTVSPropertyOp13
 70
     1
102
RTVSPropertyOp14
 70
     1
102
RTVSPropertyOp15
 70
     1
102
RTVSPropertyOp16
 70
     1
102
RTVSPropertyOp17
 70
     1
102
RTVSPropertyOp18
 70
     1
102
RTVSPropertyOp19
 70
     1
102
RTVSPropertyOp20
 70
     1
102
RTVSPropertyOp21
 70
     1
102
RTVSPropertyOp22
 70
     1
102
RTVSPropertyOp23
 70
     1
102
RTVSPropertyOp24
 70
     1
102
RTVSPropertyOp25
 70
     1
102
RTVSPropertyOp26
 70
     1
102
RTVSPropertyOp27
 70
     1
102
RTVSPropertyOp28
 70
     1
102
RTVSPropertyOp29
 70
     1
102
RTVSPropertyOp30
 70
     1
102
RTVSPropertyOp31
 70
     1
102
RTVSPropertyOp32
 70
     1
102
RTVSPropertyOp33
 70
     1
102
RTVSPropertyOp34
 70
     1
102
RTVSPropertyOp35
 70
     1
102
RTVSPropertyOp36
 70
     1
102
RTVSPropertyOp37
 70
     1
102
RTVSPropertyOp38
 70
     1
102
RTVSPropertyOp39
 70
     1
102
RTVSPropertyOp40
 70
     1
102
RTVSPropertyOp41
 70
     1
102
RTVSPropertyOp42
 70
     1
102
RTVSPropertyOp43
 70
     1
102
RTVSPropertyOp44
 70
     1
102
RTVSPropertyOp45
 70
     1
102
RTVSPropertyOp46
 70
     1
102
RTVSPropertyOp47
 70
     1
102
RTVSPropertyOp48
 70
     1
102
RTVSPropertyOp49
 70
     1
102
RTVSPropertyOp50
 70
     1
102
RTVSPropertyOp51
 70
     0
102
RTVSPropertyOp52
 70
     0
102
RTVSPropertyOp53
 70
     1
102
RTVSPropertyOp54
 70
     1
102
RTVSPropertyOp55
 70
     1
102
RTVSPropertyOp56
 70
     1
102
RTVSPropertyOp57
 70
     1
102
RTVSPropertyOp58
 70
     1
102
RTVSPropertyOp59
 70
     1
102
RTVSPropertyOp60
 70
     1
102
RTVSPropertyOp61
 70
     1
102
RTVSPropertyOp62
 70
     1
  0
XRECORD
  5
1D4F
102
{ACAD_REACTORS
330
1D4E
102
}
330
1D4E
100
AcDbXrecord
280
     1
102
RTVSPost2010Prop28
280
     0
102
RTVSPost2010PropOp28
 70
     1
102
RTVSPost2010Prop29
280
     1
102
RTVSPost2010PropOp29
 70
     1
102
RTVSPost2010Prop30
280
     1
102
RTVSPost2010PropOp30
 70
     1
102
RTVSPost2010Prop31
280
     0
102
RTVSPost2010PropOp31
 70
     1
102
RTVSPost2010Prop32
280
     0
102
RTVSPost2010PropOp32
 70
     1
102
RTVSPost2010Prop33
280
     0
102
RTVSPost2010PropOp33
 70
     1
102
RTVSPost2010Prop34
280
     0
102
RTVSPost2010PropOp34
 70
     1
102
RTVSPost2010Prop35
280
     0
102
RTVSPost2010PropOp35
 70
     1
102
RTVSPost2010Prop36
280
     0
102
RTVSPost2010PropOp36
 70
     1
102
RTVSPost2010Prop37
 90
       50
102
RTVSPost2010PropOp37
 70
     1
102
RTVSPost2010Prop38
140
0.0
102
RTVSPost2010PropOp38
 70
     1
102
RTVSPost2010Prop39
140
1.0
102
RTVSPost2010PropOp39
 70
     1
102
RTVSPost2010Prop40
 90
        0
102
RTVSPost2010PropOp40
 70
     1
102
RTVSPost2010Prop41ColorIndex
 90
       18
102
RTVSPost2010Prop41ColorRGB
 90
        0
102
RTVSPost2010PropOp41
 70
     1
102
RTVSPost2010Prop42
 90
       50
102
RTVSPost2010PropOp42
 70
     1
102
RTVSPost2010Prop43
 90
        3
102
RTVSPost2010PropOp43
 70
     1
102
RTVSPost2010Prop44ColorIndex
 90
        5
102
RTVSPost2010Prop44ColorRGB
 90
      255
102
RTVSPost2010PropOp44
 70
     1
102
RTVSPost2010Prop45
280
     0
102
RTVSPost2010PropOp45
 70
     1
102
RTVSPost2010Prop46
 90
       50
102
RTVSPost2010PropOp46
 70
     1
102
RTVSPost2010Prop47
 90
       50
102
RTVSPost2010PropOp47
 70
     1
102
RTVSPost2010Prop48
 90
       50
102
RTVSPost2010PropOp48
 70
     1
102
RTVSPost2010Prop49
280
     0
102
RTVSPost2010PropOp49
 70
     1
102
RTVSPost2010Prop50
 90
       50
102
RTVSPost2010PropOp50
 70
     1
102
RTVSPost2010Prop51ColorIndex
 90
      256
102
RTVSPost2010Prop51ColorRGB
 90
-16777216
102
RTVSPost2010PropOp51
 70
     0
102
RTVSPost2010Prop52
140
1.0
102
RTVSPost2010PropOp52
 70
     0
102
RTVSPost2010Prop53
 90
        2
102
RTVSPost2010PropOp53
 70
     1
102
RTVSPost2010Prop54
  1
strokes_ogs.tif
102
RTVSPost2010PropOp54
 70
     1
102
RTVSPost2010Prop55
280
     0
102
RTVSPost2010PropOp55
 70
     1
102
RTVSPost2010Prop56
140
1.0
102
RTVSPost2010PropOp56
 70
     1
102
RTVSPost2010Prop57
140
1.0
102
RTVSPost2010PropOp57
 70
     1
102
RTVSPropertyOp0
 70
     1
102
RTVSPropertyOp1
 70
     1
102
RTVSPropertyOp2
 70
     1
102
RTVSPropertyOp3
 70
     1
102
RTVSPropertyOp4
 70
     1
102
RTVSPropertyOp5
 70
     1
102
RTVSPropertyOp6
 70
     1
102
RTVSPropertyOp7
 70
     1
102
RTVSPropertyOp8
 70
     1
102
RTVSPropertyOp9
 70
     1
102
RTVSPropertyOp10
 70
     1
102
RTVSPropertyOp11
 70
     1
102
RTVSPropertyOp12
 70
     1
102
RTVSPropertyOp13
 70
     1
102
RTVSPropertyOp14
 70
     1
102
RTVSPropertyOp15
 70
     1
102
RTVSPropertyOp16
 70
     1
102
RTVSPropertyOp17
 70
     1
102
RTVSPropertyOp18
 70
     1
102
RTVSPropertyOp19
 70
     1
102
RTVSPropertyOp20
 70
     1
102
RTVSPropertyOp21
 70
     1
102
RTVSPropertyOp22
 70
     1
102
RTVSPropertyOp23
 70
     1
102
RTVSPropertyOp24
 70
     1
102
RTVSPropertyOp25
 70
     1
102
RTVSPropertyOp26
 70
     1
102
RTVSPropertyOp27
 70
     1
102
RTVSPropertyOp28
 70
     1
102
RTVSPropertyOp29
 70
     1
102
RTVSPropertyOp30
 70
     1
102
RTVSPropertyOp31
 70
     1
102
RTVSPropertyOp32
 70
     1
102
RTVSPropertyOp33
 70
     1
102
RTVSPropertyOp34
 70
     1
102
RTVSPropertyOp35
 70
     1
102
RTVSPropertyOp36
 70
     1
102
RTVSPropertyOp37
 70
     1
102
RTVSPropertyOp38
 70
     1
102
RTVSPropertyOp39
 70
     1
102
RTVSPropertyOp40
 70
     1
102
RTVSPropertyOp41
 70
     1
102
RTVSPropertyOp42
 70
     1
102
RTVSPropertyOp43
 70
     1
102
RTVSPropertyOp44
 70
     1
102
RTVSPropertyOp45
 70
     1
102
RTVSPropertyOp46
 70
     1
102
RTVSPropertyOp47
 70
     1
102
RTVSPropertyOp48
 70
     1
102
RTVSPropertyOp49
 70
     1
102
RTVSPropertyOp50
 70
     1
102
RTVSPropertyOp51
 70
     0
102
RTVSPropertyOp52
 70
     0
102
RTVSPropertyOp53
 70
     1
102
RTVSPropertyOp54
 70
     1
102
RTVSPropertyOp55
 70
     1
102
RTVSPropertyOp56
 70
     1
102
RTVSPropertyOp57
 70
     1
102
RTVSPropertyOp58
 70
     1
102
RTVSPropertyOp59
 70
     1
102
RTVSPropertyOp60
 70
     1
102
RTVSPropertyOp61
 70
     1
102
RTVSPropertyOp62
 70
     1
  0
XRECORD
  5
1D51
102
{ACAD_REACTORS
330
1D50
102
}
330
1D50
100
AcDbXrecord
280
     1
102
RTVSPost2010Prop28
280
     0
102
RTVSPost2010PropOp28
 70
     1
102
RTVSPost2010Prop29
280
     1
102
RTVSPost2010PropOp29
 70
     1
102
RTVSPost2010Prop30
280
     1
102
RTVSPost2010PropOp30
 70
     1
102
RTVSPost2010Prop31
280
     0
102
RTVSPost2010PropOp31
 70
     1
102
RTVSPost2010Prop32
280
     0
102
RTVSPost2010PropOp32
 70
     1
102
RTVSPost2010Prop33
280
     0
102
RTVSPost2010PropOp33
 70
     1
102
RTVSPost2010Prop34
280
     0
102
RTVSPost2010PropOp34
 70
     1
102
RTVSPost2010Prop35
280
     0
102
RTVSPost2010PropOp35
 70
     1
102
RTVSPost2010Prop36
280
     0
102
RTVSPost2010PropOp36
 70
     1
102
RTVSPost2010Prop37
 90
       50
102
RTVSPost2010PropOp37
 70
     1
102
RTVSPost2010Prop38
140
0.0
102
RTVSPost2010PropOp38
 70
     1
102
RTVSPost2010Prop39
140
1.0
102
RTVSPost2010PropOp39
 70
     1
102
RTVSPost2010Prop40
 90
        0
102
RTVSPost2010PropOp40
 70
     1
102
RTVSPost2010Prop41ColorIndex
 90
       18
102
RTVSPost2010Prop41ColorRGB
 90
        0
102
RTVSPost2010PropOp41
 70
     1
102
RTVSPost2010Prop42
 90
       50
102
RTVSPost2010PropOp42
 70
     1
102
RTVSPost2010Prop43
 90
        3
102
RTVSPost2010PropOp43
 70
     1
102
RTVSPost2010Prop44ColorIndex
 90
        5
102
RTVSPost2010Prop44ColorRGB
 90
      255
102
RTVSPost2010PropOp44
 70
     1
102
RTVSPost2010Prop45
280
     0
102
RTVSPost2010PropOp45
 70
     1
102
RTVSPost2010Prop46
 90
       50
102
RTVSPost2010PropOp46
 70
     1
102
RTVSPost2010Prop47
 90
       50
102
RTVSPost2010PropOp47
 70
     1
102
RTVSPost2010Prop48
 90
       50
102
RTVSPost2010PropOp48
 70
     1
102
RTVSPost2010Prop49
280
     0
102
RTVSPost2010PropOp49
 70
     1
102
RTVSPost2010Prop50
 90
       50
102
RTVSPost2010PropOp50
 70
     1
102
RTVSPost2010Prop51ColorIndex
 90
      256
102
RTVSPost2010Prop51ColorRGB
 90
-16777216
102
RTVSPost2010PropOp51
 70
     0
102
RTVSPost2010Prop52
140
1.0
102
RTVSPost2010PropOp52
 70
     0
102
RTVSPost2010Prop53
 90
        2
102
RTVSPost2010PropOp53
 70
     1
102
RTVSPost2010Prop54
  1
strokes_ogs.tif
102
RTVSPost2010PropOp54
 70
     1
102
RTVSPost2010Prop55
280
     0
102
RTVSPost2010PropOp55
 70
     1
102
RTVSPost2010Prop56
140
1.0
102
RTVSPost2010PropOp56
 70
     1
102
RTVSPost2010Prop57
140
1.0
102
RTVSPost2010PropOp57
 70
     1
102
RTVSPropertyOp0
 70
     1
102
RTVSPropertyOp1
 70
     1
102
RTVSPropertyOp2
 70
     1
102
RTVSPropertyOp3
 70
     1
102
RTVSPropertyOp4
 70
     1
102
RTVSPropertyOp5
 70
     1
102
RTVSPropertyOp6
 70
     1
102
RTVSPropertyOp7
 70
     1
102
RTVSPropertyOp8
 70
     1
102
RTVSPropertyOp9
 70
     1
102
RTVSPropertyOp10
 70
     1
102
RTVSPropertyOp11
 70
     1
102
RTVSPropertyOp12
 70
     1
102
RTVSPropertyOp13
 70
     1
102
RTVSPropertyOp14
 70
     1
102
RTVSPropertyOp15
 70
     1
102
RTVSPropertyOp16
 70
     1
102
RTVSPropertyOp17
 70
     1
102
RTVSPropertyOp18
 70
     1
102
RTVSPropertyOp19
 70
     1
102
RTVSPropertyOp20
 70
     1
102
RTVSPropertyOp21
 70
     1
102
RTVSPropertyOp22
 70
     1
102
RTVSPropertyOp23
 70
     1
102
RTVSPropertyOp24
 70
     1
102
RTVSPropertyOp25
 70
     1
102
RTVSPropertyOp26
 70
     1
102
RTVSPropertyOp27
 70
     1
102
RTVSPropertyOp28
 70
     1
102
RTVSPropertyOp29
 70
     1
102
RTVSPropertyOp30
 70
     1
102
RTVSPropertyOp31
 70
     1
102
RTVSPropertyOp32
 70
     1
102
RTVSPropertyOp33
 70
     1
102
RTVSPropertyOp34
 70
     1
102
RTVSPropertyOp35
 70
     1
102
RTVSPropertyOp36
 70
     1
102
RTVSPropertyOp37
 70
     1
102
RTVSPropertyOp38
 70
     1
102
RTVSPropertyOp39
 70
     1
102
RTVSPropertyOp40
 70
     1
102
RTVSPropertyOp41
 70
     1
102
RTVSPropertyOp42
 70
     1
102
RTVSPropertyOp43
 70
     1
102
RTVSPropertyOp44
 70
     1
102
RTVSPropertyOp45
 70
     1
102
RTVSPropertyOp46
 70
     1
102
RTVSPropertyOp47
 70
     1
102
RTVSPropertyOp48
 70
     1
102
RTVSPropertyOp49
 70
     1
102
RTVSPropertyOp50
 70
     1
102
RTVSPropertyOp51
 70
     0
102
RTVSPropertyOp52
 70
     0
102
RTVSPropertyOp53
 70
     1
102
RTVSPropertyOp54
 70
     1
102
RTVSPropertyOp55
 70
     1
102
RTVSPropertyOp56
 70
     1
102
RTVSPropertyOp57
 70
     1
102
RTVSPropertyOp58
 70
     1
102
RTVSPropertyOp59
 70
     1
102
RTVSPropertyOp60
 70
     1
102
RTVSPropertyOp61
 70
     1
102
RTVSPropertyOp62
 70
     1
  0
XRECORD
  5
1D53
102
{ACAD_REACTORS
330
1D52
102
}
330
1D52
100
AcDbXrecord
280
     1
102
RTVSPost2010Prop28
280
     0
102
RTVSPost2010PropOp28
 70
     1
102
RTVSPost2010Prop29
280
     1
102
RTVSPost2010PropOp29
 70
     1
102
RTVSPost2010Prop30
280
     1
102
RTVSPost2010PropOp30
 70
     1
102
RTVSPost2010Prop31
280
     0
102
RTVSPost2010PropOp31
 70
     1
102
RTVSPost2010Prop32
280
     0
102
RTVSPost2010PropOp32
 70
     1
102
RTVSPost2010Prop33
280
     0
102
RTVSPost2010PropOp33
 70
     1
102
RTVSPost2010Prop34
280
     0
102
RTVSPost2010PropOp34
 70
     1
102
RTVSPost2010Prop35
280
     0
102
RTVSPost2010PropOp35
 70
     1
102
RTVSPost2010Prop36
280
     0
102
RTVSPost2010PropOp36
 70
     1
102
RTVSPost2010Prop37
 90
       50
102
RTVSPost2010PropOp37
 70
     1
102
RTVSPost2010Prop38
140
0.0
102
RTVSPost2010PropOp38
 70
     1
102
RTVSPost2010Prop39
140
1.0
102
RTVSPost2010PropOp39
 70
     1
102
RTVSPost2010Prop40
 90
        0
102
RTVSPost2010PropOp40
 70
     1
102
RTVSPost2010Prop41ColorIndex
 90
       18
102
RTVSPost2010Prop41ColorRGB
 90
        0
102
RTVSPost2010PropOp41
 70
     1
102
RTVSPost2010Prop42
 90
       50
102
RTVSPost2010PropOp42
 70
     1
102
RTVSPost2010Prop43
 90
        3
102
RTVSPost2010PropOp43
 70
     1
102
RTVSPost2010Prop44ColorIndex
 90
        5
102
RTVSPost2010Prop44ColorRGB
 90
      255
102
RTVSPost2010PropOp44
 70
     1
102
RTVSPost2010Prop45
280
     0
102
RTVSPost2010PropOp45
 70
     1
102
RTVSPost2010Prop46
 90
       50
102
RTVSPost2010PropOp46
 70
     1
102
RTVSPost2010Prop47
 90
       50
102
RTVSPost2010PropOp47
 70
     1
102
RTVSPost2010Prop48
 90
       50
102
RTVSPost2010PropOp48
 70
     1
102
RTVSPost2010Prop49
280
     0
102
RTVSPost2010PropOp49
 70
     1
102
RTVSPost2010Prop50
 90
       50
102
RTVSPost2010PropOp50
 70
     1
102
RTVSPost2010Prop51ColorIndex
 90
      256
102
RTVSPost2010Prop51ColorRGB
 90
-16777216
102
RTVSPost2010PropOp51
 70
     0
102
RTVSPost2010Prop52
140
1.0
102
RTVSPost2010PropOp52
 70
     0
102
RTVSPost2010Prop53
 90
        2
102
RTVSPost2010PropOp53
 70
     1
102
RTVSPost2010Prop54
  1
strokes_ogs.tif
102
RTVSPost2010PropOp54
 70
     1
102
RTVSPost2010Prop55
280
     0
102
RTVSPost2010PropOp55
 70
     1
102
RTVSPost2010Prop56
140
1.0
102
RTVSPost2010PropOp56
 70
     1
102
RTVSPost2010Prop57
140
1.0
102
RTVSPost2010PropOp57
 70
     1
102
RTVSPropertyOp0
 70
     1
102
RTVSPropertyOp1
 70
     1
102
RTVSPropertyOp2
 70
     1
102
RTVSPropertyOp3
 70
     1
102
RTVSPropertyOp4
 70
     1
102
RTVSPropertyOp5
 70
     1
102
RTVSPropertyOp6
 70
     1
102
RTVSPropertyOp7
 70
     1
102
RTVSPropertyOp8
 70
     1
102
RTVSPropertyOp9
 70
     1
102
RTVSPropertyOp10
 70
     1
102
RTVSPropertyOp11
 70
     1
102
RTVSPropertyOp12
 70
     1
102
RTVSPropertyOp13
 70
     1
102
RTVSPropertyOp14
 70
     1
102
RTVSPropertyOp15
 70
     1
102
RTVSPropertyOp16
 70
     1
102
RTVSPropertyOp17
 70
     1
102
RTVSPropertyOp18
 70
     1
102
RTVSPropertyOp19
 70
     1
102
RTVSPropertyOp20
 70
     1
102
RTVSPropertyOp21
 70
     1
102
RTVSPropertyOp22
 70
     1
102
RTVSPropertyOp23
 70
     1
102
RTVSPropertyOp24
 70
     1
102
RTVSPropertyOp25
 70
     1
102
RTVSPropertyOp26
 70
     1
102
RTVSPropertyOp27
 70
     1
102
RTVSPropertyOp28
 70
     1
102
RTVSPropertyOp29
 70
     1
102
RTVSPropertyOp30
 70
     1
102
RTVSPropertyOp31
 70
     1
102
RTVSPropertyOp32
 70
     1
102
RTVSPropertyOp33
 70
     1
102
RTVSPropertyOp34
 70
     1
102
RTVSPropertyOp35
 70
     1
102
RTVSPropertyOp36
 70
     1
102
RTVSPropertyOp37
 70
     1
102
RTVSPropertyOp38
 70
     1
102
RTVSPropertyOp39
 70
     1
102
RTVSPropertyOp40
 70
     1
102
RTVSPropertyOp41
 70
     1
102
RTVSPropertyOp42
 70
     1
102
RTVSPropertyOp43
 70
     1
102
RTVSPropertyOp44
 70
     1
102
RTVSPropertyOp45
 70
     1
102
RTVSPropertyOp46
 70
     1
102
RTVSPropertyOp47
 70
     1
102
RTVSPropertyOp48
 70
     1
102
RTVSPropertyOp49
 70
     1
102
RTVSPropertyOp50
 70
     1
102
RTVSPropertyOp51
 70
     0
102
RTVSPropertyOp52
 70
     0
102
RTVSPropertyOp53
 70
     1
102
RTVSPropertyOp54
 70
     1
102
RTVSPropertyOp55
 70
     1
102
RTVSPropertyOp56
 70
     1
102
RTVSPropertyOp57
 70
     1
102
RTVSPropertyOp58
 70
     1
102
RTVSPropertyOp59
 70
     1
102
RTVSPropertyOp60
 70
     1
102
RTVSPropertyOp61
 70
     1
102
RTVSPropertyOp62
 70
     1
  0
XRECORD
  5
1D55
102
{ACAD_REACTORS
330
1D54
102
}
330
1D54
100
AcDbXrecord
280
     1
102
RTVSPost2010Prop28
280
     0
102
RTVSPost2010PropOp28
 70
     1
102
RTVSPost2010Prop29
280
     1
102
RTVSPost2010PropOp29
 70
     1
102
RTVSPost2010Prop30
280
     1
102
RTVSPost2010PropOp30
 70
     1
102
RTVSPost2010Prop31
280
     0
102
RTVSPost2010PropOp31
 70
     1
102
RTVSPost2010Prop32
280
     0
102
RTVSPost2010PropOp32
 70
     1
102
RTVSPost2010Prop33
280
     0
102
RTVSPost2010PropOp33
 70
     1
102
RTVSPost2010Prop34
280
     0
102
RTVSPost2010PropOp34
 70
     1
102
RTVSPost2010Prop35
280
     0
102
RTVSPost2010PropOp35
 70
     1
102
RTVSPost2010Prop36
280
     0
102
RTVSPost2010PropOp36
 70
     1
102
RTVSPost2010Prop37
 90
       50
102
RTVSPost2010PropOp37
 70
     1
102
RTVSPost2010Prop38
140
0.0
102
RTVSPost2010PropOp38
 70
     1
102
RTVSPost2010Prop39
140
1.0
102
RTVSPost2010PropOp39
 70
     1
102
RTVSPost2010Prop40
 90
        0
102
RTVSPost2010PropOp40
 70
     1
102
RTVSPost2010Prop41ColorIndex
 90
       18
102
RTVSPost2010Prop41ColorRGB
 90
        0
102
RTVSPost2010PropOp41
 70
     1
102
RTVSPost2010Prop42
 90
       50
102
RTVSPost2010PropOp42
 70
     1
102
RTVSPost2010Prop43
 90
        3
102
RTVSPost2010PropOp43
 70
     1
102
RTVSPost2010Prop44ColorIndex
 90
        5
102
RTVSPost2010Prop44ColorRGB
 90
      255
102
RTVSPost2010PropOp44
 70
     1
102
RTVSPost2010Prop45
280
     0
102
RTVSPost2010PropOp45
 70
     1
102
RTVSPost2010Prop46
 90
       50
102
RTVSPost2010PropOp46
 70
     1
102
RTVSPost2010Prop47
 90
       50
102
RTVSPost2010PropOp47
 70
     1
102
RTVSPost2010Prop48
 90
       50
102
RTVSPost2010PropOp48
 70
     1
102
RTVSPost2010Prop49
280
     0
102
RTVSPost2010PropOp49
 70
     1
102
RTVSPost2010Prop50
 90
       50
102
RTVSPost2010PropOp50
 70
     1
102
RTVSPost2010Prop51ColorIndex
 90
      256
102
RTVSPost2010Prop51ColorRGB
 90
-16777216
102
RTVSPost2010PropOp51
 70
     0
102
RTVSPost2010Prop52
140
1.0
102
RTVSPost2010PropOp52
 70
     0
102
RTVSPost2010Prop53
 90
        2
102
RTVSPost2010PropOp53
 70
     1
102
RTVSPost2010Prop54
  1
strokes_ogs.tif
102
RTVSPost2010PropOp54
 70
     1
102
RTVSPost2010Prop55
280
     0
102
RTVSPost2010PropOp55
 70
     1
102
RTVSPost2010Prop56
140
1.0
102
RTVSPost2010PropOp56
 70
     1
102
RTVSPost2010Prop57
140
1.0
102
RTVSPost2010PropOp57
 70
     1
102
RTVSPropertyOp0
 70
     1
102
RTVSPropertyOp1
 70
     1
102
RTVSPropertyOp2
 70
     1
102
RTVSPropertyOp3
 70
     1
102
RTVSPropertyOp4
 70
     1
102
RTVSPropertyOp5
 70
     1
102
RTVSPropertyOp6
 70
     1
102
RTVSPropertyOp7
 70
     1
102
RTVSPropertyOp8
 70
     1
102
RTVSPropertyOp9
 70
     1
102
RTVSPropertyOp10
 70
     1
102
RTVSPropertyOp11
 70
     1
102
RTVSPropertyOp12
 70
     1
102
RTVSPropertyOp13
 70
     1
102
RTVSPropertyOp14
 70
     1
102
RTVSPropertyOp15
 70
     1
102
RTVSPropertyOp16
 70
     1
102
RTVSPropertyOp17
 70
     1
102
RTVSPropertyOp18
 70
     1
102
RTVSPropertyOp19
 70
     1
102
RTVSPropertyOp20
 70
     1
102
RTVSPropertyOp21
 70
     1
102
RTVSPropertyOp22
 70
     1
102
RTVSPropertyOp23
 70
     1
102
RTVSPropertyOp24
 70
     1
102
RTVSPropertyOp25
 70
     1
102
RTVSPropertyOp26
 70
     1
102
RTVSPropertyOp27
 70
     1
102
RTVSPropertyOp28
 70
     1
102
RTVSPropertyOp29
 70
     1
102
RTVSPropertyOp30
 70
     1
102
RTVSPropertyOp31
 70
     1
102
RTVSPropertyOp32
 70
     1
102
RTVSPropertyOp33
 70
     1
102
RTVSPropertyOp34
 70
     1
102
RTVSPropertyOp35
 70
     1
102
RTVSPropertyOp36
 70
     1
102
RTVSPropertyOp37
 70
     1
102
RTVSPropertyOp38
 70
     1
102
RTVSPropertyOp39
 70
     1
102
RTVSPropertyOp40
 70
     1
102
RTVSPropertyOp41
 70
     1
102
RTVSPropertyOp42
 70
     1
102
RTVSPropertyOp43
 70
     1
102
RTVSPropertyOp44
 70
     1
102
RTVSPropertyOp45
 70
     1
102
RTVSPropertyOp46
 70
     1
102
RTVSPropertyOp47
 70
     1
102
RTVSPropertyOp48
 70
     1
102
RTVSPropertyOp49
 70
     1
102
RTVSPropertyOp50
 70
     1
102
RTVSPropertyOp51
 70
     0
102
RTVSPropertyOp52
 70
     0
102
RTVSPropertyOp53
 70
     1
102
RTVSPropertyOp54
 70
     1
102
RTVSPropertyOp55
 70
     1
102
RTVSPropertyOp56
 70
     1
102
RTVSPropertyOp57
 70
     1
102
RTVSPropertyOp58
 70
     1
102
RTVSPropertyOp59
 70
     1
102
RTVSPropertyOp60
 70
     1
102
RTVSPropertyOp61
 70
     1
102
RTVSPropertyOp62
 70
     1
  0
XRECORD
  5
1D81
102
{ACAD_REACTORS
330
1D80
102
}
330
1D80
100
AcDbXrecord
280
     1
102
RTVSPost2010Prop28
280
     0
102
RTVSPost2010PropOp28
 70
     1
102
RTVSPost2010Prop29
280
     1
102
RTVSPost2010PropOp29
 70
     1
102
RTVSPost2010Prop30
280
     1
102
RTVSPost2010PropOp30
 70
     1
102
RTVSPost2010Prop31
280
     0
102
RTVSPost2010PropOp31
 70
     1
102
RTVSPost2010Prop32
280
     0
102
RTVSPost2010PropOp32
 70
     1
102
RTVSPost2010Prop33
280
     0
102
RTVSPost2010PropOp33
 70
     1
102
RTVSPost2010Prop34
280
     0
102
RTVSPost2010PropOp34
 70
     1
102
RTVSPost2010Prop35
280
     0
102
RTVSPost2010PropOp35
 70
     1
102
RTVSPost2010Prop36
280
     0
102
RTVSPost2010PropOp36
 70
     1
102
RTVSPost2010Prop37
 90
       50
102
RTVSPost2010PropOp37
 70
     1
102
RTVSPost2010Prop38
140
0.0
102
RTVSPost2010PropOp38
 70
     1
102
RTVSPost2010Prop39
140
1.0
102
RTVSPost2010PropOp39
 70
     1
102
RTVSPost2010Prop40
 90
        0
102
RTVSPost2010PropOp40
 70
     1
102
RTVSPost2010Prop41ColorIndex
 90
       18
102
RTVSPost2010Prop41ColorRGB
 90
        0
102
RTVSPost2010PropOp41
 70
     1
102
RTVSPost2010Prop42
 90
       50
102
RTVSPost2010PropOp42
 70
     1
102
RTVSPost2010Prop43
 90
        3
102
RTVSPost2010PropOp43
 70
     1
102
RTVSPost2010Prop44ColorIndex
 90
        5
102
RTVSPost2010Prop44ColorRGB
 90
      255
102
RTVSPost2010PropOp44
 70
     1
102
RTVSPost2010Prop45
280
     0
102
RTVSPost2010PropOp45
 70
     1
102
RTVSPost2010Prop46
 90
       50
102
RTVSPost2010PropOp46
 70
     1
102
RTVSPost2010Prop47
 90
       50
102
RTVSPost2010PropOp47
 70
     1
102
RTVSPost2010Prop48
 90
       50
102
RTVSPost2010PropOp48
 70
     1
102
RTVSPost2010Prop49
280
     0
102
RTVSPost2010PropOp49
 70
     1
102
RTVSPost2010Prop50
 90
       50
102
RTVSPost2010PropOp50
 70
     1
102
RTVSPost2010Prop51ColorIndex
 90
      256
102
RTVSPost2010Prop51ColorRGB
 90
-16777216
102
RTVSPost2010PropOp51
 70
     0
102
RTVSPost2010Prop52
140
1.0
102
RTVSPost2010PropOp52
 70
     0
102
RTVSPost2010Prop53
 90
        2
102
RTVSPost2010PropOp53
 70
     1
102
RTVSPost2010Prop54
  1
strokes_ogs.tif
102
RTVSPost2010PropOp54
 70
     1
102
RTVSPost2010Prop55
280
     0
102
RTVSPost2010PropOp55
 70
     1
102
RTVSPost2010Prop56
140
1.0
102
RTVSPost2010PropOp56
 70
     1
102
RTVSPost2010Prop57
140
1.0
102
RTVSPost2010PropOp57
 70
     1
102
RTVSPropertyOp0
 70
     1
102
RTVSPropertyOp1
 70
     1
102
RTVSPropertyOp2
 70
     1
102
RTVSPropertyOp3
 70
     1
102
RTVSPropertyOp4
 70
     1
102
RTVSPropertyOp5
 70
     1
102
RTVSPropertyOp6
 70
     1
102
RTVSPropertyOp7
 70
     1
102
RTVSPropertyOp8
 70
     1
102
RTVSPropertyOp9
 70
     1
102
RTVSPropertyOp10
 70
     1
102
RTVSPropertyOp11
 70
     1
102
RTVSPropertyOp12
 70
     1
102
RTVSPropertyOp13
 70
     1
102
RTVSPropertyOp14
 70
     1
102
RTVSPropertyOp15
 70
     1
102
RTVSPropertyOp16
 70
     1
102
RTVSPropertyOp17
 70
     1
102
RTVSPropertyOp18
 70
     1
102
RTVSPropertyOp19
 70
     1
102
RTVSPropertyOp20
 70
     1
102
RTVSPropertyOp21
 70
     1
102
RTVSPropertyOp22
 70
     1
102
RTVSPropertyOp23
 70
     1
102
RTVSPropertyOp24
 70
     1
102
RTVSPropertyOp25
 70
     1
102
RTVSPropertyOp26
 70
     1
102
RTVSPropertyOp27
 70
     1
102
RTVSPropertyOp28
 70
     1
102
RTVSPropertyOp29
 70
     1
102
RTVSPropertyOp30
 70
     1
102
RTVSPropertyOp31
 70
     1
102
RTVSPropertyOp32
 70
     1
102
RTVSPropertyOp33
 70
     1
102
RTVSPropertyOp34
 70
     1
102
RTVSPropertyOp35
 70
     1
102
RTVSPropertyOp36
 70
     1
102
RTVSPropertyOp37
 70
     1
102
RTVSPropertyOp38
 70
     1
102
RTVSPropertyOp39
 70
     1
102
RTVSPropertyOp40
 70
     1
102
RTVSPropertyOp41
 70
     1
102
RTVSPropertyOp42
 70
     1
102
RTVSPropertyOp43
 70
     1
102
RTVSPropertyOp44
 70
     1
102
RTVSPropertyOp45
 70
     1
102
RTVSPropertyOp46
 70
     1
102
RTVSPropertyOp47
 70
     1
102
RTVSPropertyOp48
 70
     1
102
RTVSPropertyOp49
 70
     1
102
RTVSPropertyOp50
 70
     1
102
RTVSPropertyOp51
 70
     0
102
RTVSPropertyOp52
 70
     0
102
RTVSPropertyOp53
 70
     1
102
RTVSPropertyOp54
 70
     1
102
RTVSPropertyOp55
 70
     1
102
RTVSPropertyOp56
 70
     1
102
RTVSPropertyOp57
 70
     1
102
RTVSPropertyOp58
 70
     1
102
RTVSPropertyOp59
 70
     1
102
RTVSPropertyOp60
 70
     1
102
RTVSPropertyOp61
 70
     1
102
RTVSPropertyOp62
 70
     1
  0
XRECORD
  5
1D79
102
{ACAD_REACTORS
330
1D78
102
}
330
1D78
100
AcDbXrecord
280
     1
102
RTVSPost2010Prop28
280
     0
102
RTVSPost2010PropOp28
 70
     1
102
RTVSPost2010Prop29
280
     1
102
RTVSPost2010PropOp29
 70
     1
102
RTVSPost2010Prop30
280
     1
102
RTVSPost2010PropOp30
 70
     1
102
RTVSPost2010Prop31
280
     0
102
RTVSPost2010PropOp31
 70
     1
102
RTVSPost2010Prop32
280
     0
102
RTVSPost2010PropOp32
 70
     1
102
RTVSPost2010Prop33
280
     0
102
RTVSPost2010PropOp33
 70
     1
102
RTVSPost2010Prop34
280
     0
102
RTVSPost2010PropOp34
 70
     1
102
RTVSPost2010Prop35
280
     0
102
RTVSPost2010PropOp35
 70
     1
102
RTVSPost2010Prop36
280
     0
102
RTVSPost2010PropOp36
 70
     1
102
RTVSPost2010Prop37
 90
       50
102
RTVSPost2010PropOp37
 70
     1
102
RTVSPost2010Prop38
140
0.0
102
RTVSPost2010PropOp38
 70
     1
102
RTVSPost2010Prop39
140
1.0
102
RTVSPost2010PropOp39
 70
     1
102
RTVSPost2010Prop40
 90
        0
102
RTVSPost2010PropOp40
 70
     1
102
RTVSPost2010Prop41ColorIndex
 90
       18
102
RTVSPost2010Prop41ColorRGB
 90
        0
102
RTVSPost2010PropOp41
 70
     1
102
RTVSPost2010Prop42
 90
       50
102
RTVSPost2010PropOp42
 70
     1
102
RTVSPost2010Prop43
 90
        3
102
RTVSPost2010PropOp43
 70
     1
102
RTVSPost2010Prop44ColorIndex
 90
        5
102
RTVSPost2010Prop44ColorRGB
 90
      255
102
RTVSPost2010PropOp44
 70
     1
102
RTVSPost2010Prop45
280
     0
102
RTVSPost2010PropOp45
 70
     1
102
RTVSPost2010Prop46
 90
       50
102
RTVSPost2010PropOp46
 70
     1
102
RTVSPost2010Prop47
 90
       50
102
RTVSPost2010PropOp47
 70
     1
102
RTVSPost2010Prop48
 90
       50
102
RTVSPost2010PropOp48
 70
     1
102
RTVSPost2010Prop49
280
     0
102
RTVSPost2010PropOp49
 70
     1
102
RTVSPost2010Prop50
 90
       50
102
RTVSPost2010PropOp50
 70
     1
102
RTVSPost2010Prop51ColorIndex
 90
      256
102
RTVSPost2010Prop51ColorRGB
 90
-16777216
102
RTVSPost2010PropOp51
 70
     0
102
RTVSPost2010Prop52
140
1.0
102
RTVSPost2010PropOp52
 70
     0
102
RTVSPost2010Prop53
 90
        2
102
RTVSPost2010PropOp53
 70
     1
102
RTVSPost2010Prop54
  1
strokes_ogs.tif
102
RTVSPost2010PropOp54
 70
     1
102
RTVSPost2010Prop55
280
     0
102
RTVSPost2010PropOp55
 70
     1
102
RTVSPost2010Prop56
140
1.0
102
RTVSPost2010PropOp56
 70
     1
102
RTVSPost2010Prop57
140
1.0
102
RTVSPost2010PropOp57
 70
     1
102
RTVSPropertyOp0
 70
     0
102
RTVSPropertyOp1
 70
     0
102
RTVSPropertyOp2
 70
     0
102
RTVSPropertyOp3
 70
     0
102
RTVSPropertyOp4
 70
     0
102
RTVSPropertyOp5
 70
     0
102
RTVSPropertyOp6
 70
     0
102
RTVSPropertyOp7
 70
     0
102
RTVSPropertyOp8
 70
     0
102
RTVSPropertyOp9
 70
     0
102
RTVSPropertyOp10
 70
     0
102
RTVSPropertyOp11
 70
     0
102
RTVSPropertyOp12
 70
     0
102
RTVSPropertyOp13
 70
     0
102
RTVSPropertyOp14
 70
     2
102
RTVSPropertyOp15
 70
     0
102
RTVSPropertyOp16
 70
     0
102
RTVSPropertyOp17
 70
     0
102
RTVSPropertyOp18
 70
     0
102
RTVSPropertyOp19
 70
     0
102
RTVSPropertyOp20
 70
     0
102
RTVSPropertyOp21
 70
     0
102
RTVSPropertyOp22
 70
     0
102
RTVSPropertyOp23
 70
     0
102
RTVSPropertyOp24
 70
     0
102
RTVSPropertyOp25
 70
     0
102
RTVSPropertyOp26
 70
     0
102
RTVSPropertyOp27
 70
     0
102
RTVSPropertyOp28
 70
     1
102
RTVSPropertyOp29
 70
     1
102
RTVSPropertyOp30
 70
     1
102
RTVSPropertyOp31
 70
     1
102
RTVSPropertyOp32
 70
     1
102
RTVSPropertyOp33
 70
     1
102
RTVSPropertyOp34
 70
     1
102
RTVSPropertyOp35
 70
     1
102
RTVSPropertyOp36
 70
     1
102
RTVSPropertyOp37
 70
     1
102
RTVSPropertyOp38
 70
     1
102
RTVSPropertyOp39
 70
     1
102
RTVSPropertyOp40
 70
     1
102
RTVSPropertyOp41
 70
     1
102
RTVSPropertyOp42
 70
     1
102
RTVSPropertyOp43
 70
     1
102
RTVSPropertyOp44
 70
     1
102
RTVSPropertyOp45
 70
     1
102
RTVSPropertyOp46
 70
     1
102
RTVSPropertyOp47
 70
     1
102
RTVSPropertyOp48
 70
     1
102
RTVSPropertyOp49
 70
     1
102
RTVSPropertyOp50
 70
     1
102
RTVSPropertyOp51
 70
     0
102
RTVSPropertyOp52
 70
     0
102
RTVSPropertyOp53
 70
     1
102
RTVSPropertyOp54
 70
     1
102
RTVSPropertyOp55
 70
     1
102
RTVSPropertyOp56
 70
     1
102
RTVSPropertyOp57
 70
     1
102
RTVSPropertyOp58
 70
     1
102
RTVSPropertyOp59
 70
     1
102
RTVSPropertyOp60
 70
     1
102
RTVSPropertyOp61
 70
     1
102
RTVSPropertyOp62
 70
     1
  0
XRECORD
  5
1D69
102
{ACAD_REACTORS
330
1D68
102
}
330
1D68
100
AcDbXrecord
280
     1
102
RTVSPost2010Prop28
280
     0
102
RTVSPost2010PropOp28
 70
     1
102
RTVSPost2010Prop29
280
     1
102
RTVSPost2010PropOp29
 70
     1
102
RTVSPost2010Prop30
280
     1
102
RTVSPost2010PropOp30
 70
     1
102
RTVSPost2010Prop31
280
     0
102
RTVSPost2010PropOp31
 70
     1
102
RTVSPost2010Prop32
280
     0
102
RTVSPost2010PropOp32
 70
     1
102
RTVSPost2010Prop33
280
     0
102
RTVSPost2010PropOp33
 70
     1
102
RTVSPost2010Prop34
280
     0
102
RTVSPost2010PropOp34
 70
     1
102
RTVSPost2010Prop35
280
     0
102
RTVSPost2010PropOp35
 70
     1
102
RTVSPost2010Prop36
280
     0
102
RTVSPost2010PropOp36
 70
     1
102
RTVSPost2010Prop37
 90
       50
102
RTVSPost2010PropOp37
 70
     1
102
RTVSPost2010Prop38
140
0.0
102
RTVSPost2010PropOp38
 70
     1
102
RTVSPost2010Prop39
140
1.0
102
RTVSPost2010PropOp39
 70
     1
102
RTVSPost2010Prop40
 90
        0
102
RTVSPost2010PropOp40
 70
     1
102
RTVSPost2010Prop41ColorIndex
 90
       18
102
RTVSPost2010Prop41ColorRGB
 90
        0
102
RTVSPost2010PropOp41
 70
     1
102
RTVSPost2010Prop42
 90
       50
102
RTVSPost2010PropOp42
 70
     1
102
RTVSPost2010Prop43
 90
        3
102
RTVSPost2010PropOp43
 70
     1
102
RTVSPost2010Prop44ColorIndex
 90
        5
102
RTVSPost2010Prop44ColorRGB
 90
      255
102
RTVSPost2010PropOp44
 70
     1
102
RTVSPost2010Prop45
280
     0
102
RTVSPost2010PropOp45
 70
     1
102
RTVSPost2010Prop46
 90
       50
102
RTVSPost2010PropOp46
 70
     1
102
RTVSPost2010Prop47
 90
       50
102
RTVSPost2010PropOp47
 70
     1
102
RTVSPost2010Prop48
 90
       50
102
RTVSPost2010PropOp48
 70
     1
102
RTVSPost2010Prop49
280
     0
102
RTVSPost2010PropOp49
 70
     1
102
RTVSPost2010Prop50
 90
       50
102
RTVSPost2010PropOp50
 70
     1
102
RTVSPost2010Prop51ColorIndex
 90
      256
102
RTVSPost2010Prop51ColorRGB
 90
-16777216
102
RTVSPost2010PropOp51
 70
     0
102
RTVSPost2010Prop52
140
1.0
102
RTVSPost2010PropOp52
 70
     0
102
RTVSPost2010Prop53
 90
        2
102
RTVSPost2010PropOp53
 70
     1
102
RTVSPost2010Prop54
  1
strokes_ogs.tif
102
RTVSPost2010PropOp54
 70
     1
102
RTVSPost2010Prop55
280
     0
102
RTVSPost2010PropOp55
 70
     1
102
RTVSPost2010Prop56
140
1.0
102
RTVSPost2010PropOp56
 70
     1
102
RTVSPost2010Prop57
140
1.0
102
RTVSPost2010PropOp57
 70
     1
102
RTVSPropertyOp0
 70
     1
102
RTVSPropertyOp1
 70
     1
102
RTVSPropertyOp2
 70
     1
102
RTVSPropertyOp3
 70
     1
102
RTVSPropertyOp4
 70
     1
102
RTVSPropertyOp5
 70
     1
102
RTVSPropertyOp6
 70
     1
102
RTVSPropertyOp7
 70
     1
102
RTVSPropertyOp8
 70
     1
102
RTVSPropertyOp9
 70
     1
102
RTVSPropertyOp10
 70
     1
102
RTVSPropertyOp11
 70
     1
102
RTVSPropertyOp12
 70
     1
102
RTVSPropertyOp13
 70
     1
102
RTVSPropertyOp14
 70
     1
102
RTVSPropertyOp15
 70
     1
102
RTVSPropertyOp16
 70
     1
102
RTVSPropertyOp17
 70
     1
102
RTVSPropertyOp18
 70
     1
102
RTVSPropertyOp19
 70
     1
102
RTVSPropertyOp20
 70
     1
102
RTVSPropertyOp21
 70
     1
102
RTVSPropertyOp22
 70
     1
102
RTVSPropertyOp23
 70
     1
102
RTVSPropertyOp24
 70
     1
102
RTVSPropertyOp25
 70
     1
102
RTVSPropertyOp26
 70
     1
102
RTVSPropertyOp27
 70
     1
102
RTVSPropertyOp28
 70
     1
102
RTVSPropertyOp29
 70
     1
102
RTVSPropertyOp30
 70
     1
102
RTVSPropertyOp31
 70
     1
102
RTVSPropertyOp32
 70
     1
102
RTVSPropertyOp33
 70
     1
102
RTVSPropertyOp34
 70
     1
102
RTVSPropertyOp35
 70
     1
102
RTVSPropertyOp36
 70
     1
102
RTVSPropertyOp37
 70
     1
102
RTVSPropertyOp38
 70
     1
102
RTVSPropertyOp39
 70
     1
102
RTVSPropertyOp40
 70
     1
102
RTVSPropertyOp41
 70
     1
102
RTVSPropertyOp42
 70
     1
102
RTVSPropertyOp43
 70
     1
102
RTVSPropertyOp44
 70
     1
102
RTVSPropertyOp45
 70
     1
102
RTVSPropertyOp46
 70
     1
102
RTVSPropertyOp47
 70
     1
102
RTVSPropertyOp48
 70
     1
102
RTVSPropertyOp49
 70
     1
102
RTVSPropertyOp50
 70
     1
102
RTVSPropertyOp51
 70
     0
102
RTVSPropertyOp52
 70
     0
102
RTVSPropertyOp53
 70
     1
102
RTVSPropertyOp54
 70
     1
102
RTVSPropertyOp55
 70
     1
102
RTVSPropertyOp56
 70
     1
102
RTVSPropertyOp57
 70
     1
102
RTVSPropertyOp58
 70
     1
102
RTVSPropertyOp59
 70
     1
102
RTVSPropertyOp60
 70
     1
102
RTVSPropertyOp61
 70
     1
102
RTVSPropertyOp62
 70
     1
  0
XRECORD
  5
1D7B
102
{ACAD_REACTORS
330
1D7A
102
}
330
1D7A
100
AcDbXrecord
280
     1
102
RTVSPost2010Prop28
280
     0
102
RTVSPost2010PropOp28
 70
     1
102
RTVSPost2010Prop29
280
     1
102
RTVSPost2010PropOp29
 70
     1
102
RTVSPost2010Prop30
280
     1
102
RTVSPost2010PropOp30
 70
     1
102
RTVSPost2010Prop31
280
     0
102
RTVSPost2010PropOp31
 70
     1
102
RTVSPost2010Prop32
280
     0
102
RTVSPost2010PropOp32
 70
     1
102
RTVSPost2010Prop33
280
     0
102
RTVSPost2010PropOp33
 70
     1
102
RTVSPost2010Prop34
280
     0
102
RTVSPost2010PropOp34
 70
     1
102
RTVSPost2010Prop35
280
     0
102
RTVSPost2010PropOp35
 70
     1
102
RTVSPost2010Prop36
280
     0
102
RTVSPost2010PropOp36
 70
     1
102
RTVSPost2010Prop37
 90
       50
102
RTVSPost2010PropOp37
 70
     1
102
RTVSPost2010Prop38
140
0.0
102
RTVSPost2010PropOp38
 70
     1
102
RTVSPost2010Prop39
140
1.0
102
RTVSPost2010PropOp39
 70
     1
102
RTVSPost2010Prop40
 90
        0
102
RTVSPost2010PropOp40
 70
     1
102
RTVSPost2010Prop41ColorIndex
 90
       18
102
RTVSPost2010Prop41ColorRGB
 90
        0
102
RTVSPost2010PropOp41
 70
     1
102
RTVSPost2010Prop42
 90
       50
102
RTVSPost2010PropOp42
 70
     1
102
RTVSPost2010Prop43
 90
        3
102
RTVSPost2010PropOp43
 70
     1
102
RTVSPost2010Prop44ColorIndex
 90
        5
102
RTVSPost2010Prop44ColorRGB
 90
      255
102
RTVSPost2010PropOp44
 70
     1
102
RTVSPost2010Prop45
280
     0
102
RTVSPost2010PropOp45
 70
     1
102
RTVSPost2010Prop46
 90
       50
102
RTVSPost2010PropOp46
 70
     1
102
RTVSPost2010Prop47
 90
       50
102
RTVSPost2010PropOp47
 70
     1
102
RTVSPost2010Prop48
 90
       50
102
RTVSPost2010PropOp48
 70
     1
102
RTVSPost2010Prop49
280
     0
102
RTVSPost2010PropOp49
 70
     1
102
RTVSPost2010Prop50
 90
       50
102
RTVSPost2010PropOp50
 70
     1
102
RTVSPost2010Prop51ColorIndex
 90
      256
102
RTVSPost2010Prop51ColorRGB
 90
-16777216
102
RTVSPost2010PropOp51
 70
     0
102
RTVSPost2010Prop52
140
1.0
102
RTVSPost2010PropOp52
 70
     0
102
RTVSPost2010Prop53
 90
        2
102
RTVSPost2010PropOp53
 70
     1
102
RTVSPost2010Prop54
  1
strokes_ogs.tif
102
RTVSPost2010PropOp54
 70
     1
102
RTVSPost2010Prop55
280
     0
102
RTVSPost2010PropOp55
 70
     1
102
RTVSPost2010Prop56
140
1.0
102
RTVSPost2010PropOp56
 70
     1
102
RTVSPost2010Prop57
140
1.0
102
RTVSPost2010PropOp57
 70
     1
102
RTVSPropertyOp0
 70
     0
102
RTVSPropertyOp1
 70
     0
102
RTVSPropertyOp2
 70
     0
102
RTVSPropertyOp3
 70
     0
102
RTVSPropertyOp4
 70
     0
102
RTVSPropertyOp5
 70
     0
102
RTVSPropertyOp6
 70
     0
102
RTVSPropertyOp7
 70
     0
102
RTVSPropertyOp8
 70
     0
102
RTVSPropertyOp9
 70
     0
102
RTVSPropertyOp10
 70
     0
102
RTVSPropertyOp11
 70
     0
102
RTVSPropertyOp12
 70
     0
102
RTVSPropertyOp13
 70
     0
102
RTVSPropertyOp14
 70
     2
102
RTVSPropertyOp15
 70
     0
102
RTVSPropertyOp16
 70
     0
102
RTVSPropertyOp17
 70
     0
102
RTVSPropertyOp18
 70
     0
102
RTVSPropertyOp19
 70
     0
102
RTVSPropertyOp20
 70
     0
102
RTVSPropertyOp21
 70
     0
102
RTVSPropertyOp22
 70
     0
102
RTVSPropertyOp23
 70
     0
102
RTVSPropertyOp24
 70
     0
102
RTVSPropertyOp25
 70
     0
102
RTVSPropertyOp26
 70
     0
102
RTVSPropertyOp27
 70
     0
102
RTVSPropertyOp28
 70
     1
102
RTVSPropertyOp29
 70
     1
102
RTVSPropertyOp30
 70
     1
102
RTVSPropertyOp31
 70
     1
102
RTVSPropertyOp32
 70
     1
102
RTVSPropertyOp33
 70
     1
102
RTVSPropertyOp34
 70
     1
102
RTVSPropertyOp35
 70
     1
102
RTVSPropertyOp36
 70
     1
102
RTVSPropertyOp37
 70
     1
102
RTVSPropertyOp38
 70
     1
102
RTVSPropertyOp39
 70
     1
102
RTVSPropertyOp40
 70
     1
102
RTVSPropertyOp41
 70
     1
102
RTVSPropertyOp42
 70
     1
102
RTVSPropertyOp43
 70
     1
102
RTVSPropertyOp44
 70
     1
102
RTVSPropertyOp45
 70
     1
102
RTVSPropertyOp46
 70
     1
102
RTVSPropertyOp47
 70
     1
102
RTVSPropertyOp48
 70
     1
102
RTVSPropertyOp49
 70
     1
102
RTVSPropertyOp50
 70
     1
102
RTVSPropertyOp51
 70
     0
102
RTVSPropertyOp52
 70
     0
102
RTVSPropertyOp53
 70
     1
102
RTVSPropertyOp54
 70
     1
102
RTVSPropertyOp55
 70
     1
102
RTVSPropertyOp56
 70
     1
102
RTVSPropertyOp57
 70
     1
102
RTVSPropertyOp58
 70
     1
102
RTVSPropertyOp59
 70
     1
102
RTVSPropertyOp60
 70
     1
102
RTVSPropertyOp61
 70
     1
102
RTVSPropertyOp62
 70
     1
  0
XRECORD
  5
1D61
102
{ACAD_REACTORS
330
1D60
102
}
330
1D60
100
AcDbXrecord
280
     1
102
RTVSPost2010Prop28
280
     0
102
RTVSPost2010PropOp28
 70
     1
102
RTVSPost2010Prop29
280
     1
102
RTVSPost2010PropOp29
 70
     1
102
RTVSPost2010Prop30
280
     1
102
RTVSPost2010PropOp30
 70
     1
102
RTVSPost2010Prop31
280
     0
102
RTVSPost2010PropOp31
 70
     1
102
RTVSPost2010Prop32
280
     0
102
RTVSPost2010PropOp32
 70
     1
102
RTVSPost2010Prop33
280
     0
102
RTVSPost2010PropOp33
 70
     1
102
RTVSPost2010Prop34
280
     0
102
RTVSPost2010PropOp34
 70
     1
102
RTVSPost2010Prop35
280
     0
102
RTVSPost2010PropOp35
 70
     1
102
RTVSPost2010Prop36
280
     0
102
RTVSPost2010PropOp36
 70
     1
102
RTVSPost2010Prop37
 90
       50
102
RTVSPost2010PropOp37
 70
     1
102
RTVSPost2010Prop38
140
0.0
102
RTVSPost2010PropOp38
 70
     1
102
RTVSPost2010Prop39
140
1.0
102
RTVSPost2010PropOp39
 70
     1
102
RTVSPost2010Prop40
 90
        0
102
RTVSPost2010PropOp40
 70
     1
102
RTVSPost2010Prop41ColorIndex
 90
       18
102
RTVSPost2010Prop41ColorRGB
 90
        0
102
RTVSPost2010PropOp41
 70
     1
102
RTVSPost2010Prop42
 90
       50
102
RTVSPost2010PropOp42
 70
     1
102
RTVSPost2010Prop43
 90
        3
102
RTVSPost2010PropOp43
 70
     1
102
RTVSPost2010Prop44ColorIndex
 90
        5
102
RTVSPost2010Prop44ColorRGB
 90
      255
102
RTVSPost2010PropOp44
 70
     1
102
RTVSPost2010Prop45
280
     0
102
RTVSPost2010PropOp45
 70
     1
102
RTVSPost2010Prop46
 90
       50
102
RTVSPost2010PropOp46
 70
     1
102
RTVSPost2010Prop47
 90
       50
102
RTVSPost2010PropOp47
 70
     1
102
RTVSPost2010Prop48
 90
       50
102
RTVSPost2010PropOp48
 70
     1
102
RTVSPost2010Prop49
280
     0
102
RTVSPost2010PropOp49
 70
     1
102
RTVSPost2010Prop50
 90
       50
102
RTVSPost2010PropOp50
 70
     1
102
RTVSPost2010Prop51ColorIndex
 90
      256
102
RTVSPost2010Prop51ColorRGB
 90
-16777216
102
RTVSPost2010PropOp51
 70
     0
102
RTVSPost2010Prop52
140
1.0
102
RTVSPost2010PropOp52
 70
     0
102
RTVSPost2010Prop53
 90
        2
102
RTVSPost2010PropOp53
 70
     1
102
RTVSPost2010Prop54
  1
strokes_ogs.tif
102
RTVSPost2010PropOp54
 70
     1
102
RTVSPost2010Prop55
280
     0
102
RTVSPost2010PropOp55
 70
     1
102
RTVSPost2010Prop56
140
1.0
102
RTVSPost2010PropOp56
 70
     1
102
RTVSPost2010Prop57
140
1.0
102
RTVSPost2010PropOp57
 70
     1
102
RTVSPropertyOp0
 70
     1
102
RTVSPropertyOp1
 70
     1
102
RTVSPropertyOp2
 70
     1
102
RTVSPropertyOp3
 70
     1
102
RTVSPropertyOp4
 70
     1
102
RTVSPropertyOp5
 70
     1
102
RTVSPropertyOp6
 70
     1
102
RTVSPropertyOp7
 70
     1
102
RTVSPropertyOp8
 70
     1
102
RTVSPropertyOp9
 70
     1
102
RTVSPropertyOp10
 70
     1
102
RTVSPropertyOp11
 70
     1
102
RTVSPropertyOp12
 70
     1
102
RTVSPropertyOp13
 70
     1
102
RTVSPropertyOp14
 70
     1
102
RTVSPropertyOp15
 70
     1
102
RTVSPropertyOp16
 70
     1
102
RTVSPropertyOp17
 70
     1
102
RTVSPropertyOp18
 70
     1
102
RTVSPropertyOp19
 70
     1
102
RTVSPropertyOp20
 70
     1
102
RTVSPropertyOp21
 70
     1
102
RTVSPropertyOp22
 70
     1
102
RTVSPropertyOp23
 70
     1
102
RTVSPropertyOp24
 70
     1
102
RTVSPropertyOp25
 70
     1
102
RTVSPropertyOp26
 70
     1
102
RTVSPropertyOp27
 70
     1
102
RTVSPropertyOp28
 70
     1
102
RTVSPropertyOp29
 70
     1
102
RTVSPropertyOp30
 70
     1
102
RTVSPropertyOp31
 70
     1
102
RTVSPropertyOp32
 70
     1
102
RTVSPropertyOp33
 70
     1
102
RTVSPropertyOp34
 70
     1
102
RTVSPropertyOp35
 70
     1
102
RTVSPropertyOp36
 70
     1
102
RTVSPropertyOp37
 70
     1
102
RTVSPropertyOp38
 70
     1
102
RTVSPropertyOp39
 70
     1
102
RTVSPropertyOp40
 70
     1
102
RTVSPropertyOp41
 70
     1
102
RTVSPropertyOp42
 70
     1
102
RTVSPropertyOp43
 70
     1
102
RTVSPropertyOp44
 70
     1
102
RTVSPropertyOp45
 70
     1
102
RTVSPropertyOp46
 70
     1
102
RTVSPropertyOp47
 70
     1
102
RTVSPropertyOp48
 70
     1
102
RTVSPropertyOp49
 70
     1
102
RTVSPropertyOp50
 70
     1
102
RTVSPropertyOp51
 70
     0
102
RTVSPropertyOp52
 70
     0
102
RTVSPropertyOp53
 70
     1
102
RTVSPropertyOp54
 70
     1
102
RTVSPropertyOp55
 70
     1
102
RTVSPropertyOp56
 70
     1
102
RTVSPropertyOp57
 70
     1
102
RTVSPropertyOp58
 70
     1
102
RTVSPropertyOp59
 70
     1
102
RTVSPropertyOp60
 70
     1
102
RTVSPropertyOp61
 70
     1
102
RTVSPropertyOp62
 70
     1
  0
XRECORD
  5
1D8B
102
{ACAD_REACTORS
330
1D8A
102
}
330
1D8A
100
AcDbXrecord
280
     1
102
RTVSPost2010Prop28
280
     0
102
RTVSPost2010PropOp28
 70
     1
102
RTVSPost2010Prop29
280
     1
102
RTVSPost2010PropOp29
 70
     1
102
RTVSPost2010Prop30
280
     1
102
RTVSPost2010PropOp30
 70
     1
102
RTVSPost2010Prop31
280
     0
102
RTVSPost2010PropOp31
 70
     1
102
RTVSPost2010Prop32
280
     0
102
RTVSPost2010PropOp32
 70
     1
102
RTVSPost2010Prop33
280
     0
102
RTVSPost2010PropOp33
 70
     1
102
RTVSPost2010Prop34
280
     0
102
RTVSPost2010PropOp34
 70
     1
102
RTVSPost2010Prop35
280
     0
102
RTVSPost2010PropOp35
 70
     1
102
RTVSPost2010Prop36
280
     0
102
RTVSPost2010PropOp36
 70
     1
102
RTVSPost2010Prop37
 90
       50
102
RTVSPost2010PropOp37
 70
     1
102
RTVSPost2010Prop38
140
0.0
102
RTVSPost2010PropOp38
 70
     1
102
RTVSPost2010Prop39
140
1.0
102
RTVSPost2010PropOp39
 70
     1
102
RTVSPost2010Prop40
 90
        0
102
RTVSPost2010PropOp40
 70
     1
102
RTVSPost2010Prop41ColorIndex
 90
       18
102
RTVSPost2010Prop41ColorRGB
 90
        0
102
RTVSPost2010PropOp41
 70
     1
102
RTVSPost2010Prop42
 90
       50
102
RTVSPost2010PropOp42
 70
     1
102
RTVSPost2010Prop43
 90
        3
102
RTVSPost2010PropOp43
 70
     1
102
RTVSPost2010Prop44ColorIndex
 90
        5
102
RTVSPost2010Prop44ColorRGB
 90
      255
102
RTVSPost2010PropOp44
 70
     1
102
RTVSPost2010Prop45
280
     0
102
RTVSPost2010PropOp45
 70
     1
102
RTVSPost2010Prop46
 90
       50
102
RTVSPost2010PropOp46
 70
     1
102
RTVSPost2010Prop47
 90
       50
102
RTVSPost2010PropOp47
 70
     1
102
RTVSPost2010Prop48
 90
       50
102
RTVSPost2010PropOp48
 70
     1
102
RTVSPost2010Prop49
280
     0
102
RTVSPost2010PropOp49
 70
     1
102
RTVSPost2010Prop50
 90
       50
102
RTVSPost2010PropOp50
 70
     1
102
RTVSPost2010Prop51ColorIndex
 90
      256
102
RTVSPost2010Prop51ColorRGB
 90
-16777216
102
RTVSPost2010PropOp51
 70
     0
102
RTVSPost2010Prop52
140
1.0
102
RTVSPost2010PropOp52
 70
     0
102
RTVSPost2010Prop53
 90
        2
102
RTVSPost2010PropOp53
 70
     1
102
RTVSPost2010Prop54
  1
strokes_ogs.tif
102
RTVSPost2010PropOp54
 70
     1
102
RTVSPost2010Prop55
280
     0
102
RTVSPost2010PropOp55
 70
     1
102
RTVSPost2010Prop56
140
1.0
102
RTVSPost2010PropOp56
 70
     1
102
RTVSPost2010Prop57
140
1.0
102
RTVSPost2010PropOp57
 70
     1
102
RTVSPropertyOp0
 70
     1
102
RTVSPropertyOp1
 70
     1
102
RTVSPropertyOp2
 70
     1
102
RTVSPropertyOp3
 70
     1
102
RTVSPropertyOp4
 70
     1
102
RTVSPropertyOp5
 70
     1
102
RTVSPropertyOp6
 70
     1
102
RTVSPropertyOp7
 70
     1
102
RTVSPropertyOp8
 70
     1
102
RTVSPropertyOp9
 70
     1
102
RTVSPropertyOp10
 70
     1
102
RTVSPropertyOp11
 70
     1
102
RTVSPropertyOp12
 70
     1
102
RTVSPropertyOp13
 70
     1
102
RTVSPropertyOp14
 70
     1
102
RTVSPropertyOp15
 70
     1
102
RTVSPropertyOp16
 70
     1
102
RTVSPropertyOp17
 70
     1
102
RTVSPropertyOp18
 70
     1
102
RTVSPropertyOp19
 70
     1
102
RTVSPropertyOp20
 70
     1
102
RTVSPropertyOp21
 70
     1
102
RTVSPropertyOp22
 70
     1
102
RTVSPropertyOp23
 70
     1
102
RTVSPropertyOp24
 70
     1
102
RTVSPropertyOp25
 70
     1
102
RTVSPropertyOp26
 70
     1
102
RTVSPropertyOp27
 70
     1
102
RTVSPropertyOp28
 70
     1
102
RTVSPropertyOp29
 70
     1
102
RTVSPropertyOp30
 70
     1
102
RTVSPropertyOp31
 70
     1
102
RTVSPropertyOp32
 70
     1
102
RTVSPropertyOp33
 70
     1
102
RTVSPropertyOp34
 70
     1
102
RTVSPropertyOp35
 70
     1
102
RTVSPropertyOp36
 70
     1
102
RTVSPropertyOp37
 70
     1
102
RTVSPropertyOp38
 70
     1
102
RTVSPropertyOp39
 70
     1
102
RTVSPropertyOp40
 70
     1
102
RTVSPropertyOp41
 70
     1
102
RTVSPropertyOp42
 70
     1
102
RTVSPropertyOp43
 70
     1
102
RTVSPropertyOp44
 70
     1
102
RTVSPropertyOp45
 70
     1
102
RTVSPropertyOp46
 70
     1
102
RTVSPropertyOp47
 70
     1
102
RTVSPropertyOp48
 70
     1
102
RTVSPropertyOp49
 70
     1
102
RTVSPropertyOp50
 70
     1
102
RTVSPropertyOp51
 70
     0
102
RTVSPropertyOp52
 70
     0
102
RTVSPropertyOp53
 70
     1
102
RTVSPropertyOp54
 70
     1
102
RTVSPropertyOp55
 70
     1
102
RTVSPropertyOp56
 70
     1
102
RTVSPropertyOp57
 70
     1
102
RTVSPropertyOp58
 70
     1
102
RTVSPropertyOp59
 70
     1
102
RTVSPropertyOp60
 70
     1
102
RTVSPropertyOp61
 70
     1
102
RTVSPropertyOp62
 70
     1
  0
XRECORD
  5
1D89
102
{ACAD_REACTORS
330
1D88
102
}
330
1D88
100
AcDbXrecord
280
     1
102
RTVSPost2010Prop28
280
     0
102
RTVSPost2010PropOp28
 70
     1
102
RTVSPost2010Prop29
280
     1
102
RTVSPost2010PropOp29
 70
     1
102
RTVSPost2010Prop30
280
     1
102
RTVSPost2010PropOp30
 70
     1
102
RTVSPost2010Prop31
280
     0
102
RTVSPost2010PropOp31
 70
     1
102
RTVSPost2010Prop32
280
     0
102
RTVSPost2010PropOp32
 70
     1
102
RTVSPost2010Prop33
280
     0
102
RTVSPost2010PropOp33
 70
     1
102
RTVSPost2010Prop34
280
     0
102
RTVSPost2010PropOp34
 70
     1
102
RTVSPost2010Prop35
280
     0
102
RTVSPost2010PropOp35
 70
     1
102
RTVSPost2010Prop36
280
     0
102
RTVSPost2010PropOp36
 70
     1
102
RTVSPost2010Prop37
 90
       50
102
RTVSPost2010PropOp37
 70
     1
102
RTVSPost2010Prop38
140
0.0
102
RTVSPost2010PropOp38
 70
     1
102
RTVSPost2010Prop39
140
1.0
102
RTVSPost2010PropOp39
 70
     1
102
RTVSPost2010Prop40
 90
        0
102
RTVSPost2010PropOp40
 70
     1
102
RTVSPost2010Prop41ColorIndex
 90
       18
102
RTVSPost2010Prop41ColorRGB
 90
        0
102
RTVSPost2010PropOp41
 70
     1
102
RTVSPost2010Prop42
 90
       50
102
RTVSPost2010PropOp42
 70
     1
102
RTVSPost2010Prop43
 90
        3
102
RTVSPost2010PropOp43
 70
     1
102
RTVSPost2010Prop44ColorIndex
 90
        5
102
RTVSPost2010Prop44ColorRGB
 90
      255
102
RTVSPost2010PropOp44
 70
     1
102
RTVSPost2010Prop45
280
     0
102
RTVSPost2010PropOp45
 70
     1
102
RTVSPost2010Prop46
 90
       50
102
RTVSPost2010PropOp46
 70
     1
102
RTVSPost2010Prop47
 90
       50
102
RTVSPost2010PropOp47
 70
     1
102
RTVSPost2010Prop48
 90
       50
102
RTVSPost2010PropOp48
 70
     1
102
RTVSPost2010Prop49
280
     0
102
RTVSPost2010PropOp49
 70
     1
102
RTVSPost2010Prop50
 90
       50
102
RTVSPost2010PropOp50
 70
     1
102
RTVSPost2010Prop51ColorIndex
 90
      256
102
RTVSPost2010Prop51ColorRGB
 90
-16777216
102
RTVSPost2010PropOp51
 70
     0
102
RTVSPost2010Prop52
140
1.0
102
RTVSPost2010PropOp52
 70
     0
102
RTVSPost2010Prop53
 90
        2
102
RTVSPost2010PropOp53
 70
     1
102
RTVSPost2010Prop54
  1
strokes_ogs.tif
102
RTVSPost2010PropOp54
 70
     1
102
RTVSPost2010Prop55
280
     0
102
RTVSPost2010PropOp55
 70
     1
102
RTVSPost2010Prop56
140
1.0
102
RTVSPost2010PropOp56
 70
     1
102
RTVSPost2010Prop57
140
1.0
102
RTVSPost2010PropOp57
 70
     1
102
RTVSPropertyOp0
 70
     1
102
RTVSPropertyOp1
 70
     1
102
RTVSPropertyOp2
 70
     1
102
RTVSPropertyOp3
 70
     1
102
RTVSPropertyOp4
 70
     1
102
RTVSPropertyOp5
 70
     1
102
RTVSPropertyOp6
 70
     1
102
RTVSPropertyOp7
 70
     1
102
RTVSPropertyOp8
 70
     1
102
RTVSPropertyOp9
 70
     1
102
RTVSPropertyOp10
 70
     1
102
RTVSPropertyOp11
 70
     1
102
RTVSPropertyOp12
 70
     1
102
RTVSPropertyOp13
 70
     1
102
RTVSPropertyOp14
 70
     1
102
RTVSPropertyOp15
 70
     1
102
RTVSPropertyOp16
 70
     1
102
RTVSPropertyOp17
 70
     1
102
RTVSPropertyOp18
 70
     1
102
RTVSPropertyOp19
 70
     1
102
RTVSPropertyOp20
 70
     1
102
RTVSPropertyOp21
 70
     1
102
RTVSPropertyOp22
 70
     1
102
RTVSPropertyOp23
 70
     1
102
RTVSPropertyOp24
 70
     1
102
RTVSPropertyOp25
 70
     1
102
RTVSPropertyOp26
 70
     1
102
RTVSPropertyOp27
 70
     1
102
RTVSPropertyOp28
 70
     1
102
RTVSPropertyOp29
 70
     1
102
RTVSPropertyOp30
 70
     1
102
RTVSPropertyOp31
 70
     1
102
RTVSPropertyOp32
 70
     1
102
RTVSPropertyOp33
 70
     1
102
RTVSPropertyOp34
 70
     1
102
RTVSPropertyOp35
 70
     1
102
RTVSPropertyOp36
 70
     1
102
RTVSPropertyOp37
 70
     1
102
RTVSPropertyOp38
 70
     1
102
RTVSPropertyOp39
 70
     1
102
RTVSPropertyOp40
 70
     1
102
RTVSPropertyOp41
 70
     1
102
RTVSPropertyOp42
 70
     1
102
RTVSPropertyOp43
 70
     1
102
RTVSPropertyOp44
 70
     1
102
RTVSPropertyOp45
 70
     1
102
RTVSPropertyOp46
 70
     1
102
RTVSPropertyOp47
 70
     1
102
RTVSPropertyOp48
 70
     1
102
RTVSPropertyOp49
 70
     1
102
RTVSPropertyOp50
 70
     1
102
RTVSPropertyOp51
 70
     0
102
RTVSPropertyOp52
 70
     0
102
RTVSPropertyOp53
 70
     1
102
RTVSPropertyOp54
 70
     1
102
RTVSPropertyOp55
 70
     1
102
RTVSPropertyOp56
 70
     1
102
RTVSPropertyOp57
 70
     1
102
RTVSPropertyOp58
 70
     1
102
RTVSPropertyOp59
 70
     1
102
RTVSPropertyOp60
 70
     1
102
RTVSPropertyOp61
 70
     1
102
RTVSPropertyOp62
 70
     1
  0
XRECORD
  5
1D83
102
{ACAD_REACTORS
330
1D82
102
}
330
1D82
100
AcDbXrecord
280
     1
102
RTVSPost2010Prop28
280
     0
102
RTVSPost2010PropOp28
 70
     1
102
RTVSPost2010Prop29
280
     1
102
RTVSPost2010PropOp29
 70
     1
102
RTVSPost2010Prop30
280
     1
102
RTVSPost2010PropOp30
 70
     1
102
RTVSPost2010Prop31
280
     0
102
RTVSPost2010PropOp31
 70
     1
102
RTVSPost2010Prop32
280
     0
102
RTVSPost2010PropOp32
 70
     1
102
RTVSPost2010Prop33
280
     0
102
RTVSPost2010PropOp33
 70
     1
102
RTVSPost2010Prop34
280
     0
102
RTVSPost2010PropOp34
 70
     1
102
RTVSPost2010Prop35
280
     0
102
RTVSPost2010PropOp35
 70
     1
102
RTVSPost2010Prop36
280
     0
102
RTVSPost2010PropOp36
 70
     1
102
RTVSPost2010Prop37
 90
       50
102
RTVSPost2010PropOp37
 70
     1
102
RTVSPost2010Prop38
140
0.0
102
RTVSPost2010PropOp38
 70
     1
102
RTVSPost2010Prop39
140
1.0
102
RTVSPost2010PropOp39
 70
     1
102
RTVSPost2010Prop40
 90
        0
102
RTVSPost2010PropOp40
 70
     1
102
RTVSPost2010Prop41ColorIndex
 90
       18
102
RTVSPost2010Prop41ColorRGB
 90
        0
102
RTVSPost2010PropOp41
 70
     1
102
RTVSPost2010Prop42
 90
       50
102
RTVSPost2010PropOp42
 70
     1
102
RTVSPost2010Prop43
 90
        3
102
RTVSPost2010PropOp43
 70
     1
102
RTVSPost2010Prop44ColorIndex
 90
        5
102
RTVSPost2010Prop44ColorRGB
 90
      255
102
RTVSPost2010PropOp44
 70
     1
102
RTVSPost2010Prop45
280
     0
102
RTVSPost2010PropOp45
 70
     1
102
RTVSPost2010Prop46
 90
       50
102
RTVSPost2010PropOp46
 70
     1
102
RTVSPost2010Prop47
 90
       50
102
RTVSPost2010PropOp47
 70
     1
102
RTVSPost2010Prop48
 90
       50
102
RTVSPost2010PropOp48
 70
     1
102
RTVSPost2010Prop49
280
     0
102
RTVSPost2010PropOp49
 70
     1
102
RTVSPost2010Prop50
 90
       50
102
RTVSPost2010PropOp50
 70
     1
102
RTVSPost2010Prop51ColorIndex
 90
      256
102
RTVSPost2010Prop51ColorRGB
 90
-16777216
102
RTVSPost2010PropOp51
 70
     0
102
RTVSPost2010Prop52
140
1.0
102
RTVSPost2010PropOp52
 70
     0
102
RTVSPost2010Prop53
 90
        2
102
RTVSPost2010PropOp53
 70
     1
102
RTVSPost2010Prop54
  1
strokes_ogs.tif
102
RTVSPost2010PropOp54
 70
     1
102
RTVSPost2010Prop55
280
     0
102
RTVSPost2010PropOp55
 70
     1
102
RTVSPost2010Prop56
140
1.0
102
RTVSPost2010PropOp56
 70
     1
102
RTVSPost2010Prop57
140
1.0
102
RTVSPost2010PropOp57
 70
     1
102
RTVSPropertyOp0
 70
     1
102
RTVSPropertyOp1
 70
     1
102
RTVSPropertyOp2
 70
     1
102
RTVSPropertyOp3
 70
     1
102
RTVSPropertyOp4
 70
     1
102
RTVSPropertyOp5
 70
     1
102
RTVSPropertyOp6
 70
     1
102
RTVSPropertyOp7
 70
     1
102
RTVSPropertyOp8
 70
     1
102
RTVSPropertyOp9
 70
     1
102
RTVSPropertyOp10
 70
     1
102
RTVSPropertyOp11
 70
     1
102
RTVSPropertyOp12
 70
     1
102
RTVSPropertyOp13
 70
     1
102
RTVSPropertyOp14
 70
     1
102
RTVSPropertyOp15
 70
     1
102
RTVSPropertyOp16
 70
     1
102
RTVSPropertyOp17
 70
     1
102
RTVSPropertyOp18
 70
     1
102
RTVSPropertyOp19
 70
     1
102
RTVSPropertyOp20
 70
     1
102
RTVSPropertyOp21
 70
     1
102
RTVSPropertyOp22
 70
     1
102
RTVSPropertyOp23
 70
     1
102
RTVSPropertyOp24
 70
     1
102
RTVSPropertyOp25
 70
     1
102
RTVSPropertyOp26
 70
     1
102
RTVSPropertyOp27
 70
     1
102
RTVSPropertyOp28
 70
     1
102
RTVSPropertyOp29
 70
     1
102
RTVSPropertyOp30
 70
     1
102
RTVSPropertyOp31
 70
     1
102
RTVSPropertyOp32
 70
     1
102
RTVSPropertyOp33
 70
     1
102
RTVSPropertyOp34
 70
     1
102
RTVSPropertyOp35
 70
     1
102
RTVSPropertyOp36
 70
     1
102
RTVSPropertyOp37
 70
     1
102
RTVSPropertyOp38
 70
     1
102
RTVSPropertyOp39
 70
     1
102
RTVSPropertyOp40
 70
     1
102
RTVSPropertyOp41
 70
     1
102
RTVSPropertyOp42
 70
     1
102
RTVSPropertyOp43
 70
     1
102
RTVSPropertyOp44
 70
     1
102
RTVSPropertyOp45
 70
     1
102
RTVSPropertyOp46
 70
     1
102
RTVSPropertyOp47
 70
     1
102
RTVSPropertyOp48
 70
     1
102
RTVSPropertyOp49
 70
     1
102
RTVSPropertyOp50
 70
     1
102
RTVSPropertyOp51
 70
     0
102
RTVSPropertyOp52
 70
     0
102
RTVSPropertyOp53
 70
     1
102
RTVSPropertyOp54
 70
     1
102
RTVSPropertyOp55
 70
     1
102
RTVSPropertyOp56
 70
     1
102
RTVSPropertyOp57
 70
     1
102
RTVSPropertyOp58
 70
     1
102
RTVSPropertyOp59
 70
     1
102
RTVSPropertyOp60
 70
     1
102
RTVSPropertyOp61
 70
     1
102
RTVSPropertyOp62
 70
     1
  0
XRECORD
  5
1D85
102
{ACAD_REACTORS
330
1D84
102
}
330
1D84
100
AcDbXrecord
280
     1
102
RTVSPost2010Prop28
280
     0
102
RTVSPost2010PropOp28
 70
     1
102
RTVSPost2010Prop29
280
     1
102
RTVSPost2010PropOp29
 70
     1
102
RTVSPost2010Prop30
280
     1
102
RTVSPost2010PropOp30
 70
     1
102
RTVSPost2010Prop31
280
     0
102
RTVSPost2010PropOp31
 70
     1
102
RTVSPost2010Prop32
280
     0
102
RTVSPost2010PropOp32
 70
     1
102
RTVSPost2010Prop33
280
     0
102
RTVSPost2010PropOp33
 70
     1
102
RTVSPost2010Prop34
280
     0
102
RTVSPost2010PropOp34
 70
     1
102
RTVSPost2010Prop35
280
     0
102
RTVSPost2010PropOp35
 70
     1
102
RTVSPost2010Prop36
280
     0
102
RTVSPost2010PropOp36
 70
     1
102
RTVSPost2010Prop37
 90
       50
102
RTVSPost2010PropOp37
 70
     1
102
RTVSPost2010Prop38
140
0.0
102
RTVSPost2010PropOp38
 70
     1
102
RTVSPost2010Prop39
140
1.0
102
RTVSPost2010PropOp39
 70
     1
102
RTVSPost2010Prop40
 90
        0
102
RTVSPost2010PropOp40
 70
     1
102
RTVSPost2010Prop41ColorIndex
 90
       18
102
RTVSPost2010Prop41ColorRGB
 90
        0
102
RTVSPost2010PropOp41
 70
     1
102
RTVSPost2010Prop42
 90
       50
102
RTVSPost2010PropOp42
 70
     1
102
RTVSPost2010Prop43
 90
        3
102
RTVSPost2010PropOp43
 70
     1
102
RTVSPost2010Prop44ColorIndex
 90
        5
102
RTVSPost2010Prop44ColorRGB
 90
      255
102
RTVSPost2010PropOp44
 70
     1
102
RTVSPost2010Prop45
280
     0
102
RTVSPost2010PropOp45
 70
     1
102
RTVSPost2010Prop46
 90
       50
102
RTVSPost2010PropOp46
 70
     1
102
RTVSPost2010Prop47
 90
       50
102
RTVSPost2010PropOp47
 70
     1
102
RTVSPost2010Prop48
 90
       50
102
RTVSPost2010PropOp48
 70
     1
102
RTVSPost2010Prop49
280
     0
102
RTVSPost2010PropOp49
 70
     1
102
RTVSPost2010Prop50
 90
       50
102
RTVSPost2010PropOp50
 70
     1
102
RTVSPost2010Prop51ColorIndex
 90
      256
102
RTVSPost2010Prop51ColorRGB
 90
-16777216
102
RTVSPost2010PropOp51
 70
     0
102
RTVSPost2010Prop52
140
1.0
102
RTVSPost2010PropOp52
 70
     0
102
RTVSPost2010Prop53
 90
        2
102
RTVSPost2010PropOp53
 70
     1
102
RTVSPost2010Prop54
  1
strokes_ogs.tif
102
RTVSPost2010PropOp54
 70
     1
102
RTVSPost2010Prop55
280
     0
102
RTVSPost2010PropOp55
 70
     1
102
RTVSPost2010Prop56
140
1.0
102
RTVSPost2010PropOp56
 70
     1
102
RTVSPost2010Prop57
140
1.0
102
RTVSPost2010PropOp57
 70
     1
102
RTVSPropertyOp0
 70
     1
102
RTVSPropertyOp1
 70
     1
102
RTVSPropertyOp2
 70
     1
102
RTVSPropertyOp3
 70
     1
102
RTVSPropertyOp4
 70
     1
102
RTVSPropertyOp5
 70
     1
102
RTVSPropertyOp6
 70
     1
102
RTVSPropertyOp7
 70
     1
102
RTVSPropertyOp8
 70
     1
102
RTVSPropertyOp9
 70
     1
102
RTVSPropertyOp10
 70
     1
102
RTVSPropertyOp11
 70
     1
102
RTVSPropertyOp12
 70
     1
102
RTVSPropertyOp13
 70
     1
102
RTVSPropertyOp14
 70
     1
102
RTVSPropertyOp15
 70
     1
102
RTVSPropertyOp16
 70
     1
102
RTVSPropertyOp17
 70
     1
102
RTVSPropertyOp18
 70
     1
102
RTVSPropertyOp19
 70
     1
102
RTVSPropertyOp20
 70
     1
102
RTVSPropertyOp21
 70
     1
102
RTVSPropertyOp22
 70
     1
102
RTVSPropertyOp23
 70
     1
102
RTVSPropertyOp24
 70
     1
102
RTVSPropertyOp25
 70
     1
102
RTVSPropertyOp26
 70
     1
102
RTVSPropertyOp27
 70
     1
102
RTVSPropertyOp28
 70
     1
102
RTVSPropertyOp29
 70
     1
102
RTVSPropertyOp30
 70
     1
102
RTVSPropertyOp31
 70
     1
102
RTVSPropertyOp32
 70
     1
102
RTVSPropertyOp33
 70
     1
102
RTVSPropertyOp34
 70
     1
102
RTVSPropertyOp35
 70
     1
102
RTVSPropertyOp36
 70
     1
102
RTVSPropertyOp37
 70
     1
102
RTVSPropertyOp38
 70
     1
102
RTVSPropertyOp39
 70
     1
102
RTVSPropertyOp40
 70
     1
102
RTVSPropertyOp41
 70
     1
102
RTVSPropertyOp42
 70
     1
102
RTVSPropertyOp43
 70
     1
102
RTVSPropertyOp44
 70
     1
102
RTVSPropertyOp45
 70
     1
102
RTVSPropertyOp46
 70
     1
102
RTVSPropertyOp47
 70
     1
102
RTVSPropertyOp48
 70
     1
102
RTVSPropertyOp49
 70
     1
102
RTVSPropertyOp50
 70
     1
102
RTVSPropertyOp51
 70
     0
102
RTVSPropertyOp52
 70
     0
102
RTVSPropertyOp53
 70
     1
102
RTVSPropertyOp54
 70
     1
102
RTVSPropertyOp55
 70
     1
102
RTVSPropertyOp56
 70
     1
102
RTVSPropertyOp57
 70
     1
102
RTVSPropertyOp58
 70
     1
102
RTVSPropertyOp59
 70
     1
102
RTVSPropertyOp60
 70
     1
102
RTVSPropertyOp61
 70
     1
102
RTVSPropertyOp62
 70
     1
  0
XRECORD
  5
1D67
102
{ACAD_REACTORS
330
1D66
102
}
330
1D66
100
AcDbXrecord
280
     1
102
RTVSPost2010Prop28
280
     0
102
RTVSPost2010PropOp28
 70
     1
102
RTVSPost2010Prop29
280
     1
102
RTVSPost2010PropOp29
 70
     1
102
RTVSPost2010Prop30
280
     1
102
RTVSPost2010PropOp30
 70
     1
102
RTVSPost2010Prop31
280
     0
102
RTVSPost2010PropOp31
 70
     1
102
RTVSPost2010Prop32
280
     0
102
RTVSPost2010PropOp32
 70
     1
102
RTVSPost2010Prop33
280
     0
102
RTVSPost2010PropOp33
 70
     1
102
RTVSPost2010Prop34
280
     0
102
RTVSPost2010PropOp34
 70
     1
102
RTVSPost2010Prop35
280
     0
102
RTVSPost2010PropOp35
 70
     1
102
RTVSPost2010Prop36
280
     0
102
RTVSPost2010PropOp36
 70
     1
102
RTVSPost2010Prop37
 90
       50
102
RTVSPost2010PropOp37
 70
     1
102
RTVSPost2010Prop38
140
0.0
102
RTVSPost2010PropOp38
 70
     1
102
RTVSPost2010Prop39
140
1.0
102
RTVSPost2010PropOp39
 70
     1
102
RTVSPost2010Prop40
 90
        0
102
RTVSPost2010PropOp40
 70
     1
102
RTVSPost2010Prop41ColorIndex
 90
       18
102
RTVSPost2010Prop41ColorRGB
 90
        0
102
RTVSPost2010PropOp41
 70
     1
102
RTVSPost2010Prop42
 90
       50
102
RTVSPost2010PropOp42
 70
     1
102
RTVSPost2010Prop43
 90
        3
102
RTVSPost2010PropOp43
 70
     1
102
RTVSPost2010Prop44ColorIndex
 90
        5
102
RTVSPost2010Prop44ColorRGB
 90
      255
102
RTVSPost2010PropOp44
 70
     1
102
RTVSPost2010Prop45
280
     0
102
RTVSPost2010PropOp45
 70
     1
102
RTVSPost2010Prop46
 90
       50
102
RTVSPost2010PropOp46
 70
     1
102
RTVSPost2010Prop47
 90
       50
102
RTVSPost2010PropOp47
 70
     1
102
RTVSPost2010Prop48
 90
       50
102
RTVSPost2010PropOp48
 70
     1
102
RTVSPost2010Prop49
280
     0
102
RTVSPost2010PropOp49
 70
     1
102
RTVSPost2010Prop50
 90
       50
102
RTVSPost2010PropOp50
 70
     1
102
RTVSPost2010Prop51ColorIndex
 90
      256
102
RTVSPost2010Prop51ColorRGB
 90
-16777216
102
RTVSPost2010PropOp51
 70
     0
102
RTVSPost2010Prop52
140
1.0
102
RTVSPost2010PropOp52
 70
     0
102
RTVSPost2010Prop53
 90
        2
102
RTVSPost2010PropOp53
 70
     1
102
RTVSPost2010Prop54
  1
strokes_ogs.tif
102
RTVSPost2010PropOp54
 70
     1
102
RTVSPost2010Prop55
280
     0
102
RTVSPost2010PropOp55
 70
     1
102
RTVSPost2010Prop56
140
1.0
102
RTVSPost2010PropOp56
 70
     1
102
RTVSPost2010Prop57
140
1.0
102
RTVSPost2010PropOp57
 70
     1
102
RTVSPropertyOp0
 70
     1
102
RTVSPropertyOp1
 70
     1
102
RTVSPropertyOp2
 70
     1
102
RTVSPropertyOp3
 70
     1
102
RTVSPropertyOp4
 70
     1
102
RTVSPropertyOp5
 70
     1
102
RTVSPropertyOp6
 70
     1
102
RTVSPropertyOp7
 70
     1
102
RTVSPropertyOp8
 70
     1
102
RTVSPropertyOp9
 70
     1
102
RTVSPropertyOp10
 70
     1
102
RTVSPropertyOp11
 70
     1
102
RTVSPropertyOp12
 70
     1
102
RTVSPropertyOp13
 70
     1
102
RTVSPropertyOp14
 70
     1
102
RTVSPropertyOp15
 70
     1
102
RTVSPropertyOp16
 70
     1
102
RTVSPropertyOp17
 70
     1
102
RTVSPropertyOp18
 70
     1
102
RTVSPropertyOp19
 70
     1
102
RTVSPropertyOp20
 70
     1
102
RTVSPropertyOp21
 70
     1
102
RTVSPropertyOp22
 70
     1
102
RTVSPropertyOp23
 70
     1
102
RTVSPropertyOp24
 70
     1
102
RTVSPropertyOp25
 70
     1
102
RTVSPropertyOp26
 70
     1
102
RTVSPropertyOp27
 70
     1
102
RTVSPropertyOp28
 70
     1
102
RTVSPropertyOp29
 70
     1
102
RTVSPropertyOp30
 70
     1
102
RTVSPropertyOp31
 70
     1
102
RTVSPropertyOp32
 70
     1
102
RTVSPropertyOp33
 70
     1
102
RTVSPropertyOp34
 70
     1
102
RTVSPropertyOp35
 70
     1
102
RTVSPropertyOp36
 70
     1
102
RTVSPropertyOp37
 70
     1
102
RTVSPropertyOp38
 70
     1
102
RTVSPropertyOp39
 70
     1
102
RTVSPropertyOp40
 70
     1
102
RTVSPropertyOp41
 70
     1
102
RTVSPropertyOp42
 70
     1
102
RTVSPropertyOp43
 70
     1
102
RTVSPropertyOp44
 70
     1
102
RTVSPropertyOp45
 70
     1
102
RTVSPropertyOp46
 70
     1
102
RTVSPropertyOp47
 70
     1
102
RTVSPropertyOp48
 70
     1
102
RTVSPropertyOp49
 70
     1
102
RTVSPropertyOp50
 70
     1
102
RTVSPropertyOp51
 70
     0
102
RTVSPropertyOp52
 70
     0
102
RTVSPropertyOp53
 70
     1
102
RTVSPropertyOp54
 70
     1
102
RTVSPropertyOp55
 70
     1
102
RTVSPropertyOp56
 70
     1
102
RTVSPropertyOp57
 70
     1
102
RTVSPropertyOp58
 70
     1
102
RTVSPropertyOp59
 70
     1
102
RTVSPropertyOp60
 70
     1
102
RTVSPropertyOp61
 70
     1
102
RTVSPropertyOp62
 70
     1
  0
XRECORD
  5
1D7F
102
{ACAD_REACTORS
330
1D7E
102
}
330
1D7E
100
AcDbXrecord
280
     1
102
RTVSPost2010Prop28
280
     0
102
RTVSPost2010PropOp28
 70
     1
102
RTVSPost2010Prop29
280
     1
102
RTVSPost2010PropOp29
 70
     1
102
RTVSPost2010Prop30
280
     1
102
RTVSPost2010PropOp30
 70
     1
102
RTVSPost2010Prop31
280
     0
102
RTVSPost2010PropOp31
 70
     1
102
RTVSPost2010Prop32
280
     0
102
RTVSPost2010PropOp32
 70
     1
102
RTVSPost2010Prop33
280
     0
102
RTVSPost2010PropOp33
 70
     1
102
RTVSPost2010Prop34
280
     0
102
RTVSPost2010PropOp34
 70
     1
102
RTVSPost2010Prop35
280
     0
102
RTVSPost2010PropOp35
 70
     1
102
RTVSPost2010Prop36
280
     0
102
RTVSPost2010PropOp36
 70
     1
102
RTVSPost2010Prop37
 90
       50
102
RTVSPost2010PropOp37
 70
     1
102
RTVSPost2010Prop38
140
0.0
102
RTVSPost2010PropOp38
 70
     1
102
RTVSPost2010Prop39
140
1.0
102
RTVSPost2010PropOp39
 70
     1
102
RTVSPost2010Prop40
 90
        0
102
RTVSPost2010PropOp40
 70
     1
102
RTVSPost2010Prop41ColorIndex
 90
       18
102
RTVSPost2010Prop41ColorRGB
 90
        0
102
RTVSPost2010PropOp41
 70
     1
102
RTVSPost2010Prop42
 90
       50
102
RTVSPost2010PropOp42
 70
     1
102
RTVSPost2010Prop43
 90
        3
102
RTVSPost2010PropOp43
 70
     1
102
RTVSPost2010Prop44ColorIndex
 90
        5
102
RTVSPost2010Prop44ColorRGB
 90
      255
102
RTVSPost2010PropOp44
 70
     1
102
RTVSPost2010Prop45
280
     0
102
RTVSPost2010PropOp45
 70
     1
102
RTVSPost2010Prop46
 90
       50
102
RTVSPost2010PropOp46
 70
     1
102
RTVSPost2010Prop47
 90
       50
102
RTVSPost2010PropOp47
 70
     1
102
RTVSPost2010Prop48
 90
       50
102
RTVSPost2010PropOp48
 70
     1
102
RTVSPost2010Prop49
280
     0
102
RTVSPost2010PropOp49
 70
     1
102
RTVSPost2010Prop50
 90
       50
102
RTVSPost2010PropOp50
 70
     1
102
RTVSPost2010Prop51ColorIndex
 90
      256
102
RTVSPost2010Prop51ColorRGB
 90
-16777216
102
RTVSPost2010PropOp51
 70
     0
102
RTVSPost2010Prop52
140
1.0
102
RTVSPost2010PropOp52
 70
     0
102
RTVSPost2010Prop53
 90
        2
102
RTVSPost2010PropOp53
 70
     1
102
RTVSPost2010Prop54
  1
strokes_ogs.tif
102
RTVSPost2010PropOp54
 70
     1
102
RTVSPost2010Prop55
280
     0
102
RTVSPost2010PropOp55
 70
     1
102
RTVSPost2010Prop56
140
1.0
102
RTVSPost2010PropOp56
 70
     1
102
RTVSPost2010Prop57
140
1.0
102
RTVSPost2010PropOp57
 70
     1
102
RTVSPropertyOp0
 70
     1
102
RTVSPropertyOp1
 70
     1
102
RTVSPropertyOp2
 70
     1
102
RTVSPropertyOp3
 70
     1
102
RTVSPropertyOp4
 70
     1
102
RTVSPropertyOp5
 70
     1
102
RTVSPropertyOp6
 70
     1
102
RTVSPropertyOp7
 70
     1
102
RTVSPropertyOp8
 70
     1
102
RTVSPropertyOp9
 70
     1
102
RTVSPropertyOp10
 70
     1
102
RTVSPropertyOp11
 70
     1
102
RTVSPropertyOp12
 70
     1
102
RTVSPropertyOp13
 70
     1
102
RTVSPropertyOp14
 70
     1
102
RTVSPropertyOp15
 70
     1
102
RTVSPropertyOp16
 70
     1
102
RTVSPropertyOp17
 70
     1
102
RTVSPropertyOp18
 70
     1
102
RTVSPropertyOp19
 70
     1
102
RTVSPropertyOp20
 70
     1
102
RTVSPropertyOp21
 70
     1
102
RTVSPropertyOp22
 70
     1
102
RTVSPropertyOp23
 70
     1
102
RTVSPropertyOp24
 70
     1
102
RTVSPropertyOp25
 70
     1
102
RTVSPropertyOp26
 70
     1
102
RTVSPropertyOp27
 70
     1
102
RTVSPropertyOp28
 70
     1
102
RTVSPropertyOp29
 70
     1
102
RTVSPropertyOp30
 70
     1
102
RTVSPropertyOp31
 70
     1
102
RTVSPropertyOp32
 70
     1
102
RTVSPropertyOp33
 70
     1
102
RTVSPropertyOp34
 70
     1
102
RTVSPropertyOp35
 70
     1
102
RTVSPropertyOp36
 70
     1
102
RTVSPropertyOp37
 70
     1
102
RTVSPropertyOp38
 70
     1
102
RTVSPropertyOp39
 70
     1
102
RTVSPropertyOp40
 70
     1
102
RTVSPropertyOp41
 70
     1
102
RTVSPropertyOp42
 70
     1
102
RTVSPropertyOp43
 70
     1
102
RTVSPropertyOp44
 70
     1
102
RTVSPropertyOp45
 70
     1
102
RTVSPropertyOp46
 70
     1
102
RTVSPropertyOp47
 70
     1
102
RTVSPropertyOp48
 70
     1
102
RTVSPropertyOp49
 70
     1
102
RTVSPropertyOp50
 70
     1
102
RTVSPropertyOp51
 70
     0
102
RTVSPropertyOp52
 70
     0
102
RTVSPropertyOp53
 70
     1
102
RTVSPropertyOp54
 70
     1
102
RTVSPropertyOp55
 70
     1
102
RTVSPropertyOp56
 70
     1
102
RTVSPropertyOp57
 70
     1
102
RTVSPropertyOp58
 70
     1
102
RTVSPropertyOp59
 70
     1
102
RTVSPropertyOp60
 70
     1
102
RTVSPropertyOp61
 70
     1
102
RTVSPropertyOp62
 70
     1
  0
XRECORD
  5
1D87
102
{ACAD_REACTORS
330
1D86
102
}
330
1D86
100
AcDbXrecord
280
     1
102
RTVSPost2010Prop28
280
     0
102
RTVSPost2010PropOp28
 70
     1
102
RTVSPost2010Prop29
280
     1
102
RTVSPost2010PropOp29
 70
     1
102
RTVSPost2010Prop30
280
     1
102
RTVSPost2010PropOp30
 70
     1
102
RTVSPost2010Prop31
280
     0
102
RTVSPost2010PropOp31
 70
     1
102
RTVSPost2010Prop32
280
     0
102
RTVSPost2010PropOp32
 70
     1
102
RTVSPost2010Prop33
280
     0
102
RTVSPost2010PropOp33
 70
     1
102
RTVSPost2010Prop34
280
     0
102
RTVSPost2010PropOp34
 70
     1
102
RTVSPost2010Prop35
280
     0
102
RTVSPost2010PropOp35
 70
     1
102
RTVSPost2010Prop36
280
     0
102
RTVSPost2010PropOp36
 70
     1
102
RTVSPost2010Prop37
 90
       50
102
RTVSPost2010PropOp37
 70
     1
102
RTVSPost2010Prop38
140
0.0
102
RTVSPost2010PropOp38
 70
     1
102
RTVSPost2010Prop39
140
1.0
102
RTVSPost2010PropOp39
 70
     1
102
RTVSPost2010Prop40
 90
        0
102
RTVSPost2010PropOp40
 70
     1
102
RTVSPost2010Prop41ColorIndex
 90
       18
102
RTVSPost2010Prop41ColorRGB
 90
        0
102
RTVSPost2010PropOp41
 70
     1
102
RTVSPost2010Prop42
 90
       50
102
RTVSPost2010PropOp42
 70
     1
102
RTVSPost2010Prop43
 90
        3
102
RTVSPost2010PropOp43
 70
     1
102
RTVSPost2010Prop44ColorIndex
 90
        5
102
RTVSPost2010Prop44ColorRGB
 90
      255
102
RTVSPost2010PropOp44
 70
     1
102
RTVSPost2010Prop45
280
     0
102
RTVSPost2010PropOp45
 70
     1
102
RTVSPost2010Prop46
 90
       50
102
RTVSPost2010PropOp46
 70
     1
102
RTVSPost2010Prop47
 90
       50
102
RTVSPost2010PropOp47
 70
     1
102
RTVSPost2010Prop48
 90
       50
102
RTVSPost2010PropOp48
 70
     1
102
RTVSPost2010Prop49
280
     0
102
RTVSPost2010PropOp49
 70
     1
102
RTVSPost2010Prop50
 90
       50
102
RTVSPost2010PropOp50
 70
     1
102
RTVSPost2010Prop51ColorIndex
 90
      256
102
RTVSPost2010Prop51ColorRGB
 90
-16777216
102
RTVSPost2010PropOp51
 70
     0
102
RTVSPost2010Prop52
140
1.0
102
RTVSPost2010PropOp52
 70
     0
102
RTVSPost2010Prop53
 90
        2
102
RTVSPost2010PropOp53
 70
     1
102
RTVSPost2010Prop54
  1
strokes_ogs.tif
102
RTVSPost2010PropOp54
 70
     1
102
RTVSPost2010Prop55
280
     0
102
RTVSPost2010PropOp55
 70
     1
102
RTVSPost2010Prop56
140
1.0
102
RTVSPost2010PropOp56
 70
     1
102
RTVSPost2010Prop57
140
1.0
102
RTVSPost2010PropOp57
 70
     1
102
RTVSPropertyOp0
 70
     1
102
RTVSPropertyOp1
 70
     1
102
RTVSPropertyOp2
 70
     1
102
RTVSPropertyOp3
 70
     1
102
RTVSPropertyOp4
 70
     1
102
RTVSPropertyOp5
 70
     1
102
RTVSPropertyOp6
 70
     1
102
RTVSPropertyOp7
 70
     1
102
RTVSPropertyOp8
 70
     1
102
RTVSPropertyOp9
 70
     1
102
RTVSPropertyOp10
 70
     1
102
RTVSPropertyOp11
 70
     1
102
RTVSPropertyOp12
 70
     1
102
RTVSPropertyOp13
 70
     1
102
RTVSPropertyOp14
 70
     1
102
RTVSPropertyOp15
 70
     1
102
RTVSPropertyOp16
 70
     1
102
RTVSPropertyOp17
 70
     1
102
RTVSPropertyOp18
 70
     1
102
RTVSPropertyOp19
 70
     1
102
RTVSPropertyOp20
 70
     1
102
RTVSPropertyOp21
 70
     1
102
RTVSPropertyOp22
 70
     1
102
RTVSPropertyOp23
 70
     1
102
RTVSPropertyOp24
 70
     1
102
RTVSPropertyOp25
 70
     1
102
RTVSPropertyOp26
 70
     1
102
RTVSPropertyOp27
 70
     1
102
RTVSPropertyOp28
 70
     1
102
RTVSPropertyOp29
 70
     1
102
RTVSPropertyOp30
 70
     1
102
RTVSPropertyOp31
 70
     1
102
RTVSPropertyOp32
 70
     1
102
RTVSPropertyOp33
 70
     1
102
RTVSPropertyOp34
 70
     1
102
RTVSPropertyOp35
 70
     1
102
RTVSPropertyOp36
 70
     1
102
RTVSPropertyOp37
 70
     1
102
RTVSPropertyOp38
 70
     1
102
RTVSPropertyOp39
 70
     1
102
RTVSPropertyOp40
 70
     1
102
RTVSPropertyOp41
 70
     1
102
RTVSPropertyOp42
 70
     1
102
RTVSPropertyOp43
 70
     1
102
RTVSPropertyOp44
 70
     1
102
RTVSPropertyOp45
 70
     1
102
RTVSPropertyOp46
 70
     1
102
RTVSPropertyOp47
 70
     1
102
RTVSPropertyOp48
 70
     1
102
RTVSPropertyOp49
 70
     1
102
RTVSPropertyOp50
 70
     1
102
RTVSPropertyOp51
 70
     0
102
RTVSPropertyOp52
 70
     0
102
RTVSPropertyOp53
 70
     1
102
RTVSPropertyOp54
 70
     1
102
RTVSPropertyOp55
 70
     1
102
RTVSPropertyOp56
 70
     1
102
RTVSPropertyOp57
 70
     1
102
RTVSPropertyOp58
 70
     1
102
RTVSPropertyOp59
 70
     1
102
RTVSPropertyOp60
 70
     1
102
RTVSPropertyOp61
 70
     1
102
RTVSPropertyOp62
 70
     1
  0
ENDSEC
  0
EOF
