  0
SECTION
  2
HEADER
  9
$ACADVER
  1
AC1015
  9
$ACADMAINTVER
 70
    20
  9
$DWGCODEPAGE
  3
ANSI_1252
  9
$INSBASE
 10
0.0
 20
0.0
 30
0.0
  9
$EXTMIN
 10
-66.04443186852677
 20
-39.80453375937009
 30
-0.0000000000112498
  9
$EXTMAX
 10
152.001527055867
 20
95.98114094694755
 30
0.0000000000002956
  9
$LIMMIN
 10
-170.0
 20
-170.0
  9
$LIMMAX
 10
519.0
 20
260.0
  9
$ORTHOMODE
 70
     0
  9
$REGENMODE
 70
     1
  9
$FILLMODE
 70
     1
  9
$QTEXTMODE
 70
     0
  9
$MIRRTEXT
 70
     0
  9
$LTSCALE
 40
1.0
  9
$ATTMODE
 70
     1
  9
$TEXTSIZE
 40
2.5
  9
$TRACEWID
 40
1.0
  9
$TEXTSTYLE
  7
USER1
  9
$CLAYER
  8
2
  9
$CELTYPE
  6
BYLAYER
  9
$CECOLOR
 62
   256
  9
$CELTSCALE
 40
1.0
  9
$DISPSILH
 70
     0
  9
$DIMSCALE
 40
1.0
  9
$DIMASZ
 40
2.5
  9
$DIMEXO
 40
1.0
  9
$DIMDLI
 40
15.0
  9
$DIMRND
 40
0.0
  9
$DIMDLE
 40
0.0
  9
$DIMEXE
 40
2.0
  9
$DIMTP
 40
0.0
  9
$DIMTM
 40
0.000000001
  9
$DIMTXT
 40
3.5
  9
$DIMCEN
 40
0.09
  9
$DIMTSZ
 40
0.0
  9
$DIMTOL
 70
     0
  9
$DIMLIM
 70
     0
  9
$DIMTIH
 70
     0
  9
$DIMTOH
 70
     0
  9
$DIMSE1
 70
     0
  9
$DIMSE2
 70
     0
  9
$DIMTAD
 70
     1
  9
$DIMZIN
 70
     0
  9
$DIMBLK
  1

  9
$DIMASO
 70
     1
  9
$DIMSHO
 70
     1
  9
$DIMPOST
  1

  9
$DIMAPOST
  1

  9
$DIMALT
 70
     0
  9
$DIMALTD
 70
     3
  9
$DIMALTF
 40
0.0393701
  9
$DIMLFAC
 40
1.0
  9
$DIMTOFL
 70
     1
  9
$DIMTVP
 40
0.0
  9
$DIMTIX
 70
     0
  9
$DIMSOXD
 70
     0
  9
$DIMSAH
 70
     0
  9
$DIMBLK1
  1

  9
$DIMBLK2
  1

  9
$DIMSTYLE
  2
AM_DIN
  9
$DIMCLRD
 70
     0
  9
$DIMCLRE
 70
     0
  9
$DIMCLRT
 70
     0
  9
$DIMTFAC
 40
0.7071069999999999
  9
$DIMGAP
 40
1.0
  9
$DIMJUST
 70
     0
  9
$DIMSD1
 70
     0
  9
$DIMSD2
 70
     0
  9
$DIMTOLJ
 70
     1
  9
$DIMTZIN
 70
     0
  9
$DIMALTZ
 70
    11
  9
$DIMALTTZ
 70
     8
  9
$DIMUPT
 70
     0
  9
$DIMDEC
 70
     1
  9
$DIMTDEC
 70
     2
  9
$DIMALTU
 70
     3
  9
$DIMALTTD
 70
     3
  9
$DIMTXSTY
  7
STANDARD 3.5 mm
  9
$DIMAUNIT
 70
     0
  9
$DIMADEC
 70
     0
  9
$DIMALTRND
 40
0.0
  9
$DIMAZIN
 70
     2
  9
$DIMDSEP
 70
    46
  9
$DIMATFIT
 70
     3
  9
$DIMFRAC
 70
     0
  9
$DIMLDRBLK
  1

  9
$DIMLUNIT
 70
     2
  9
$DIMLWD
 70
    -1
  9
$DIMLWE
 70
    -1
  9
$DIMTMOVE
 70
     0
  9
$LUNITS
 70
     2
  9
$LUPREC
 70
     4
  9
$SKETCHINC
 40
1.0
  9
$FILLETRAD
 40
0.0
  9
$AUNITS
 70
     0
  9
$AUPREC
 70
     0
  9
$MENU
  1
c:\tdm21\cad\caduti13\tdm13
  9
$ELEVATION
 40
0.0
  9
$PELEVATION
 40
0.0
  9
$THICKNESS
 40
0.0
  9
$LIMCHECK
 70
     0
  9
$CHAMFERA
 40
0.0
  9
$CHAMFERB
 40
0.0
  9
$CHAMFERC
 40
0.0
  9
$CHAMFERD
 40
0.0
  9
$SKPOLY
 70
     0
  9
$TDCREATE
 40
2460375.745532407
  9
$TDUCREATE
 40
2460375.516365741
  9
$TDUPDATE
 40
2460446.461608796
  9
$TDUUPDATE
 40
2460446.232442130
  9
$TDINDWG
 40
0.0318402778
  9
$TDUSRTIMER
 40
0.0318402778
  9
$USRTIMER
 70
     1
  9
$ANGBASE
 50
0.0
  9
$ANGDIR
 70
     0
  9
$PDMODE
 70
     1
  9
$PDSIZE
 40
0.0
  9
$PLINEWID
 40
0.0
  9
$SPLFRAME
 70
     0
  9
$SPLINETYPE
 70
     6
  9
$SPLINESEGS
 70
     8
  9
$HANDSEED
  5
2904
  9
$SURFTAB1
 70
     6
  9
$SURFTAB2
 70
     6
  9
$SURFTYPE
 70
     6
  9
$SURFU
 70
     6
  9
$SURFV
 70
     6
  9
$UCSBASE
  2

  9
$UCSNAME
  2

  9
$UCSORG
 10
0.0
 20
0.0
 30
0.0
  9
$UCSXDIR
 10
1.0
 20
0.0
 30
0.0
  9
$UCSYDIR
 10
0.0
 20
1.0
 30
0.0
  9
$UCSORTHOREF
  2

  9
$UCSORTHOVIEW
 70
     0
  9
$UCSORGTOP
 10
0.0
 20
0.0
 30
0.0
  9
$UCSORGBOTTOM
 10
0.0
 20
0.0
 30
0.0
  9
$UCSORGLEFT
 10
0.0
 20
0.0
 30
0.0
  9
$UCSORGRIGHT
 10
0.0
 20
0.0
 30
0.0
  9
$UCSORGFRONT
 10
0.0
 20
0.0
 30
0.0
  9
$UCSORGBACK
 10
0.0
 20
0.0
 30
0.0
  9
$PUCSBASE
  2

  9
$PUCSNAME
  2

  9
$PUCSORG
 10
0.0
 20
0.0
 30
0.0
  9
$PUCSXDIR
 10
1.0
 20
0.0
 30
0.0
  9
$PUCSYDIR
 10
0.0
 20
1.0
 30
0.0
  9
$PUCSORTHOREF
  2

  9
$PUCSORTHOVIEW
 70
     0
  9
$PUCSORGTOP
 10
0.0
 20
0.0
 30
0.0
  9
$PUCSORGBOTTOM
 10
0.0
 20
0.0
 30
0.0
  9
$PUCSORGLEFT
 10
0.0
 20
0.0
 30
0.0
  9
$PUCSORGRIGHT
 10
0.0
 20
0.0
 30
0.0
  9
$PUCSORGFRONT
 10
0.0
 20
0.0
 30
0.0
  9
$PUCSORGBACK
 10
0.0
 20
0.0
 30
0.0
  9
$USERI1
 70
     0
  9
$USERI2
 70
     0
  9
$USERI3
 70
     0
  9
$USERI4
 70
     0
  9
$USERI5
 70
     0
  9
$USERR1
 40
0.0
  9
$USERR2
 40
0.0
  9
$USERR3
 40
0.0
  9
$USERR4
 40
0.0
  9
$USERR5
 40
0.0
  9
$WORLDVIEW
 70
     1
  9
$SHADEDGE
 70
     3
  9
$SHADEDIF
 70
    70
  9
$TILEMODE
 70
     1
  9
$MAXACTVP
 70
    64
  9
$PINSBASE
 10
0.0
 20
0.0
 30
0.0
  9
$PLIMCHECK
 70
     0
  9
$PEXTMIN
 10
-0.0090585340732332
 20
-0.0064050240921461
 30
-0.0015258207003583
  9
$PEXTMAX
 10
297.0090664869001
 20
210.0064106473033
 30
0.0000000349246037
  9
$PLIMMIN
 10
0.0
 20
0.0
  9
$PLIMMAX
 10
297.0
 20
210.0
  9
$UNITMODE
 70
     0
  9
$VISRETAIN
 70
     0
  9
$PLINEGEN
 70
     0
  9
$PSLTSCALE
 70
     1
  9
$TREEDEPTH
 70
  3020
  9
$CMLSTYLE
  2
STANDARD
  9
$CMLJUST
 70
     0
  9
$CMLSCALE
 40
20.0
  9
$PROXYGRAPHICS
 70
     1
  9
$MEASUREMENT
 70
     1
  9
$CELWEIGHT
370
    -1
  9
$ENDCAPS
280
     0
  9
$JOINSTYLE
280
     0
  9
$LWDISPLAY
290
     0
  9
$INSUNITS
 70
     4
  9
$HYPERLINKBASE
  1
HTTP://WWW.SECOTOOLS.COM/
  9
$STYLESHEET
  1
MONOCHROME.CTB
  9
$XEDIT
290
     1
  9
$CEPSNTYPE
380
     0
  9
$PSTYLEMODE
290
     1
  9
$FINGERPRINTGUID
  2
{BFF6A1A8-498D-3947-BEAB-F3DC854B278A}
  9
$VERSIONGUID
  2
{3BD33CC2-8C8B-B340-AED6-570EB55151E2}
  9
$EXTNAMES
290
     1
  9
$PSVPSCALE
 40
0.0
  9
$OLESTARTUP
290
     0
  0
ENDSEC
  0
SECTION
  2
CLASSES
  0
CLASS
  1
ACDBDICTIONARYWDFLT
  2
AcDbDictionaryWithDefault
  3
ObjectDBX Classes
 90
        0
280
     0
281
     0
  0
CLASS
  1
ACDBPLACEHOLDER
  2
AcDbPlaceHolder
  3
ObjectDBX Classes
 90
        0
280
     0
281
     0
  0
CLASS
  1
LAYOUT
  2
AcDbLayout
  3
ObjectDBX Classes
 90
        0
280
     0
281
     0
  0
CLASS
  1
DICTIONARYVAR
  2
AcDbDictionaryVar
  3
ObjectDBX Classes
 90
        0
280
     0
281
     0
  0
CLASS
  1
TABLESTYLE
  2
AcDbTableStyle
  3
ObjectDBX Classes
 90
     4095
280
     0
281
     0
  0
CLASS
  1
MATERIAL
  2
AcDbMaterial
  3
ObjectDBX Classes
 90
     1153
280
     0
281
     0
  0
CLASS
  1
VISUALSTYLE
  2
AcDbVisualStyle
  3
ObjectDBX Classes
 90
     4095
280
     0
281
     0
  0
CLASS
  1
SCALE
  2
AcDbScale
  3
ObjectDBX Classes
 90
     1153
280
     0
281
     0
  0
CLASS
  1
MLEADERSTYLE
  2
AcDbMLeaderStyle
  3
ACDB_MLEADERSTYLE_CLASS
 90
     4095
280
     0
281
     0
  0
CLASS
  1
ACME_DOCUMENT
  2
AcMeDbDoc
  3
AcMeServices
 90
    33792
280
     1
281
     0
  0
CLASS
  1
AMGSETTINGSOBJ
  2
AmgSettingsObj
  3
"AcadM|Product Description: AutoCAD Mechanical|Company: Autodesk, Inc."
 90
    33792
280
     1
281
     0
  0
CLASS
  1
ACMESCOPE
  2
AcMeScope
  3
AcMeServices
 90
    33792
280
     1
281
     0
  0
CLASS
  1
ACMECOMMANDHISTORY
  2
AcMeCommandHistory
  3
AcMeServices
 90
    33792
280
     1
281
     0
  0
CLASS
  1
ACIMSYSVARMAN
  2
AcImSysVarManager
  3
AcMeServices
 90
    33792
280
     1
281
     0
  0
CLASS
  1
ACIMINTSYSVAR
  2
AcImIntSysVar
  3
AcMeServices
 90
    33792
280
     1
281
     0
  0
CLASS
  1
ACMEDRAWINGMAN
  2
AcMeDrawingMan
  3
AcMeServices
 90
    33792
280
     1
281
     0
  0
CLASS
  1
ACMEVIEW
  2
AcMeView
  3
AcMeServices
 90
    33792
280
     1
281
     0
  0
CLASS
  1
ACDBENTITYCACHE
  2
AcMeEntityCache
  3
AcMeServices
 90
    33792
280
     1
281
     0
  0
CLASS
  1
GSMANAGER
  2
AcMeGSManager
  3
AcMeServices
 90
    33792
280
     1
281
     0
  0
CLASS
  1
AMDTINTERNALREACTOR
  2
AmdtInternalReactor
  3
AcMeServices
 90
    33792
280
     1
281
     0
  0
CLASS
  1
ACMESTATEMGR
  2
AcMeStateMgr
  3
AcMeServices
 90
    33792
280
     1
281
     0
  0
CLASS
  1
ACGREFMASTER
  2
AcGrefMaster
  3
AcAttribServices
 90
    33792
280
     1
281
     0
  0
CLASS
  1
AM_DRAWING_MGR
  2
AcDmDwgMgr
  3
AcMechDwgViewMgmt
 90
    33792
280
     1
281
     0
  0
CLASS
  1
AM_DWG_DOCUMENT
  2
AcDmDwgDocument
  3
AcMechDwgViewMgmt
 90
    33792
280
     1
281
     0
  0
CLASS
  1
AM_DWG_SHEET
  2
AcDmSheet
  3
AcMechDwgViewMgmt
 90
    33792
280
     1
281
     0
  0
CLASS
  1
AM_VIEWDIMPARMAP
  2
AcDmViewDimParMap
  3
AcMechDwgViewMgmt
 90
    33792
280
     1
281
     0
  0
CLASS
  1
ACIMREALSYSVAR
  2
AcImRealSysVar
  3
AcMeServices
 90
    33792
280
     1
281
     0
  0
CLASS
  1
AM_DWGMGR_NAME
  2
AcDmDwgMgrName
  3
AcMechDwgViewMgmt
 90
    33792
280
     1
281
     0
  0
CLASS
  1
ACME_DATABASE
  2
AcMeDbDatabase
  3
AcMeServices
 90
    33792
280
     1
281
     0
  0
CLASS
  1
ACRFINSADJUSTERMGR
  2
AcRfInsAdjusterMgr
  3
AcMeServices
 90
    33792
280
     1
281
     0
  0
CLASS
  1
ACGREFACADMASTER
  2
AcGrefacadMaster
  3
AcGrefServices
 90
    33792
280
     1
281
     0
  0
CLASS
  1
AMDTMENUSTATEMGR
  2
AmdtMenuStateMgr
  3
McadcomServices
 90
    33792
280
     1
281
     0
  0
CLASS
  1
AMDTMCOMMENUSTATE
  2
AmdtMcomMenuState
  3
McadcomServices
 90
    33792
280
     1
281
     0
  0
CLASS
  1
AMIMASTER
  2
AmiMaster
  3
AmiServices
 90
    33792
280
     1
281
     0
  0
CLASS
  1
MAPIAMMOUDLE
  2
MApiAmModule
  3
MApiAmServices
 90
    33792
280
     1
281
     0
  0
CLASS
  1
ACIMSTRSYSVAR
  2
AcImStrSysVar
  3
AcMeServices
 90
    33792
280
     1
281
     0
  0
CLASS
  1
AMDTADMENUSTATE
  2
AmdtAdMenuState
  3
DesignerServices
 90
    33792
280
     1
281
     0
  0
CLASS
  1
ADAPPL
  2
AcAdAppl
  3
DesignerAssemblies
 90
    33792
280
     1
281
     0
  0
CLASS
  1
DEPMGR
  2
AcAdDepMgr
  3
DesignerAssemblies
 90
    33792
280
     1
281
     0
  0
CLASS
  1
PARAMMGR
  2
AcAdParamMgr
  3
DesignerAssemblies
 90
    33792
280
     1
281
     0
  0
CLASS
  1
PARAMSCOPE
  2
AcAdParamScope
  3
DesignerAssemblies
 90
    33792
280
     1
281
     0
  0
CLASS
  1
NAMEDAPPL
  2
AcAdNamedAppl
  3
DesignerAssemblies
 90
    33792
280
     1
281
     0
  0
CLASS
  1
AMDTDMMENUSTATE
  2
AmdtDmMenuState
  3
AcMechDwgViewMgmt
 90
    33792
280
     1
281
     0
  0
CLASS
  1
AMDTAMMENUSTATE
  2
AmdtAmMenuState
  3
DesignerAssemblies_arx
 90
    33792
280
     1
281
     0
  0
CLASS
  1
ACAMPROJECT
  2
AcAmProject
  3
DesignerAssemblies
 90
    33792
280
     1
281
     0
  0
CLASS
  1
ACAMGRCOMPDEF
  2
AcAmGrCompDef
  3
DesignerAssemblies
 90
    33792
280
     1
281
     0
  0
CLASS
  1
ACCMCONTEXT
  2
AcCmContext
  3
DesignerAssemblies
 90
    33792
280
     1
281
     0
  0
CLASS
  1
ACAMCOMPDEF
  2
AcAmCompDef
  3
DesignerAssemblies
 90
    33792
280
     1
281
     0
  0
CLASS
  1
ACAMCOMPDEFMGR
  2
AcAmCompDefMgr
  3
DesignerAssemblies
 90
    33792
280
     1
281
     0
  0
CLASS
  1
AMCONTEXTMGR
  2
AcAmContextMgr
  3
DesignerAssemblies
 90
    33792
280
     1
281
     0
  0
CLASS
  1
ACAMCONTEXTMODELER
  2
AcAmContextModeler
  3
DesignerAssemblies
 90
    33792
280
     1
281
     0
  0
CLASS
  1
ACMDATADICTIONARY
  2
AcmDataDictionary
  3
"AcmSymBB|Product Description: AutoCAD Mechanical|Company: Autodesk, Inc."
 90
    33792
280
     1
281
     0
  0
CLASS
  1
CATALOGSTATE
  2
AcAmCatalogState
  3
DesignerAssemblies_arx
 90
    33792
280
     1
281
     0
  0
CLASS
  1
ACAMGRCOMPDEFSET
  2
AcAmGrCompDefSet
  3
DesignerAssemblies
 90
    33792
280
     1
281
     0
  0
CLASS
  1
AMDTBROWSERDBTAB
  2
AmdtBrowserDbTab
  3
McadcomServices
 90
    33792
280
     1
281
     0
  0
CLASS
  1
CBROWSERAPPOBJECT
  2
CBrowserAppObject
  3
McadcomServices
 90
    33792
280
     1
281
     0
  0
CLASS
  1
DM_PLACEHOLDER
  2
AcDmSelsetPlaceholder
  3
McadcomServices
 90
    33792
280
     1
281
     0
  0
CLASS
  1
ACMSTANDARDDIN
  2
AcmStandardDIN
  3
"Amdt_StdImp|Product Description: AutoCAD Mechanical|Company: Autodesk, Inc."
 90
    33792
280
     1
281
     0
  0
CLASS
  1
AMGOBJPROPCFG
  2
AmgObjPropCfg
  3
"AmgLay|Product Description: AutoCAD Mechanical|Company: Autodesk, Inc."
 90
    33792
280
     1
281
     0
  0
CLASS
  1
AMDTEDGESTANDARDDIN13715
  2
AmdtEdgeStdDIN13715
  3
"Amdt_StdImp|Product Description: AutoCAD Mechanical|Company: Autodesk, Inc."
 90
    33792
280
     1
281
     0
  0
CLASS
  1
ACMSURFSTANDARDDIN2002
  2
AcmSurfTextStdDIN2002
  3
"Amdt_StdImp|Product Description: AutoCAD Mechanical|Company: Autodesk, Inc."
 90
    33792
280
     1
281
     0
  0
CLASS
  1
ACMFCFSTANDARDDIN
  2
AcmFCFStdDIN
  3
"Amdt_StdImp|Product Description: AutoCAD Mechanical|Company: Autodesk, Inc."
 90
    33792
280
     1
281
     0
  0
CLASS
  1
ACMWELDSTANDARDDIN
  2
AcmWeldingStdDIN
  3
"Amdt_StdImp|Product Description: AutoCAD Mechanical|Company: Autodesk, Inc."
 90
    33792
280
     1
281
     0
  0
CLASS
  1
ACMIDSTANDARDDIN
  2
AcmIdStdDIN
  3
"Amdt_StdImp|Product Description: AutoCAD Mechanical|Company: Autodesk, Inc."
 90
    33792
280
     1
281
     0
  0
CLASS
  1
ACMDATUMSTANDARDDIN
  2
AcmDatumStdDIN
  3
"Amdt_StdImp|Product Description: AutoCAD Mechanical|Company: Autodesk, Inc."
 90
    33792
280
     1
281
     0
  0
CLASS
  1
ACMBOMSTANDARDDIN
  2
AcmBOMStdDIN
  3
"Amdt_StdImp|Product Description: AutoCAD Mechanical|Company: Autodesk, Inc."
 90
    33792
280
     1
281
     0
  0
CLASS
  1
ACMDETAILSTANDARDDIN
  2
AmdtDetailSymStdDIN
  3
"Amdt_StdImp|Product Description: AutoCAD Mechanical|Company: Autodesk, Inc."
 90
    33792
280
     1
281
     0
  0
CLASS
  1
ACMSECTIONSTANDARDDIN
  2
AmdtSectionSymStdDIN
  3
"Amdt_StdImp|Product Description: AutoCAD Mechanical|Company: Autodesk, Inc."
 90
    33792
280
     1
281
     0
  0
CLASS
  1
ACMCENTERLINESTANDARDDIN
  2
AmdtCenterLineStdDIN
  3
"Amdt_StdImp|Product Description: AutoCAD Mechanical|Company: Autodesk, Inc."
 90
    33792
280
     1
281
     0
  0
CLASS
  1
ACMTHREADLINESTANDARDDIN
  2
AmdtThreadLineStdDIN
  3
"Amdt_StdImp|Product Description: AutoCAD Mechanical|Company: Autodesk, Inc."
 90
    33792
280
     1
281
     0
  0
CLASS
  1
ACMNOTESTANDARDDIN
  2
AmdtNoteStdDIN
  3
"Amdt_StdImp|Product Description: AutoCAD Mechanical|Company: Autodesk, Inc."
 90
    33792
280
     1
281
     0
  0
CLASS
  1
ACMTAPERSTANDARDDIN
  2
AcmTaperStdDIN
  3
"Amdt_StdImp|Product Description: AutoCAD Mechanical|Company: Autodesk, Inc."
 90
    33792
280
     1
281
     0
  0
CLASS
  1
ACMANOOTATIONVIEWSTANDARDDIN
  2
AmdtAnViewStdDIN
  3
"Amdt_StdImp|Product Description: AutoCAD Mechanical|Company: Autodesk, Inc."
 90
    33792
280
     1
281
     0
  0
CLASS
  1
AMDTNOTETEMPLATEDB
  2
AmdtNoteTemplateDB
  3
"AcmSymBB" "Product Description: AutoCAD Mechanical|Company: Autodesk, Inc."
 90
    33792
280
     1
281
     0
  0
CLASS
  1
ACAMGLAYSTD
  2
AcAmgLayStd
  3
"AmgLay|Product Description: AutoCAD Mechanical|Company: Autodesk, Inc."
 90
    33792
280
     1
281
     0
  0
CLASS
  1
ACAMGDIMSTD
  2
AcAmgDimStd
  3
"AmgDim|Product Description: AutoCAD Mechanical|Company: Autodesk, Inc."
 90
    33792
280
     1
281
     0
  0
CLASS
  1
ACAMGHOLECHARTSTDDIN
  2
AcAmgHoleChartStdDIN
  3
"AmgDim" "Product Description: AutoCAD Mechanical|Company: Autodesk, Inc."
 90
    33792
280
     1
281
     0
  0
CLASS
  1
ACAMGTITLESTD
  2
AcAmgTitleStd
  3
"AmgTitle|Product Description: AutoCAD Mechanical|Company: Autodesk, Inc."
 90
    33792
280
     1
281
     0
  0
CLASS
  1
ACAMGFILTERDAT
  2
AcAmgFilterDat
  3
"AcadM|Product Description: AutoCAD Mechanical|Company: Autodesk, Inc."
 90
    33792
280
     1
281
     0
  0
CLASS
  1
CAMSSTRUCTBTNSTATE
  2
StructBtnState
  3
DesignerAssemblies_arx
 90
    33792
280
     1
281
     0
  0
CLASS
  1
CELLSTYLEMAP
  2
AcDbCellStyleMap
  3
ObjectDBX Classes
 90
     1152
280
     0
281
     0
  0
CLASS
  1
SORTENTSTABLE
  2
AcDbSortentsTable
  3
ObjectDBX Classes
 90
        0
280
     0
281
     0
  0
CLASS
  1
PLOTSETTINGS
  2
AcDbPlotSettings
  3
ObjectDBX Classes
 90
        0
280
     0
281
     0
  0
CLASS
  1
SOLID_BACKGROUND
  2
AcDbSolidBackground
  3
SCENEOE
 90
    36863
280
     0
281
     0
  0
CLASS
  1
NPOCOLLECTION
  2
AcDbImpNonPersistentObjectsCollection
  3
ObjectDBX Classes
 90
    33921
280
     1
281
     0
  0
CLASS
  1
ACDBSECTIONVIEWSTYLE
  2
AcDbSectionViewStyle
  3
ObjectDBX Classes
 90
     1025
280
     0
281
     0
  0
CLASS
  1
ACDBDETAILVIEWSTYLE
  2
AcDbDetailViewStyle
  3
ObjectDBX Classes
 90
     1025
280
     0
281
     0
  0
CLASS
  1
ACMSECTIONSTANDARDCUSTOM
  2
AmdtSectionSymStdCustom
  3
"Amdt_StdImp|Product Description: AutoCAD Mechanical|Company: Autodesk, Inc."
 90
    33792
280
     1
281
     0
  0
CLASS
  1
ACMDETAILTANDARDCUSTOM
  2
AmdtDetailSymStdCustom
  3
"Amdt_StdImp|Product Description: AutoCAD Mechanical|Company: Autodesk, Inc."
 90
    33792
280
     1
281
     0
  0
CLASS
  1
FIELD
  2
AcDbField
  3
ObjectDBX Classes
 90
    33920
280
     0
281
     0
  0
CLASS
  1
FIELDLIST
  2
AcDbFieldList
  3
ObjectDBX Classes
 90
     1152
280
     0
281
     0
  0
CLASS
  1
DIMASSOC
  2
AcDbDimAssoc
  3
"AcDbDimAssoc|Product Desc:     AcDim ARX App For Dimension|Company:          Autodesk, Inc.|WEB Address:      www.autodesk.com"
 90
    32768
280
     0
281
     0
  0
CLASS
  1
SUN
  2
AcDbSun
  3
SCENEOE
 90
    33921
280
     0
281
     0
  0
CLASS
  1
RAPIDRTRENDERSETTINGS
  2
AcDbRapidRTRenderSettings
  3
ObjectDBX Classes
 90
     1024
280
     0
281
     0
  0
CLASS
  1
ACMSTANDARDISO
  2
AcmStandardISO
  3
"Amdt_StdImp|Product Description: AutoCAD Mechanical|Company: Autodesk, Inc."
 90
    33792
280
     0
281
     0
  0
CLASS
  1
AMDTEDGESTANDARDISO13715
  2
AmdtEdgeStdISO13715
  3
"Amdt_StdImp|Product Description: AutoCAD Mechanical|Company: Autodesk, Inc."
 90
    33792
280
     0
281
     0
  0
CLASS
  1
ACMSURFSTANDARDISO2002
  2
AcmSurfTextStdISO2002
  3
"Amdt_StdImp|Product Description: AutoCAD Mechanical|Company: Autodesk, Inc."
 90
    33792
280
     0
281
     0
  0
CLASS
  1
ACMFCFSTANDARDISO2012
  2
AcmFCFStdISO2012
  3
"Amdt_StdImp|Product Description: AutoCAD Mechanical|Company: Autodesk, Inc."
 90
    33792
280
     0
281
     0
  0
CLASS
  1
ACMWELDSTANDARDISO2019
  2
AcmWeldingStdISO2019
  3
"Amdt_StdImp|Product Description: AutoCAD Mechanical|Company: Autodesk, Inc."
 90
    33792
280
     0
281
     0
  0
CLASS
  1
ACMIDSTANDARDISO2012
  2
AcmIdStdISO2012
  3
"Amdt_StdImp|Product Description: AutoCAD Mechanical|Company: Autodesk, Inc."
 90
    33792
280
     0
281
     0
  0
CLASS
  1
ACMDATUMSTANDARDISO2012
  2
AcmDatumStdISO2012
  3
"Amdt_StdImp|Product Description: AutoCAD Mechanical|Company: Autodesk, Inc."
 90
    33792
280
     0
281
     0
  0
CLASS
  1
ACMBOMSTANDARDISO
  2
AcmBOMStdISO
  3
"Amdt_StdImp|Product Description: AutoCAD Mechanical|Company: Autodesk, Inc."
 90
    33792
280
     0
281
     0
  0
CLASS
  1
ACMDETAILSTANDARDISO
  2
AmdtDetailSymStdISO
  3
"Amdt_StdImp|Product Description: AutoCAD Mechanical|Company: Autodesk, Inc."
 90
    33792
280
     0
281
     0
  0
CLASS
  1
ACMSECTIONSTANDARDISO2001
  2
AmdtSectionSymStdISO2001
  3
"Amdt_StdImp|Product Description: AutoCAD Mechanical|Company: Autodesk, Inc."
 90
    33792
280
     0
281
     0
  0
CLASS
  1
ACMCENTERLINESTANDARDISO
  2
AmdtCenterLineStdISO
  3
"Amdt_StdImp|Product Description: AutoCAD Mechanical|Company: Autodesk, Inc."
 90
    33792
280
     0
281
     0
  0
CLASS
  1
ACMTHREADLINESTANDARDISO
  2
AmdtThreadLineStdISO
  3
"Amdt_StdImp|Product Description: AutoCAD Mechanical|Company: Autodesk, Inc."
 90
    33792
280
     0
281
     0
  0
CLASS
  1
ACMNOTESTANDARDISO
  2
AmdtNoteStdISO
  3
"Amdt_StdImp|Product Description: AutoCAD Mechanical|Company: Autodesk, Inc."
 90
    33792
280
     0
281
     0
  0
CLASS
  1
ACMTAPERSTANDARDISO
  2
AcmTaperStdISO
  3
"Amdt_StdImp|Product Description: AutoCAD Mechanical|Company: Autodesk, Inc."
 90
    33792
280
     0
281
     0
  0
CLASS
  1
ACMANOOTATIONVIEWSTANDARDISO
  2
AmdtAnViewStdISO
  3
"Amdt_StdImp|Product Description: AutoCAD Mechanical|Company: Autodesk, Inc."
 90
    33792
280
     0
281
     0
  0
CLASS
  1
ACAMGHOLECHARTSTDISO
  2
AcAmgHoleChartStdISO
  3
"AmgDim" "Product Description: AutoCAD Mechanical|Company: Autodesk, Inc."
 90
    33792
280
     0
281
     0
  0
CLASS
  1
MENTALRAYRENDERSETTINGS
  2
AcDbMentalRayRenderSettings
  3
SCENEOE
 90
     1024
280
     0
281
     0
  0
ENDSEC
  0
SECTION
  2
TABLES
  0
TABLE
  2
VPORT
  5
8
102
{ACAD_XDICTIONARY
360
A45
102
}
330
0
100
AcDbSymbolTable
 70
     1
  0
VPORT
  5
AD1
330
8
100
AcDbSymbolTableRecord
100
AcDbViewportTableRecord
  2
*Active
 70
     0
 10
0.0
 20
0.0
 11
1.0
 21
1.0
 12
42.97854759367012
 22
28.08830359378874
 13
0.0
 23
0.0
 14
5.0
 24
5.0
 15
15.0
 25
15.0
 16
0.0
 26
0.0
 36
1.0
 17
0.0
 27
0.0
 37
0.0
 40
136.6343351732321
 41
2.018769551616267
 42
50.0
 43
0.0
 44
0.0
 50
0.0
 51
0.0
 71
     0
 72
  2000
 73
     1
 74
     3
 75
     0
 76
     0
 77
     0
 78
     0
281
     0
 65
     1
110
0.0
120
0.0
130
0.0
111
1.0
121
0.0
131
0.0
112
0.0
122
1.0
132
0.0
 79
     0
146
0.0
1001
ACAD_NAV_VCDISPLAY
1070
     3
  0
ENDTAB
  0
TABLE
  2
LTYPE
  5
5
330
0
100
AcDbSymbolTable
 70
    19
  0
LTYPE
  5
12
330
5
100
AcDbSymbolTableRecord
100
AcDbLinetypeTableRecord
  2
BYBLOCK
 70
     0
  3

 72
    65
 73
     0
 40
0.0
  0
LTYPE
  5
13
330
5
100
AcDbSymbolTableRecord
100
AcDbLinetypeTableRecord
  2
BYLAYER
 70
     0
  3
ISO continuous line ______________________________________
 72
    65
 73
     0
 40
0.0
  0
LTYPE
  5
257D
330
5
100
AcDbSymbolTableRecord
100
AcDbLinetypeTableRecord
  2
Continuous
 70
     0
  3
Solid line
 72
    65
 73
     0
 40
0.0
  0
LTYPE
  5
4EF
330
5
100
AcDbSymbolTableRecord
100
AcDbLinetypeTableRecord
  2
ACDINWELD
 70
     0
  3
_ _ _ _ _
 72
    65
 73
     2
 40
2.0
 49
2.0
 74
     0
 49
-1.0
 74
     0
  0
LTYPE
  5
4F0
330
5
100
AcDbSymbolTableRecord
100
AcDbLinetypeTableRecord
  2
ACDINTGB
 70
     0
  3
__ . . __ . .
 72
    65
 73
     6
 40
9.0
 49
4.0
 74
     0
 49
-1.0
 74
     0
 49
1.0
 74
     0
 49
-1.0
 74
     0
 49
1.0
 74
     0
 49
-1.0
 74
     0
  0
LTYPE
  5
4F1
330
5
100
AcDbSymbolTableRecord
100
AcDbLinetypeTableRecord
  2
ACDINTGL
 70
     0
  3
_ _ _ _ _
 72
    65
 73
     2
 40
3.0
 49
2.0
 74
     0
 49
-1.0
 74
     0
  0
LTYPE
  5
916
330
5
100
AcDbSymbolTableRecord
100
AcDbLinetypeTableRecord
  2
LONGDASH_DASH
 70
     0
  3
ISO center line ____ _ ____ _ ____ _ ____ _ ___ _ ___
 72
    65
 73
     4
 40
10.5
 49
6.0
 74
     0
 49
-0.75
 74
     0
 49
3.0
 74
     0
 49
-0.75
 74
     0
  0
LTYPE
  5
917
330
5
100
AcDbSymbolTableRecord
100
AcDbLinetypeTableRecord
  2
DASH
 70
     0
  3
ISO hidden line __ __ __ __ __ __ __ __ __ __ __ __ __
 72
    65
 73
     2
 40
3.75
 49
3.0
 74
     0
 49
-0.75
 74
     0
  0
LTYPE
  5
CFA
330
5
100
AcDbSymbolTableRecord
100
AcDbLinetypeTableRecord
  2
HIDDEN
 70
     0
  3
Hidden __ __ __ __ __ __ __ __ __ __ __ __ __ _
 72
    65
 73
     2
 40
9.524999999999996
 49
6.349999999999997
 74
     0
 49
-3.174999999999998
 74
     0
  0
LTYPE
  5
CFB
330
5
100
AcDbSymbolTableRecord
100
AcDbLinetypeTableRecord
  2
PHANTOM2
 70
     0
  3
Phantom (.5x) ___ _ _ ___ _ _ ___ _ _ ___ _ _
 72
    65
 73
     6
 40
31.75
 49
15.875
 74
     0
 49
-3.174999999999998
 74
     0
 49
3.174999999999998
 74
     0
 49
-3.174999999999998
 74
     0
 49
3.174999999999998
 74
     0
 49
-3.174999999999998
 74
     0
  0
LTYPE
  5
CFC
330
5
100
AcDbSymbolTableRecord
100
AcDbLinetypeTableRecord
  2
CENTER
 70
     0
  3
Center ____ _ ____ _ ____ _ ____ _ ____ _ ____
 72
    65
 73
     4
 40
50.8
 49
31.75
 74
     0
 49
-6.349999999999997
 74
     0
 49
6.349999999999997
 74
     0
 49
-6.349999999999997
 74
     0
  0
LTYPE
  5
146F
330
5
100
AcDbSymbolTableRecord
100
AcDbLinetypeTableRecord
  2
AM_ISO02W050
 70
     0
  3
__ __ __ __ __ __ __ __ __ __ __ __ __ __ __
 72
    65
 73
     2
 40
7.5
 49
6.0
 74
     0
 49
-1.5
 74
     0
  0
LTYPE
  5
1470
330
5
100
AcDbSymbolTableRecord
100
AcDbLinetypeTableRecord
  2
AM_ISO08W050
 70
     0
  3
____ . ____ . ____ . ____ . ____ . ____ . ____
 72
    65
 73
     4
 40
18.0
 49
12.0
 74
     0
 49
-1.5
 74
     0
 49
3.0
 74
     0
 49
-1.5
 74
     0
  0
LTYPE
  5
1471
330
5
100
AcDbSymbolTableRecord
100
AcDbLinetypeTableRecord
  2
AM_ISO09W050
 70
     0
  3
_____ . . _____ . . _____ . . ____ .. ____
 72
    65
 73
     6
 40
22.5
 49
12.0
 74
     0
 49
-1.5
 74
     0
 49
3.0
 74
     0
 49
-1.5
 74
     0
 49
3.0
 74
     0
 49
-1.5
 74
     0
  0
LTYPE
  5
1472
330
5
100
AcDbSymbolTableRecord
100
AcDbLinetypeTableRecord
  2
Amconstr
 70
     0
  3
_______________________
 72
    65
 73
     2
 40
9999.0
 49
9999.0
 74
     0
 49
0.0
 74
     0
  0
LTYPE
  5
1473
330
5
100
AcDbSymbolTableRecord
100
AcDbLinetypeTableRecord
  2
AM_ISO08W050x2
 70
     0
  3
__ . __ . __ . __ . __ . __
 72
    65
 73
     4
 40
9.0
 49
6.0
 74
     0
 49
-0.75
 74
     0
 49
1.5
 74
     0
 49
-0.75
 74
     0
  0
LTYPE
  5
1474
330
5
100
AcDbSymbolTableRecord
100
AcDbLinetypeTableRecord
  2
AM_ISO02W050x2
 70
     0
  3
 _ _ _ _ _ _ _ _ _ _ _ _
 72
    65
 73
     2
 40
3.75
 49
3.0
 74
     0
 49
-0.75
 74
     0
  0
LTYPE
  5
1475
330
5
100
AcDbSymbolTableRecord
100
AcDbLinetypeTableRecord
  2
Amzigzag
 70
     0
  3
/\/-/\/-/\/-/\/-/\/-/\/
 72
    65
 73
     2
 40
11.0001
 49
0.0001
 74
     4
 75
   136
340
147A
 46
0.04
 50
0.0
 44
0.0
 45
0.0
 49
-11.0
 74
     0
  0
LTYPE
  5
1476
330
5
100
AcDbSymbolTableRecord
100
AcDbLinetypeTableRecord
  2
ACISOWELD
 70
     0
  3
_ _ _ _ _
 72
    65
 73
     2
 40
2.0
 49
2.0
 74
     0
 49
-1.0
 74
     0
  0
LTYPE
  5
1477
330
5
100
AcDbSymbolTableRecord
100
AcDbLinetypeTableRecord
  2
ACISOTGL
 70
     0
  3
_ _ _ _ _
 72
    65
 73
     2
 40
3.0
 49
2.0
 74
     0
 49
-1.0
 74
     0
  0
LTYPE
  5
1478
330
5
100
AcDbSymbolTableRecord
100
AcDbLinetypeTableRecord
  2
ACISOTGB
 70
     0
  3
__ . . __ . .
 72
    65
 73
     6
 40
9.0
 49
4.0
 74
     0
 49
-1.0
 74
     0
 49
1.0
 74
     0
 49
-1.0
 74
     0
 49
1.0
 74
     0
 49
-1.0
 74
     0
  0
ENDTAB
  0
TABLE
  2
LAYER
  5
2
102
{ACAD_XDICTIONARY
360
43C
102
}
330
0
100
AcDbSymbolTable
 70
    11
  0
LAYER
  5
F
102
{ACAD_XDICTIONARY
360
24D0
102
}
330
2
100
AcDbSymbolTableRecord
100
AcDbLayerTableRecord
  2
0
 70
     0
 62
     7
  6
Continuous
290
     0
370
    -3
390
300
  0
LAYER
  5
23
102
{ACAD_XDICTIONARY
360
24D2
102
}
330
2
100
AcDbSymbolTableRecord
100
AcDbLayerTableRecord
  2
1
 70
     0
 62
     4
  6
Continuous
370
    50
390
300
  0
LAYER
  5
24
102
{ACAD_XDICTIONARY
360
24D4
102
}
330
2
100
AcDbSymbolTableRecord
100
AcDbLayerTableRecord
  2
SK1
 70
     0
 62
     4
  6
Continuous
370
    50
390
300
  0
LAYER
  5
25
102
{ACAD_XDICTIONARY
360
24D6
102
}
330
2
100
AcDbSymbolTableRecord
100
AcDbLayerTableRecord
  2
2
 70
     0
 62
     7
  6
Continuous
370
    25
390
300
  0
LAYER
  5
27
102
{ACAD_XDICTIONARY
360
24D8
102
}
330
2
100
AcDbSymbolTableRecord
100
AcDbLayerTableRecord
  2
SK2
 70
     0
 62
     7
  6
Continuous
370
    25
390
300
  0
LAYER
  5
2A
102
{ACAD_XDICTIONARY
360
24DA
102
}
330
2
100
AcDbSymbolTableRecord
100
AcDbLayerTableRecord
  2
4
 70
     0
 62
     2
  6
LONGDASH_DASH
370
    25
390
300
  0
LAYER
  5
2B
102
{ACAD_XDICTIONARY
360
24DC
102
}
330
2
100
AcDbSymbolTableRecord
100
AcDbLayerTableRecord
  2
SK4
 70
     0
 62
     2
  6
LONGDASH_DASH
370
    25
390
300
  0
LAYER
  5
2E
102
{ACAD_XDICTIONARY
360
24DE
102
}
330
2
100
AcDbSymbolTableRecord
100
AcDbLayerTableRecord
  2
SK6
 70
     0
 62
     5
  6
Continuous
370
    35
390
300
  0
LAYER
  5
2F
330
2
100
AcDbSymbolTableRecord
100
AcDbLayerTableRecord
  2
DEFPOINTS
 70
     0
 62
     7
  6
Continuous
290
     0
370
    -3
390
300
  0
LAYER
  5
F83
102
{ACAD_XDICTIONARY
360
F84
102
}
330
2
100
AcDbSymbolTableRecord
100
AcDbLayerTableRecord
  2
CUT
 70
     0
 62
     1
  6
Continuous
370
    25
390
300
  0
LAYER
  5
F85
102
{ACAD_XDICTIONARY
360
F86
102
}
330
2
100
AcDbSymbolTableRecord
100
AcDbLayerTableRecord
  2
NOCUT
 70
     0
 62
     7
  6
Continuous
370
    25
390
300
  0
ENDTAB
  0
TABLE
  2
STYLE
  5
3
330
0
100
AcDbSymbolTable
 70
     8
  0
STYLE
  5
10
330
3
100
AcDbSymbolTableRecord
100
AcDbTextStyleTableRecord
  2
STANDARD
 70
     0
 40
0.0
 41
1.0
 50
0.0
 71
     0
 42
5.0
  3
Mon821Rm.ttf
  4

1001
ACAD
1000
Monospac821 BT
1071
       49
  0
STYLE
  5
1E
330
3
100
AcDbSymbolTableRecord
100
AcDbTextStyleTableRecord
  2
STANDARD 5 mm
 70
     0
 40
5.0
 41
1.0
 50
0.0
 71
     0
 42
3.5
  3
Mon821Rm.ttf
  4

1001
ACAD
1000
Monospac821 BT
1071
       49
  0
STYLE
  5
4DF
330
3
100
AcDbSymbolTableRecord
100
AcDbTextStyleTableRecord
  2
ACDINTS
 70
     0
 40
1.0
 41
1.0
 50
0.0
 71
     0
 42
3.5
  3
Mon821Rm.ttf
  4

1001
ACAD
1000
Monospac821 BT
1071
       49
  0
STYLE
  5
4EE
330
3
100
AcDbSymbolTableRecord
100
AcDbTextStyleTableRecord
  2
ACDINGDT
 70
     0
 40
0.0
 41
1.0
 50
0.0
 71
     0
 42
3.5
  3
Mon821Rm.ttf
  4

1001
ACAD
1000
Monospac821 BT
1071
       49
  0
STYLE
  5
7DE
330
3
100
AcDbSymbolTableRecord
100
AcDbTextStyleTableRecord
  2
STANDARD 3.5 mm
 70
     0
 40
3.5
 41
1.0
 50
0.0
 71
     0
 42
5.0
  3
Mon821Rm.ttf
  4

1001
ACAD
1000
Monospac821 BT
1071
       49
  0
STYLE
  5
E90
330
3
100
AcDbSymbolTableRecord
100
AcDbTextStyleTableRecord
  2
USER1
 70
     0
 40
0.0
 41
1.0
 50
0.0
 71
     0
 42
2.5
  3
TXT.SHX
  4

  0
STYLE
  5
147A
330
3
100
AcDbSymbolTableRecord
100
AcDbTextStyleTableRecord
  2

 70
     1
 40
0.0
 41
1.0
 50
0.0
 71
     0
 42
3.5
  3
genltshp.shx
  4

  0
STYLE
  5
147B
330
3
100
AcDbSymbolTableRecord
100
AcDbTextStyleTableRecord
  2
ACISOGDT
 70
     0
 40
0.0
 41
1.0
 50
0.0
 71
     0
 42
3.5
  3
amgdt.shx
  4

  0
ENDTAB
  0
TABLE
  2
VIEW
  5
6
330
0
100
AcDbSymbolTable
 70
     6
  0
VIEW
  5
758
330
6
100
AcDbSymbolTableRecord
100
AcDbViewTableRecord
  2
AM_VIEW1
 70
     1
 40
148.5265045166015
 10
121.0318359737553
 20
219.614756822586
 41
248.4136475334483
 11
0.0
 21
0.0
 31
1.0
 12
0.0
 22
0.0
 32
0.0
 42
50.0
 43
0.0
 44
0.0
 50
0.0
 71
     0
281
     0
 72
     0
  0
VIEW
  5
759
330
6
100
AcDbSymbolTableRecord
100
AcDbViewTableRecord
  2
AM_VIEW2
 70
     1
 40
148.5265045166015
 10
292.4378600711665
 20
219.614756822586
 41
248.4136475334483
 11
0.0
 21
0.0
 31
1.0
 12
0.0
 22
0.0
 32
0.0
 42
50.0
 43
0.0
 44
0.0
 50
0.0
 71
     0
281
     0
 72
     0
  0
VIEW
  5
75A
330
6
100
AcDbSymbolTableRecord
100
AcDbViewTableRecord
  2
AM_VIEW3
 70
     1
 40
148.5265045166015
 10
121.0318359737553
 20
71.0882523059845
 41
248.4136475334483
 11
0.0
 21
0.0
 31
1.0
 12
0.0
 22
0.0
 32
0.0
 42
50.0
 43
0.0
 44
0.0
 50
0.0
 71
     0
281
     0
 72
     0
  0
VIEW
  5
75B
330
6
100
AcDbSymbolTableRecord
100
AcDbViewTableRecord
  2
AM_VIEW4
 70
     1
 40
148.5265045166015
 10
292.4378600711665
 20
71.0882523059845
 41
248.4136475334483
 11
0.0
 21
0.0
 31
1.0
 12
0.0
 22
0.0
 32
0.0
 42
50.0
 43
0.0
 44
0.0
 50
0.0
 71
     0
281
     0
 72
     0
  0
VIEW
  5
75C
330
6
100
AcDbSymbolTableRecord
100
AcDbViewTableRecord
  2
AM_VIEW5
 70
     1
 40
148.5265045166015
 10
206.7348480224609
 20
145.3515045642852
 41
248.4136475334483
 11
0.0
 21
0.0
 31
1.0
 12
0.0
 22
0.0
 32
0.0
 42
50.0
 43
0.0
 44
0.0
 50
0.0
 71
     0
281
     0
 72
     0
  0
VIEW
  5
75D
330
6
100
AcDbSymbolTableRecord
100
AcDbViewTableRecord
  2
AM_VIEW6
 70
     1
 40
297.0500385031128
 10
206.7348480224609
 20
145.3515045642852
 41
496.8223267939458
 11
0.0
 21
0.0
 31
1.0
 12
0.0
 22
0.0
 32
0.0
 42
50.0
 43
0.0
 44
0.0
 50
0.0
 71
     0
281
     0
 72
     0
  0
ENDTAB
  0
TABLE
  2
UCS
  5
7
330
0
100
AcDbSymbolTable
 70
     0
  0
ENDTAB
  0
TABLE
  2
APPID
  5
9
330
0
100
AcDbSymbolTable
 70
    39
  0
APPID
  5
11
330
9
100
AcDbSymbolTableRecord
100
AcDbRegAppTableRecord
  2
ACAD
 70
     0
  0
APPID
  5
3A6
330
9
100
AcDbSymbolTableRecord
100
AcDbRegAppTableRecord
  2
ACAD_PSEXT
 70
     0
  0
APPID
  5
3A8
330
9
100
AcDbSymbolTableRecord
100
AcDbRegAppTableRecord
  2
ACAD_EXEMPT_FROM_CAD_STANDARDS
 70
     0
  0
APPID
  5
433
330
9
100
AcDbSymbolTableRecord
100
AcDbRegAppTableRecord
  2
AcAecLayerStandard
 70
     0
  0
APPID
  5
471
330
9
100
AcDbSymbolTableRecord
100
AcDbRegAppTableRecord
  2
ACAD_MLEADERVER
 70
     0
  0
APPID
  5
47D
330
9
100
AcDbSymbolTableRecord
100
AcDbRegAppTableRecord
  2
MCAD_NO_VIS
 70
     0
  0
APPID
  5
47E
330
9
100
AcDbSymbolTableRecord
100
AcDbRegAppTableRecord
  2
ACAD_TEMP_GRAPHIC
 70
     0
  0
APPID
  5
4AC
330
9
100
AcDbSymbolTableRecord
100
AcDbRegAppTableRecord
  2
AD_DRAW
 70
     0
  0
APPID
  5
4AF
330
9
100
AcDbSymbolTableRecord
100
AcDbRegAppTableRecord
  2
ACATTRIBSERVICES
 70
     0
  0
APPID
  5
4D0
330
9
100
AcDbSymbolTableRecord
100
AcDbRegAppTableRecord
  2
DESIGNERASSEMBLIES
 70
     0
  0
APPID
  5
4D6
330
9
100
AcDbSymbolTableRecord
100
AcDbRegAppTableRecord
  2
ACADM_DIM_EDIT
 70
     0
  0
APPID
  5
4D7
330
9
100
AcDbSymbolTableRecord
100
AcDbRegAppTableRecord
  2
AMDT_DM_ADJ
 70
     0
  0
APPID
  5
5CD
330
9
100
AcDbSymbolTableRecord
100
AcDbRegAppTableRecord
  2
AcDbAttr
 70
     0
  0
APPID
  5
5CE
330
9
100
AcDbSymbolTableRecord
100
AcDbRegAppTableRecord
  2
ACAUTHENVIRON
 70
     0
  0
APPID
  5
5CF
330
9
100
AcDbSymbolTableRecord
100
AcDbRegAppTableRecord
  2
AcDbDynamicBlockTrueName
 70
     0
  0
APPID
  5
5D0
330
9
100
AcDbSymbolTableRecord
100
AcDbRegAppTableRecord
  2
ACDBBLOCKREPETAG
 70
     0
  0
APPID
  5
723
330
9
100
AcDbSymbolTableRecord
100
AcDbRegAppTableRecord
  2
GENIUS_GENTRA_14
 70
     0
  0
APPID
  5
752
330
9
100
AcDbSymbolTableRecord
100
AcDbRegAppTableRecord
  2
GENIUS_GENOENT_13
 70
     0
  0
APPID
  5
753
330
9
100
AcDbSymbolTableRecord
100
AcDbRegAppTableRecord
  2
GENIUS_GENOBJ-N-TIT_13
 70
     0
  0
APPID
  5
754
330
9
100
AcDbSymbolTableRecord
100
AcDbRegAppTableRecord
  2
GENIUS_GENODEF_13
 70
     0
  0
APPID
  5
755
330
9
100
AcDbSymbolTableRecord
100
AcDbRegAppTableRecord
  2
GENIUS_GENOLIS_13
 70
     0
  0
APPID
  5
756
330
9
100
AcDbSymbolTableRecord
100
AcDbRegAppTableRecord
  2
GENIUS_GENTITLE_13
 70
     0
  0
APPID
  5
757
330
9
100
AcDbSymbolTableRecord
100
AcDbRegAppTableRecord
  2
GENIUS_GENOREF_13
 70
     0
  0
APPID
  5
75E
330
9
100
AcDbSymbolTableRecord
100
AcDbRegAppTableRecord
  2
GENIUS_GENSCREG_15
 70
     0
  0
APPID
  5
75F
330
9
100
AcDbSymbolTableRecord
100
AcDbRegAppTableRecord
  2
GENIUS_GENOBJ-N-SDF_13
 70
     0
  0
APPID
  5
7BE
330
9
100
AcDbSymbolTableRecord
100
AcDbRegAppTableRecord
  2
AcadAnnoPO
 70
     0
  0
APPID
  5
7BF
330
9
100
AcDbSymbolTableRecord
100
AcDbRegAppTableRecord
  2
ACAD_DSTYLE_DIMJAG
 70
     0
  0
APPID
  5
7C0
330
9
100
AcDbSymbolTableRecord
100
AcDbRegAppTableRecord
  2
ACAD_DSTYLE_DIMTALN
 70
     0
  0
APPID
  5
A53
330
9
100
AcDbSymbolTableRecord
100
AcDbRegAppTableRecord
  2
ACAD_DSTYLE_DIMARC_LENGTH_SYMBOL
 70
     0
  0
APPID
  5
A65
330
9
100
AcDbSymbolTableRecord
100
AcDbRegAppTableRecord
  2
ACAD_DSTYLE_DIMJOGGED_JOGANGLE_SYMBOL
 70
     0
  0
APPID
  5
CCE
330
9
100
AcDbSymbolTableRecord
100
AcDbRegAppTableRecord
  2
ACAD_DSTYLE_DIMBREAK
 70
     0
  0
APPID
  5
D24
330
9
100
AcDbSymbolTableRecord
100
AcDbRegAppTableRecord
  2
ACAD_NAV_VCDISPLAY
 70
     0
  0
APPID
  5
D4A
330
9
100
AcDbSymbolTableRecord
100
AcDbRegAppTableRecord
  2
GENIUS_GENREC_14
 70
     0
  0
APPID
  5
D4B
330
9
100
AcDbSymbolTableRecord
100
AcDbRegAppTableRecord
  2
GENIUS_GENOBJ-N-REC_13
 70
     0
  0
APPID
  5
DC9
330
9
100
AcDbSymbolTableRecord
100
AcDbRegAppTableRecord
  2
ACAD_DSTYLE_DIMRADIAL_EXTENSION
 70
     0
  0
APPID
  5
253F
330
9
100
AcDbSymbolTableRecord
100
AcDbRegAppTableRecord
  2
ACAD_DSTYLE_DIMFLIPARROW_WHICH_SYMBOL
 70
     0
  0
APPID
  5
2540
330
9
100
AcDbSymbolTableRecord
100
AcDbRegAppTableRecord
  2
ACAD_DSTYLE_DIM_LINETYPE
 70
     0
  0
APPID
  5
2541
330
9
100
AcDbSymbolTableRecord
100
AcDbRegAppTableRecord
  2
ACAD_DSTYLE_DIM_EXT1_LINETYPE
 70
     0
  0
APPID
  5
2542
330
9
100
AcDbSymbolTableRecord
100
AcDbRegAppTableRecord
  2
ACAD_DSTYLE_DIM_EXT2_LINETYPE
 70
     0
  0
ENDTAB
  0
TABLE
  2
DIMSTYLE
  5
A
330
0
100
AcDbSymbolTable
 70
    15
100
AcDbDimStyleTable
 71
     4
340
4FC
340
3F
340
501
340
506
  0
DIMSTYLE
105
3F
330
A
100
AcDbSymbolTableRecord
100
AcDbDimStyleTableRecord
  2
STANDARD
 70
     0
 41
5.0
 42
1.0
 43
15.0
 44
2.0
 48
0.000000001
 73
     0
 74
     0
 77
     1
 78
     9
 79
     2
140
3.5
143
0.0393700787401575
147
2.299999999999998
171
     3
172
     1
271
     2
272
     2
273
     3
274
     3
284
     8
285
    11
286
     8
340
7DE
1001
ACAD_DSTYLE_DIMJAG
1070
   388
1040
1.5
1001
ACAD_DSTYLE_DIMTALN
1070
   392
1070
     0
1001
ACAD_DSTYLE_DIMARC_LENGTH_SYMBOL
1070
   379
1070
     1
1001
ACAD_DSTYLE_DIMJOGGED_JOGANGLE_SYMBOL
1070
   384
1040
1.570796326794896
  0
DIMSTYLE
105
4FC
102
{ACAD_REACTORS
330
21CC
330
21CF
330
21D2
330
21D5
330
21D8
330
21DB
330
21E1
330
21E4
330
21E7
102
}
330
A
100
AcDbSymbolTableRecord
100
AcDbDimStyleTableRecord
  2
AM_DIN
 70
     0
 41
2.5
 42
1.0
 43
15.0
 44
2.0
 48
0.000000001
 73
     0
 74
     0
 77
     1
 79
     2
140
3.5
143
0.0393701
146
0.7071069999999999
147
1.0
171
     3
172
     1
271
     1
272
     2
273
     3
274
     3
285
    11
286
     8
340
7DE
371
    -1
372
    -1
1001
ACAD_DSTYLE_DIMJAG
1070
   388
1040
1.5
1001
ACAD_DSTYLE_DIMTALN
1070
   392
1070
     0
1001
ACAD_DSTYLE_DIMARC_LENGTH_SYMBOL
1070
   379
1070
     1
1001
ACAD_DSTYLE_DIMJOGGED_JOGANGLE_SYMBOL
1070
   384
1040
1.570796326794896
  0
DIMSTYLE
105
4FD
330
A
100
AcDbSymbolTableRecord
100
AcDbDimStyleTableRecord
  2
AM_DIN$3
 70
     0
 41
2.5
 42
1.0
 43
10.0
 44
2.0
 48
0.000000001
 73
     0
 77
     1
 78
     8
 79
     2
140
3.5
143
0.0393701
146
0.7071069999999999
147
1.0
171
     3
271
     2
272
     3
273
     3
274
     4
284
     8
285
    11
286
     8
288
     1
289
     0
340
7DE
371
    -1
372
    -1
1001
ACAD_DSTYLE_DIMBREAK
1070
   391
1040
3.75
1001
ACAD_DSTYLE_DIMJAG
1070
   388
1040
1.5
1001
ACAD_DSTYLE_DIMTALN
1070
   392
1070
     0
1001
ACAD_DSTYLE_DIMARC_LENGTH_SYMBOL
1070
   379
1070
     1
1001
ACAD_DSTYLE_DIMJOGGED_JOGANGLE_SYMBOL
1070
   384
1040
1.570796326794896
  0
DIMSTYLE
105
4FE
330
A
100
AcDbSymbolTableRecord
100
AcDbDimStyleTableRecord
  2
AM_DIN$4
 70
     0
 41
2.5
 42
1.0
 43
10.0
 44
2.0
 48
0.000000001
 73
     0
 77
     1
 78
     8
 79
     2
140
3.5
143
0.0393701
146
0.7071069999999999
147
1.0
171
     3
271
     2
272
     3
273
     3
274
     4
284
     8
285
    11
286
     8
288
     1
289
     0
340
7DE
371
    -1
372
    -1
1001
ACAD_DSTYLE_DIMBREAK
1070
   391
1040
3.75
1001
ACAD_DSTYLE_DIMJAG
1070
   388
1040
1.5
1001
ACAD_DSTYLE_DIMTALN
1070
   392
1070
     0
1001
ACAD_DSTYLE_DIMARC_LENGTH_SYMBOL
1070
   379
1070
     1
1001
ACAD_DSTYLE_DIMJOGGED_JOGANGLE_SYMBOL
1070
   384
1040
1.570796326794896
  0
DIMSTYLE
105
4FF
330
A
100
AcDbSymbolTableRecord
100
AcDbDimStyleTableRecord
  2
AM_DIN$6
 70
     0
 41
2.5
 42
1.0
 43
10.0
 44
2.0
 48
0.000000001
 73
     0
 74
     0
 78
     8
 79
     2
140
3.5
143
0.0393701
146
0.7071069999999999
147
1.0
171
     3
172
     1
271
     2
272
     2
273
     3
274
     3
284
     8
285
    11
286
     8
340
7DE
371
    -1
372
    -1
1001
ACAD_DSTYLE_DIMBREAK
1070
   391
1040
3.75
1001
ACAD_DSTYLE_DIMJAG
1070
   388
1040
1.5
1001
ACAD_DSTYLE_DIMTALN
1070
   392
1070
     0
1001
ACAD_DSTYLE_DIMARC_LENGTH_SYMBOL
1070
   379
1070
     1
1001
ACAD_DSTYLE_DIMJOGGED_JOGANGLE_SYMBOL
1070
   384
1040
1.570796326794896
  0
DIMSTYLE
105
500
330
A
100
AcDbSymbolTableRecord
100
AcDbDimStyleTableRecord
  2
AM_DIN$7
 70
     0
 41
2.5
 42
1.0
 43
10.0
 44
2.0
 48
0.000000001
 73
     0
 74
     0
 77
     1
 78
     8
 79
     2
140
5.0
143
0.0393701
146
0.7071069999999999
147
1.0
171
     3
172
     1
271
     2
272
     3
273
     3
274
     4
284
     8
285
    11
286
     8
340
7DE
371
    -1
372
    -1
1001
ACAD_DSTYLE_DIMBREAK
1070
   391
1040
3.75
1001
ACAD_DSTYLE_DIMJAG
1070
   388
1040
1.5
1001
ACAD_DSTYLE_DIMTALN
1070
   392
1070
     0
1001
ACAD_DSTYLE_DIMARC_LENGTH_SYMBOL
1070
   379
1070
     1
1001
ACAD_DSTYLE_DIMJOGGED_JOGANGLE_SYMBOL
1070
   384
1040
1.570796326794896
  0
DIMSTYLE
105
501
330
A
100
AcDbSymbolTableRecord
100
AcDbDimStyleTableRecord
  2
AM_DIN$SF
 70
     0
 41
2.5
 42
1.0
 43
10.0
 44
2.0
 48
0.000000001
 73
     0
 74
     0
 75
     1
 76
     1
 77
     1
 78
     8
 79
     2
140
3.5
143
0.0393701
146
0.7071069999999999
147
1.0
171
     3
172
     1
271
     2
272
     2
273
     3
274
     3
284
     8
285
    11
286
     8
340
7DE
371
    -1
372
    -1
1001
ACAD_DSTYLE_DIMBREAK
1070
   391
1040
3.75
1001
ACAD_DSTYLE_DIMJAG
1070
   388
1040
1.5
1001
ACAD_DSTYLE_DIMTALN
1070
   392
1070
     0
1001
ACAD_DSTYLE_DIMARC_LENGTH_SYMBOL
1070
   379
1070
     1
1001
ACAD_DSTYLE_DIMJOGGED_JOGANGLE_SYMBOL
1070
   384
1040
1.570796326794896
  0
DIMSTYLE
105
506
330
A
100
AcDbSymbolTableRecord
100
AcDbDimStyleTableRecord
  2
AM_DIN$SH
 70
     0
 41
2.5
 42
1.0
 43
10.0
 44
2.0
 48
0.000000001
 73
     0
 74
     0
 75
     1
 76
     1
 77
     1
 78
     8
 79
     2
140
3.5
143
0.0393701
144
2.0
146
0.7071069999999999
147
1.0
171
     3
172
     1
271
     2
272
     2
273
     3
274
     3
284
     8
285
    11
286
     8
340
7DE
371
    -1
372
    -1
1001
ACAD_DSTYLE_DIMBREAK
1070
   391
1040
3.75
1001
ACAD_DSTYLE_DIMJAG
1070
   388
1040
1.5
1001
ACAD_DSTYLE_DIMTALN
1070
   392
1070
     0
1001
ACAD_DSTYLE_DIMARC_LENGTH_SYMBOL
1070
   379
1070
     1
1001
ACAD_DSTYLE_DIMJOGGED_JOGANGLE_SYMBOL
1070
   384
1040
1.570796326794896
  0
DIMSTYLE
105
147D
330
A
100
AcDbSymbolTableRecord
100
AcDbDimStyleTableRecord
  2
AM_ISO
 70
     0
  4
"
 41
3.5
 42
1.0
 43
10.0
 44
1.0
 47
0.1
 48
0.1
 73
     0
 74
     0
 77
     1
 78
     8
 79
     2
140
3.5
141
0.0
143
0.0393701
146
0.71
147
1.5
172
     1
176
   256
177
   256
178
     2
271
     2
272
     3
274
     4
283
     0
284
     8
340
10
371
    -1
372
    -1
1001
ACAD_DSTYLE_DIMJAG
1070
   388
1040
1.5
1001
ACAD_DSTYLE_DIMBREAK
1070
   391
1040
3.75
1001
ACAD_DSTYLE_DIMARC_LENGTH_SYMBOL
1070
   379
1070
     1
1001
ACAD_DSTYLE_DIM_LINETYPE
1070
   380
1005
12
1001
ACAD_DSTYLE_DIM_EXT1_LINETYPE
1070
   381
1005
12
1001
ACAD_DSTYLE_DIM_EXT2_LINETYPE
1070
   382
1005
12
  0
DIMSTYLE
105
147E
330
A
100
AcDbSymbolTableRecord
100
AcDbDimStyleTableRecord
  2
AM_ISO$3
 70
     0
  4
"
 41
3.5
 42
1.0
 43
10.0
 44
1.0
 47
0.1
 48
0.1
 73
     0
 77
     1
 78
     8
 79
     2
140
3.5
141
0.0
143
0.0393701
146
0.71
147
1.5
176
   256
177
   256
178
     2
271
     2
272
     3
274
     4
283
     0
284
     8
288
     1
289
     0
340
10
371
    -1
372
    -1
1001
ACAD_DSTYLE_DIMBREAK
1070
   391
1040
3.75
1001
ACAD_DSTYLE_DIMJAG
1070
   388
1040
1.5
1001
ACAD_DSTYLE_DIMARC_LENGTH_SYMBOL
1070
   379
1070
     1
1001
ACAD_DSTYLE_DIM_LINETYPE
1070
   380
1005
12
1001
ACAD_DSTYLE_DIM_EXT1_LINETYPE
1070
   381
1005
12
1001
ACAD_DSTYLE_DIM_EXT2_LINETYPE
1070
   382
1005
12
  0
DIMSTYLE
105
147F
330
A
100
AcDbSymbolTableRecord
100
AcDbDimStyleTableRecord
  2
AM_ISO$4
 70
     0
  4
"
 41
3.5
 42
1.0
 43
10.0
 44
1.0
 47
0.1
 48
0.1
 73
     0
 77
     1
 78
     8
 79
     2
140
3.5
141
0.0
143
0.0393701
146
0.71
147
1.5
176
   256
177
   256
178
     2
271
     2
272
     3
274
     4
283
     0
284
     8
288
     1
289
     0
340
10
371
    -1
372
    -1
1001
ACAD_DSTYLE_DIMBREAK
1070
   391
1040
3.75
1001
ACAD_DSTYLE_DIMJAG
1070
   388
1040
1.5
1001
ACAD_DSTYLE_DIMARC_LENGTH_SYMBOL
1070
   379
1070
     1
1001
ACAD_DSTYLE_DIM_LINETYPE
1070
   380
1005
12
1001
ACAD_DSTYLE_DIM_EXT1_LINETYPE
1070
   381
1005
12
1001
ACAD_DSTYLE_DIM_EXT2_LINETYPE
1070
   382
1005
12
  0
DIMSTYLE
105
1480
330
A
100
AcDbSymbolTableRecord
100
AcDbDimStyleTableRecord
  2
AM_ISO$6
 70
     0
  4
"
 41
3.5
 42
1.0
 43
10.0
 44
1.0
 47
0.1
 48
0.1
 73
     0
 74
     0
 78
     8
 79
     2
140
3.5
141
0.0
143
0.0393701
146
0.71
147
1.5
172
     1
176
   256
177
   256
178
     2
271
     2
272
     3
274
     4
283
     0
284
     8
340
10
371
    -1
372
    -1
1001
ACAD_DSTYLE_DIMBREAK
1070
   391
1040
3.75
1001
ACAD_DSTYLE_DIMJAG
1070
   388
1040
1.5
1001
ACAD_DSTYLE_DIMARC_LENGTH_SYMBOL
1070
   379
1070
     1
1001
ACAD_DSTYLE_DIM_LINETYPE
1070
   380
1005
12
1001
ACAD_DSTYLE_DIM_EXT1_LINETYPE
1070
   381
1005
12
1001
ACAD_DSTYLE_DIM_EXT2_LINETYPE
1070
   382
1005
12
  0
DIMSTYLE
105
1481
330
A
100
AcDbSymbolTableRecord
100
AcDbDimStyleTableRecord
  2
AM_ISO$7
 70
     0
  4
"
 41
3.5
 42
1.0
 43
10.0
 44
1.0
 47
0.1
 48
0.1
 73
     0
 74
     0
 77
     1
 78
     8
 79
     2
140
3.5
141
0.0
143
0.0393701
146
0.71
147
1.5
172
     1
176
   256
177
   256
178
     2
271
     2
272
     3
274
     4
283
     0
284
     8
340
10
371
    -1
372
    -1
1001
ACAD_DSTYLE_DIMBREAK
1070
   391
1040
3.75
1001
ACAD_DSTYLE_DIMJAG
1070
   388
1040
1.5
1001
ACAD_DSTYLE_DIMARC_LENGTH_SYMBOL
1070
   379
1070
     1
1001
ACAD_DSTYLE_DIM_LINETYPE
1070
   380
1005
12
1001
ACAD_DSTYLE_DIM_EXT1_LINETYPE
1070
   381
1005
12
1001
ACAD_DSTYLE_DIM_EXT2_LINETYPE
1070
   382
1005
12
  0
DIMSTYLE
105
1482
330
A
100
AcDbSymbolTableRecord
100
AcDbDimStyleTableRecord
  2
AM_ISO$SF
 70
     0
  4
"
 41
3.5
 42
1.0
 43
10.0
 44
1.0
 47
0.1
 48
0.1
 73
     0
 74
     0
 75
     1
 76
     1
 77
     1
 78
     8
 79
     2
140
3.5
141
0.0
143
0.0393701
146
0.71
147
1.5
172
     1
176
   256
177
   256
178
     2
271
     2
272
     3
274
     4
283
     0
284
     8
340
10
371
    -1
372
    -1
1001
ACAD_DSTYLE_DIMBREAK
1070
   391
1040
3.75
1001
ACAD_DSTYLE_DIMJAG
1070
   388
1040
1.5
1001
ACAD_DSTYLE_DIMARC_LENGTH_SYMBOL
1070
   379
1070
     1
1001
ACAD_DSTYLE_DIM_LINETYPE
1070
   380
1005
12
1001
ACAD_DSTYLE_DIM_EXT1_LINETYPE
1070
   381
1005
12
1001
ACAD_DSTYLE_DIM_EXT2_LINETYPE
1070
   382
1005
12
  0
DIMSTYLE
105
1483
330
A
100
AcDbSymbolTableRecord
100
AcDbDimStyleTableRecord
  2
AM_ISO$SH
 70
     0
  4
"
 41
3.5
 42
1.0
 43
10.0
 44
1.0
 47
0.1
 48
0.1
 73
     0
 74
     0
 75
     1
 76
     1
 77
     1
 78
     8
 79
     2
140
3.5
141
0.0
143
0.0393701
144
2.0
146
0.71
147
1.5
172
     1
173
     1
176
   256
177
   256
178
     2
271
     2
272
     3
274
     4
283
     0
284
     8
340
10
343
146A
371
    -1
372
    -1
1001
ACAD_DSTYLE_DIMBREAK
1070
   391
1040
3.75
1001
ACAD_DSTYLE_DIMJAG
1070
   388
1040
1.5
1001
ACAD_DSTYLE_DIMARC_LENGTH_SYMBOL
1070
   379
1070
     1
1001
ACAD_DSTYLE_DIM_LINETYPE
1070
   380
1005
12
1001
ACAD_DSTYLE_DIM_EXT1_LINETYPE
1070
   381
1005
12
1001
ACAD_DSTYLE_DIM_EXT2_LINETYPE
1070
   382
1005
12
  0
ENDTAB
  0
TABLE
  2
BLOCK_RECORD
  5
1
330
0
100
AcDbSymbolTable
 70
    12
  0
BLOCK_RECORD
  5
18
102
{ACAD_XDICTIONARY
360
DB1
102
}
330
1
100
AcDbSymbolTableRecord
100
AcDbBlockTableRecord
  2
*MODEL_SPACE
340
303
  0
BLOCK_RECORD
  5
B56
330
1
100
AcDbSymbolTableRecord
100
AcDbBlockTableRecord
  2
*Paper_Space
340
B57
  0
BLOCK_RECORD
  5
D0B
330
1
100
AcDbSymbolTableRecord
100
AcDbBlockTableRecord
  2
_ACMFILLED15
340
0
  0
BLOCK_RECORD
  5
D16
330
1
100
AcDbSymbolTableRecord
100
AcDbBlockTableRecord
  2
_ACMFILLED30
340
0
  0
BLOCK_RECORD
  5
146A
330
1
100
AcDbSymbolTableRecord
100
AcDbBlockTableRecord
  2
GENAXEH
340
0
  0
BLOCK_RECORD
  5
21EA
330
1
100
AcDbSymbolTableRecord
100
AcDbBlockTableRecord
  2
*D3
340
0
  0
BLOCK_RECORD
  5
21FB
330
1
100
AcDbSymbolTableRecord
100
AcDbBlockTableRecord
  2
*D4
340
0
  0
BLOCK_RECORD
  5
2208
330
1
100
AcDbSymbolTableRecord
100
AcDbBlockTableRecord
  2
*D5
340
0
  0
BLOCK_RECORD
  5
2214
330
1
100
AcDbSymbolTableRecord
100
AcDbBlockTableRecord
  2
*D6
340
0
  0
BLOCK_RECORD
  5
2220
330
1
100
AcDbSymbolTableRecord
100
AcDbBlockTableRecord
  2
*D7
340
0
  0
BLOCK_RECORD
  5
2231
330
1
100
AcDbSymbolTableRecord
100
AcDbBlockTableRecord
  2
*D8
340
0
  0
BLOCK_RECORD
  5
2251
330
1
100
AcDbSymbolTableRecord
100
AcDbBlockTableRecord
  2
*D9
340
0
  0
BLOCK_RECORD
  5
225D
330
1
100
AcDbSymbolTableRecord
100
AcDbBlockTableRecord
  2
*D10
340
0
  0
BLOCK_RECORD
  5
226E
330
1
100
AcDbSymbolTableRecord
100
AcDbBlockTableRecord
  2
*D11
340
0
  0
ENDTAB
  0
ENDSEC
  0
SECTION
  2
BLOCKS
  0
BLOCK
  5
32
330
18
100
AcDbEntity
  8
0
100
AcDbBlockBegin
  2
*MODEL_SPACE
 70
     0
 10
0.0
 20
0.0
 30
0.0
  3
*MODEL_SPACE
  1

  0
ENDBLK
  5
33
330
18
100
AcDbEntity
  8
0
100
AcDbBlockEnd
  0
BLOCK
  5
B58
330
B56
100
AcDbEntity
 67
     1
  8
0
100
AcDbBlockBegin
  2
*Paper_Space
 70
     0
 10
0.0
 20
0.0
 30
0.0
  3
*Paper_Space
  1

  0
ENDBLK
  5
B59
330
B56
100
AcDbEntity
 67
     1
  8
0
100
AcDbBlockEnd
  0
BLOCK
  5
D0D
330
D0B
100
AcDbEntity
  8
0
100
AcDbBlockBegin
  2
_ACMFILLED15
 70
     0
 10
0.0
 20
0.0
 30
0.0
  3
_ACMFILLED15
  1

  0
TRACE
  5
D0C
330
D0B
100
AcDbEntity
  8
1
 62
     0
100
AcDbTrace
 10
-1.0
 20
-0.131652497
 30
0.0
 11
-1.0
 21
0.131652497
 31
0.0
 12
0.0
 22
0.0
 32
0.0
 13
0.0
 23
0.0
 33
0.0
  0
ENDBLK
  5
D0E
330
D0B
100
AcDbEntity
  8
0
100
AcDbBlockEnd
  0
BLOCK
  5
D18
330
D16
100
AcDbEntity
  8
0
100
AcDbBlockBegin
  2
_ACMFILLED30
 70
     0
 10
0.0
 20
0.0
 30
0.0
  3
_ACMFILLED30
  1

  0
TRACE
  5
D17
330
D16
100
AcDbEntity
  8
1
 62
     0
100
AcDbTrace
 10
-1.0
 20
-0.26794919
 30
0.0
 11
-1.0
 21
0.26794919
 31
0.0
 12
0.0
 22
0.0
 32
0.0
 13
0.0
 23
0.0
 33
0.0
  0
ENDBLK
  5
D19
330
D16
100
AcDbEntity
  8
0
100
AcDbBlockEnd
  0
BLOCK
  5
146B
330
146A
100
AcDbEntity
  8
0
100
AcDbBlockBegin
  2
GENAXEH
 70
     0
 10
0.0
 20
0.0
 30
0.0
  3
GENAXEH
  1

  0
LINE
  5
146C
330
146A
100
AcDbEntity
  8
0
100
AcDbLine
 10
-1.0
 20
0.0
 30
0.0
 11
1.0
 21
0.0
 31
0.0
  0
ENDBLK
  5
146D
330
146A
100
AcDbEntity
  8
0
100
AcDbBlockEnd
  0
BLOCK
  5
21EB
330
21EA
100
AcDbEntity
  8
0
100
AcDbBlockBegin
  2
*D3
 70
     1
 10
0.0
 20
0.0
 30
0.0
  3
*D3
  1

  0
LINE
  5
28CC
330
21EA
100
AcDbEntity
  8
2
 62
     0
100
AcDbLine
 10
87.7071176645
 20
11.09899999999999
 30
0.0
 11
87.7071176645
 21
32.0
 31
0.0
  0
LINE
  5
28CD
330
21EA
100
AcDbEntity
  8
2
 62
     0
100
AcDbLine
 10
95.0
 20
8.800000000000013
 30
0.0
 11
95.0
 21
32.0
 31
0.0
  0
LINE
  5
28CE
330
21EA
100
AcDbEntity
  8
2
 62
     0
100
AcDbLine
 10
90.2071176645
 20
30.0
 30
0.0
 11
92.5
 21
30.0
 31
0.0
  0
LINE
  5
28CF
330
21EA
100
AcDbEntity
  8
2
 62
     0
100
AcDbLine
 10
95.0
 20
30.0
 30
0.0
 11
113.4912078706957
 21
30.0
 31
0.0
  0
SOLID
  5
28D0
330
21EA
100
AcDbEntity
  8
2
 62
     0
100
AcDbTrace
 10
85.2071176645
 20
30.41666666666667
 30
0.0
 11
85.2071176645
 21
29.58333333333333
 31
0.0
 12
87.7071176645
 22
30.0
 32
0.0
 13
87.7071176645
 23
30.0
 33
0.0
  0
LINE
  5
28D1
330
21EA
100
AcDbEntity
  8
2
 62
     0
100
AcDbLine
 10
85.2071176645
 20
30.0
 30
0.0
 11
82.7071176645
 21
30.0
 31
0.0
  0
LINE
  5
28D2
330
21EA
100
AcDbEntity
  8
2
 62
     0
100
AcDbLine
 10
87.7071176645
 20
30.0
 30
0.0
 11
90.2071176645
 21
30.0
 31
0.0
  0
SOLID
  5
28D3
330
21EA
100
AcDbEntity
  8
2
 62
     0
100
AcDbTrace
 10
97.5
 20
30.41666666666667
 30
0.0
 11
97.5
 21
29.58333333333333
 31
0.0
 12
95.0
 22
30.0
 32
0.0
 13
95.0
 23
30.0
 33
0.0
  0
LINE
  5
28D4
330
21EA
100
AcDbEntity
  8
2
 62
     0
100
AcDbLine
 10
97.5
 20
30.0
 30
0.0
 11
100.0
 21
30.0
 31
0.0
  0
LINE
  5
28D5
330
21EA
100
AcDbEntity
  8
2
 62
     0
100
AcDbLine
 10
95.0
 20
30.0
 30
0.0
 11
92.5
 21
30.0
 31
0.0
  0
MTEXT
  5
28D6
330
21EA
100
AcDbEntity
  8
2
 62
     0
100
AcDbMText
 10
106.7456
 20
35.7711993441087
 30
0.0
 40
3.5
 41
0.0
 71
     5
 72
     1
  1
\A1;7.29\P'C'
  7
STANDARD 3.5 mm
 73
     1
 44
1.0
  0
POINT
  5
28D7
330
21EA
100
AcDbEntity
  8
DEFPOINTS
 62
     0
100
AcDbPoint
 10
87.7071176645
 20
10.09899999999999
 30
0.0
  0
POINT
  5
28D8
330
21EA
100
AcDbEntity
  8
DEFPOINTS
 62
     0
100
AcDbPoint
 10
95.0
 20
7.800000000000013
 30
0.0
  0
POINT
  5
28D9
330
21EA
100
AcDbEntity
  8
DEFPOINTS
 62
     0
100
AcDbPoint
 10
95.0
 20
30.0
 30
0.0
  0
ENDBLK
  5
21EC
330
21EA
100
AcDbEntity
  8
0
100
AcDbBlockEnd
  0
BLOCK
  5
21FC
330
21FB
100
AcDbEntity
  8
0
100
AcDbBlockBegin
  2
*D4
 70
     1
 10
0.0
 20
0.0
 30
0.0
  3
*D4
  1

  0
LINE
  5
285C
330
21FB
100
AcDbEntity
  8
2
 62
     0
100
AcDbLine
 10
63.0
 20
11.09899999999999
 30
0.0
 11
63.0
 21
46.99999999999999
 31
0.0
  0
LINE
  5
285D
330
21FB
100
AcDbEntity
  8
2
 62
     0
100
AcDbLine
 10
95.0
 20
8.800000000000013
 30
0.0
 11
95.0
 21
46.99999999999999
 31
0.0
  0
LINE
  5
285E
330
21FB
100
AcDbEntity
  8
2
 62
     0
100
AcDbLine
 10
65.5
 20
44.99999999999999
 30
0.0
 11
92.5
 21
44.99999999999999
 31
0.0
  0
LINE
  5
285F
330
21FB
100
AcDbEntity
  8
2
 62
     0
100
AcDbLine
 10
95.0
 20
44.99999999999999
 30
0.0
 11
108.0274068868587
 21
44.99999999999999
 31
0.0
  0
SOLID
  5
2860
330
21FB
100
AcDbEntity
  8
2
 62
     0
100
AcDbTrace
 10
65.5
 20
45.41666666666666
 30
0.0
 11
65.5
 21
44.58333333333333
 31
0.0
 12
63.0
 22
44.99999999999999
 32
0.0
 13
63.0
 23
44.99999999999999
 33
0.0
  0
SOLID
  5
2861
330
21FB
100
AcDbEntity
  8
2
 62
     0
100
AcDbTrace
 10
92.5
 20
45.41666666666666
 30
0.0
 11
92.5
 21
44.58333333333333
 31
0.0
 12
95.0
 22
44.99999999999999
 32
0.0
 13
95.0
 23
44.99999999999999
 33
0.0
  0
MTEXT
  5
2862
330
21FB
100
AcDbEntity
  8
2
 62
     0
100
AcDbMText
 10
104.2886507378777
 20
47.81148981026
 30
0.0
 40
3.5
 41
0.0
 71
     5
 72
     1
  1
\A1;32
  7
STANDARD 3.5 mm
 73
     1
 44
1.0
1001
ACAD
1000
MTEXTBEGIN
1070
    73
1070
     1
1070
    44
1040
1.0
1070
    74
1070
     0
1000
MTEXTEND
  0
POINT
  5
2863
330
21FB
100
AcDbEntity
  8
DEFPOINTS
 62
     0
100
AcDbPoint
 10
63.0
 20
10.09899999999999
 30
0.0
  0
POINT
  5
2864
330
21FB
100
AcDbEntity
  8
DEFPOINTS
 62
     0
100
AcDbPoint
 10
95.0
 20
7.800000000000013
 30
0.0
  0
POINT
  5
2865
330
21FB
100
AcDbEntity
  8
DEFPOINTS
 62
     0
100
AcDbPoint
 10
95.0
 20
44.99999999999999
 30
0.0
  0
ENDBLK
  5
21FD
330
21FB
100
AcDbEntity
  8
0
100
AcDbBlockEnd
  0
BLOCK
  5
2209
330
2208
100
AcDbEntity
  8
0
100
AcDbBlockBegin
  2
*D5
 70
     1
 10
0.0
 20
0.0
 30
0.0
  3
*D5
  1

  0
LINE
  5
2853
330
2208
100
AcDbEntity
  8
2
 62
     0
100
AcDbLine
 10
18.0
 20
8.75
 30
0.0
 11
18.0
 21
62.0
 31
0.0
  0
LINE
  5
2854
330
2208
100
AcDbEntity
  8
2
 62
     0
100
AcDbLine
 10
95.0
 20
8.75
 30
0.0
 11
95.0
 21
62.0
 31
0.0
  0
LINE
  5
2855
330
2208
100
AcDbEntity
  8
2
 62
     0
100
AcDbLine
 10
20.5
 20
60.0
 30
0.0
 11
92.5
 21
60.0
 31
0.0
  0
SOLID
  5
2856
330
2208
100
AcDbEntity
  8
2
 62
     0
100
AcDbTrace
 10
20.5
 20
60.41666666666666
 30
0.0
 11
20.5
 21
59.58333333333333
 31
0.0
 12
18.0
 22
60.0
 32
0.0
 13
18.0
 23
60.0
 33
0.0
  0
SOLID
  5
2857
330
2208
100
AcDbEntity
  8
2
 62
     0
100
AcDbTrace
 10
92.5
 20
60.41666666666666
 30
0.0
 11
92.5
 21
59.58333333333333
 31
0.0
 12
95.0
 22
60.0
 32
0.0
 13
95.0
 23
60.0
 33
0.0
  0
MTEXT
  5
2858
330
2208
100
AcDbEntity
  8
2
 62
     0
100
AcDbMText
 10
56.5
 20
62.75
 30
0.0
 40
3.5
 41
0.0
 71
     5
 72
     1
  1
\A1;77
  7
STANDARD 3.5 mm
 73
     1
 44
1.0
1001
ACAD
1000
MTEXTBEGIN
1070
    73
1070
     1
1070
    44
1040
1.0
1070
    74
1070
     0
1000
MTEXTEND
  0
POINT
  5
2859
330
2208
100
AcDbEntity
  8
DEFPOINTS
 62
     0
100
AcDbPoint
 10
18.0
 20
7.75
 30
0.0
  0
POINT
  5
285A
330
2208
100
AcDbEntity
  8
DEFPOINTS
 62
     0
100
AcDbPoint
 10
95.0
 20
7.75
 30
0.0
  0
POINT
  5
285B
330
2208
100
AcDbEntity
  8
DEFPOINTS
 62
     0
100
AcDbPoint
 10
95.0
 20
60.0
 30
0.0
  0
ENDBLK
  5
220A
330
2208
100
AcDbEntity
  8
0
100
AcDbBlockEnd
  0
BLOCK
  5
2215
330
2214
100
AcDbEntity
  8
0
100
AcDbBlockBegin
  2
*D6
 70
     1
 10
0.0
 20
0.0
 30
0.0
  3
*D6
  1

  0
LINE
  5
284A
330
2214
100
AcDbEntity
  8
2
 62
     0
100
AcDbLine
 10
0.0000000000000001
 20
1.0
 30
0.0
 11
0.0000000000000047
 21
77.0
 31
0.0
  0
LINE
  5
284B
330
2214
100
AcDbEntity
  8
2
 62
     0
100
AcDbLine
 10
95.0
 20
8.800000000000013
 30
0.0
 11
95.0
 21
77.0
 31
0.0
  0
LINE
  5
284C
330
2214
100
AcDbEntity
  8
2
 62
     0
100
AcDbLine
 10
2.500000000000004
 20
75.0
 30
0.0
 11
92.5
 21
75.0
 31
0.0
  0
SOLID
  5
284D
330
2214
100
AcDbEntity
  8
2
 62
     0
100
AcDbTrace
 10
2.500000000000004
 20
75.41666666666667
 30
0.0
 11
2.500000000000004
 21
74.58333333333333
 31
0.0
 12
0.0000000000000046
 22
75.0
 32
0.0
 13
0.0000000000000046
 23
75.0
 33
0.0
  0
SOLID
  5
284E
330
2214
100
AcDbEntity
  8
2
 62
     0
100
AcDbTrace
 10
92.5
 20
75.41666666666667
 30
0.0
 11
92.5
 21
74.58333333333333
 31
0.0
 12
95.0
 22
75.0
 32
0.0
 13
95.0
 23
75.0
 33
0.0
  0
MTEXT
  5
284F
330
2214
100
AcDbEntity
  8
2
 62
     0
100
AcDbMText
 10
47.5
 20
77.81148981026001
 30
0.0
 40
3.5
 41
0.0
 71
     5
 72
     1
  1
\A1;95
  7
STANDARD 3.5 mm
 73
     1
 44
1.0
1001
ACAD
1000
MTEXTBEGIN
1070
    73
1070
     1
1070
    44
1040
1.0
1070
    74
1070
     0
1000
MTEXTEND
  0
POINT
  5
2850
330
2214
100
AcDbEntity
  8
DEFPOINTS
 62
     0
100
AcDbPoint
 10
0.0
 20
0.0
 30
0.0
  0
POINT
  5
2851
330
2214
100
AcDbEntity
  8
DEFPOINTS
 62
     0
100
AcDbPoint
 10
95.0
 20
7.800000000000013
 30
0.0
  0
POINT
  5
2852
330
2214
100
AcDbEntity
  8
DEFPOINTS
 62
     0
100
AcDbPoint
 10
95.0
 20
75.0
 30
0.0
  0
ENDBLK
  5
2216
330
2214
100
AcDbEntity
  8
0
100
AcDbBlockEnd
  0
BLOCK
  5
2221
330
2220
100
AcDbEntity
  8
0
100
AcDbBlockBegin
  2
*D7
 70
     1
 10
0.0
 20
0.0
 30
0.0
  3
*D7
  1

  0
LINE
  5
28DA
330
2220
100
AcDbEntity
  8
2
 62
     0
100
AcDbLine
 10
95.20000000000003
 20
-8.599999999999983
 30
0.0
 11
137.0
 21
-8.599999999999976
 31
0.0
  0
LINE
  5
28DB
330
2220
100
AcDbEntity
  8
2
 62
     0
100
AcDbLine
 10
95.20000000000003
 20
8.599999999999983
 30
0.0
 11
137.0
 21
8.59999999999999
 31
0.0
  0
LINE
  5
28DC
330
2220
100
AcDbEntity
  8
2
 62
     0
100
AcDbLine
 10
135.0
 20
-6.099999999999976
 30
0.0
 11
135.0
 21
6.09999999999999
 31
0.0
  0
LINE
  5
28DD
330
2220
100
AcDbEntity
  8
2
 62
     0
100
AcDbLine
 10
135.0
 20
8.59999999999999
 30
0.0
 11
135.0
 21
30.28621314125093
 31
0.0
  0
SOLID
  5
28DE
330
2220
100
AcDbEntity
  8
2
 62
     0
100
AcDbTrace
 10
134.5833333333333
 20
-11.09999999999997
 30
0.0
 11
135.4166666666667
 21
-11.09999999999997
 31
0.0
 12
135.0
 22
-8.599999999999976
 32
0.0
 13
135.0
 23
-8.599999999999976
 33
0.0
  0
LINE
  5
28DF
330
2220
100
AcDbEntity
  8
2
 62
     0
100
AcDbLine
 10
135.0
 20
-11.09999999999997
 30
0.0
 11
135.0
 21
-13.59999999999998
 31
0.0
  0
LINE
  5
28E0
330
2220
100
AcDbEntity
  8
2
 62
     0
100
AcDbLine
 10
135.0
 20
-8.599999999999976
 30
0.0
 11
135.0
 21
-6.099999999999976
 31
0.0
  0
SOLID
  5
28E1
330
2220
100
AcDbEntity
  8
2
 62
     0
100
AcDbTrace
 10
134.5833333333333
 20
11.09999999999999
 30
0.0
 11
135.4166666666667
 21
11.09999999999999
 31
0.0
 12
135.0
 22
8.59999999999999
 32
0.0
 13
135.0
 23
8.59999999999999
 33
0.0
  0
LINE
  5
28E2
330
2220
100
AcDbEntity
  8
2
 62
     0
100
AcDbLine
 10
135.0
 20
11.09999999999999
 30
0.0
 11
135.0
 21
13.59999999999999
 31
0.0
  0
LINE
  5
28E3
330
2220
100
AcDbEntity
  8
2
 62
     0
100
AcDbLine
 10
135.0
 20
8.59999999999999
 30
0.0
 11
135.0
 21
6.09999999999999
 31
0.0
  0
MTEXT
  5
28E4
330
2220
100
AcDbEntity
  8
2
 62
     0
100
AcDbMText
 10
132.1368587491216
 20
21.94310000000001
 30
0.0
 40
3.5
 41
0.0
 71
     5
 72
     1
  1
\A1;%%C17.2
  7
STANDARD 3.5 mm
 11
0.0000000000000001
 21
1.0
 31
0.0
 73
     1
 44
1.0
  0
POINT
  5
28E5
330
2220
100
AcDbEntity
  8
DEFPOINTS
 62
     0
100
AcDbPoint
 10
94.20000000000003
 20
-8.599999999999983
 30
0.0
  0
POINT
  5
28E6
330
2220
100
AcDbEntity
  8
DEFPOINTS
 62
     0
100
AcDbPoint
 10
94.20000000000003
 20
8.599999999999983
 30
0.0
  0
POINT
  5
28E7
330
2220
100
AcDbEntity
  8
DEFPOINTS
 62
     0
100
AcDbPoint
 10
135.0
 20
8.59999999999999
 30
0.0
  0
ENDBLK
  5
2222
330
2220
100
AcDbEntity
  8
0
100
AcDbBlockEnd
  0
BLOCK
  5
2232
330
2231
100
AcDbEntity
  8
0
100
AcDbBlockBegin
  2
*D8
 70
     1
 10
0.0
 20
0.0
 30
0.0
  3
*D8
  1

  0
LINE
  5
28E8
330
2231
100
AcDbEntity
  8
2
 62
     0
100
AcDbLine
 10
88.70711766450003
 20
-10.09899999999999
 30
0.0
 11
152.0
 21
-10.09899999999998
 31
0.0
  0
LINE
  5
28E9
330
2231
100
AcDbEntity
  8
2
 62
     0
100
AcDbLine
 10
88.70711766450003
 20
10.09899999999999
 30
0.0
 11
152.0
 21
10.099
 31
0.0
  0
LINE
  5
28EA
330
2231
100
AcDbEntity
  8
2
 62
     0
100
AcDbLine
 10
150.0
 20
-7.598999999999984
 30
0.0
 11
150.0
 21
7.599000000000005
 31
0.0
  0
LINE
  5
28EB
330
2231
100
AcDbEntity
  8
2
 62
     0
100
AcDbLine
 10
150.0
 20
10.099
 30
0.0
 11
150.0
 21
37.74480934645121
 31
0.0
  0
SOLID
  5
28EC
330
2231
100
AcDbEntity
  8
2
 62
     0
100
AcDbTrace
 10
149.5833333333334
 20
-12.59899999999998
 30
0.0
 11
150.4166666666667
 21
-12.59899999999998
 31
0.0
 12
150.0
 22
-10.09899999999998
 32
0.0
 13
150.0
 23
-10.09899999999998
 33
0.0
  0
LINE
  5
28ED
330
2231
100
AcDbEntity
  8
2
 62
     0
100
AcDbLine
 10
150.0
 20
-12.59899999999998
 30
0.0
 11
150.0
 21
-15.09899999999998
 31
0.0
  0
LINE
  5
28EE
330
2231
100
AcDbEntity
  8
2
 62
     0
100
AcDbLine
 10
150.0
 20
-10.09899999999998
 30
0.0
 11
150.0
 21
-7.598999999999984
 31
0.0
  0
SOLID
  5
28EF
330
2231
100
AcDbEntity
  8
2
 62
     0
100
AcDbTrace
 10
149.5833333333334
 20
12.59900000000001
 30
0.0
 11
150.4166666666667
 21
12.59900000000001
 31
0.0
 12
150.0
 22
10.099
 32
0.0
 13
150.0
 23
10.099
 33
0.0
  0
LINE
  5
28F0
330
2231
100
AcDbEntity
  8
2
 62
     0
100
AcDbLine
 10
150.0
 20
12.59900000000001
 30
0.0
 11
150.0
 21
15.09900000000001
 31
0.0
  0
LINE
  5
28F1
330
2231
100
AcDbEntity
  8
2
 62
     0
100
AcDbLine
 10
150.0
 20
10.099
 30
0.0
 11
150.0
 21
7.599000000000005
 31
0.0
  0
MTEXT
  5
28F2
330
2231
100
AcDbEntity
  8
2
 62
     0
100
AcDbMText
 10
147.18851018974
 20
26.4219
 30
0.0
 40
3.5
 41
0.0
 71
     5
 72
     1
  1
\A1;M20x2.5
  7
STANDARD 3.5 mm
 11
0.0000000000000001
 21
1.0
 31
0.0
 73
     1
 44
1.0
  0
POINT
  5
28F3
330
2231
100
AcDbEntity
  8
DEFPOINTS
 62
     0
100
AcDbPoint
 10
87.70711766450004
 20
-10.09899999999999
 30
0.0
  0
POINT
  5
28F4
330
2231
100
AcDbEntity
  8
DEFPOINTS
 62
     0
100
AcDbPoint
 10
87.70711766450004
 20
10.09899999999999
 30
0.0
  0
POINT
  5
28F5
330
2231
100
AcDbEntity
  8
DEFPOINTS
 62
     0
100
AcDbPoint
 10
150.0
 20
10.099
 30
0.0
  0
ENDBLK
  5
2233
330
2231
100
AcDbEntity
  8
0
100
AcDbBlockEnd
  0
BLOCK
  5
2252
330
2251
100
AcDbEntity
  8
0
100
AcDbBlockBegin
  2
*D9
 70
     1
 10
0.0
 20
0.0
 30
0.0
  3
*D9
  1

  0
LINE
  5
2874
330
2251
100
AcDbEntity
  8
SK2
 62
     0
100
AcDbLine
 10
-45.0
 20
-7.0
 30
0.0
 11
-45.0
 21
-32.0
 31
0.0
  0
LINE
  5
2875
330
2251
100
AcDbEntity
  8
SK2
 62
     0
100
AcDbLine
 10
87.7071176645
 20
9.098999999999991
 30
0.0
 11
87.7071176645
 21
-32.0
 31
0.0
  0
LINE
  5
2876
330
2251
100
AcDbEntity
  8
SK2
 62
     0
100
AcDbLine
 10
-42.5
 20
-30.0
 30
0.0
 11
85.2071176645
 21
-30.0
 31
0.0
  0
SOLID
  5
2877
330
2251
100
AcDbEntity
  8
SK2
 62
     0
100
AcDbTrace
 10
-42.5
 20
-29.58333333333333
 30
0.0
 11
-42.5
 21
-30.41666666666667
 31
0.0
 12
-45.0
 22
-30.0
 32
0.0
 13
-45.0
 23
-30.0
 33
0.0
  0
SOLID
  5
2878
330
2251
100
AcDbEntity
  8
SK2
 62
     0
100
AcDbTrace
 10
85.2071176645
 20
-29.58333333333333
 30
0.0
 11
85.2071176645
 21
-30.41666666666667
 31
0.0
 12
87.7071176645
 22
-30.0
 32
0.0
 13
87.7071176645
 23
-30.0
 33
0.0
  0
MTEXT
  5
2879
330
2251
100
AcDbEntity
  8
SK2
 62
     0
100
AcDbMText
 10
21.35355883225003
 20
-27.18851018973999
 30
0.0
 40
3.5
 41
0.0
 71
     5
 72
     1
  1
\A1;132.7
  7
STANDARD 3.5 mm
 73
     1
 44
1.0
1001
ACAD
1000
MTEXTBEGIN
1070
    73
1070
     1
1070
    44
1040
1.0
1070
    74
1070
     0
1000
MTEXTEND
  0
POINT
  5
287A
330
2251
100
AcDbEntity
  8
DEFPOINTS
 62
     0
100
AcDbPoint
 10
-45.0
 20
-6.0
 30
0.0
  0
POINT
  5
287B
330
2251
100
AcDbEntity
  8
DEFPOINTS
 62
     0
100
AcDbPoint
 10
87.7071176645
 20
10.09899999999999
 30
0.0
  0
POINT
  5
287C
330
2251
100
AcDbEntity
  8
DEFPOINTS
 62
     0
100
AcDbPoint
 10
87.7071176645
 20
-30.0
 30
0.0
  0
ENDBLK
  5
2253
330
2251
100
AcDbEntity
  8
0
100
AcDbBlockEnd
  0
BLOCK
  5
225E
330
225D
100
AcDbEntity
  8
0
100
AcDbBlockBegin
  2
*D10
 70
     1
 10
0.0
 20
0.0
 30
0.0
  3
*D10
  1

  0
LINE
  5
28F6
330
225D
100
AcDbEntity
  8
SK2
 62
     0
100
AcDbLine
 10
-27.533631047346
 20
-7.999999999999686
 30
0.0
 11
-62.00000000000001
 21
-7.999999999999692
 31
0.0
  0
LINE
  5
28F7
330
225D
100
AcDbEntity
  8
SK2
 62
     0
100
AcDbLine
 10
-27.53363104730001
 20
8.000000000000012
 30
0.0
 11
-62.00000000000001
 21
8.000000000000005
 31
0.0
  0
LINE
  5
28F8
330
225D
100
AcDbEntity
  8
SK2
 62
     0
100
AcDbLine
 10
-60.00000000000001
 20
-5.49999999999969
 30
0.0
 11
-60.00000000000001
 21
5.500000000000005
 31
0.0
  0
LINE
  5
28F9
330
225D
100
AcDbEntity
  8
SK2
 62
     0
100
AcDbLine
 10
-60.00000000000001
 20
8.000000000000007
 30
0.0
 11
-60.00000000000002
 21
26.70271040056218
 31
0.0
  0
SOLID
  5
28FA
330
225D
100
AcDbEntity
  8
SK2
 62
     0
100
AcDbTrace
 10
-60.41666666666667
 20
-10.49999999999969
 30
0.0
 11
-59.58333333333335
 21
-10.49999999999969
 31
0.0
 12
-60.00000000000001
 22
-7.999999999999691
 32
0.0
 13
-60.00000000000001
 23
-7.999999999999691
 33
0.0
  0
LINE
  5
28FB
330
225D
100
AcDbEntity
  8
SK2
 62
     0
100
AcDbLine
 10
-60.00000000000001
 20
-10.49999999999969
 30
0.0
 11
-60.00000000000001
 21
-12.99999999999969
 31
0.0
  0
LINE
  5
28FC
330
225D
100
AcDbEntity
  8
SK2
 62
     0
100
AcDbLine
 10
-60.00000000000001
 20
-7.999999999999691
 30
0.0
 11
-60.00000000000001
 21
-5.49999999999969
 31
0.0
  0
SOLID
  5
28FD
330
225D
100
AcDbEntity
  8
SK2
 62
     0
100
AcDbTrace
 10
-60.41666666666667
 20
10.5
 30
0.0
 11
-59.58333333333335
 21
10.5
 31
0.0
 12
-60.00000000000001
 22
8.000000000000007
 32
0.0
 13
-60.00000000000001
 23
8.000000000000007
 33
0.0
  0
LINE
  5
28FE
330
225D
100
AcDbEntity
  8
SK2
 62
     0
100
AcDbLine
 10
-60.00000000000001
 20
10.5
 30
0.0
 11
-60.00000000000001
 21
13.0
 31
0.0
  0
LINE
  5
28FF
330
225D
100
AcDbEntity
  8
SK2
 62
     0
100
AcDbLine
 10
-60.00000000000001
 20
8.000000000000007
 30
0.0
 11
-60.00000000000001
 21
5.500000000000005
 31
0.0
  0
MTEXT
  5
2900
330
225D
100
AcDbEntity
  8
SK2
 62
     0
100
AcDbMText
 10
-62.86314125087843
 20
21.3603
 30
0.0
 40
3.5
 41
0.0
 71
     5
 72
     1
  1
\A1;%%C16
  7
STANDARD 3.5 mm
 11
0.0000000000000001
 21
1.0
 31
0.0
 73
     1
 44
1.0
  0
POINT
  5
2901
330
225D
100
AcDbEntity
  8
DEFPOINTS
 62
     0
100
AcDbPoint
 10
-26.533631047346
 20
-7.999999999999686
 30
0.0
  0
POINT
  5
2902
330
225D
100
AcDbEntity
  8
DEFPOINTS
 62
     0
100
AcDbPoint
 10
-26.53363104730001
 20
8.000000000000012
 30
0.0
  0
POINT
  5
2903
330
225D
100
AcDbEntity
  8
DEFPOINTS
 62
     0
100
AcDbPoint
 10
-60.00000000000001
 20
8.000000000000007
 30
0.0
  0
ENDBLK
  5
225F
330
225D
100
AcDbEntity
  8
0
100
AcDbBlockEnd
  0
BLOCK
  5
226F
330
226E
100
AcDbEntity
  8
0
100
AcDbBlockBegin
  2
*D11
 70
     1
 10
0.0
 20
0.0
 30
0.0
  3
*D11
  1

  0
LINE
  5
2817
330
226E
100
AcDbEntity
  8
SK2
 62
     0
100
AcDbLine
 10
-45.0
 20
7.000000000000013
 30
0.0
 11
-44.99999999999999
 21
92.0
 31
0.0
  0
LINE
  5
2818
330
226E
100
AcDbEntity
  8
SK2
 62
     0
100
AcDbLine
 10
95.0
 20
8.800000000000013
 30
0.0
 11
95.0
 21
92.0
 31
0.0
  0
LINE
  5
2819
330
226E
100
AcDbEntity
  8
SK2
 62
     0
100
AcDbLine
 10
-42.49999999999999
 20
90.0
 30
0.0
 11
92.5
 21
90.0
 31
0.0
  0
SOLID
  5
281A
330
226E
100
AcDbEntity
  8
SK2
 62
     0
100
AcDbTrace
 10
-42.49999999999999
 20
90.41666666666667
 30
0.0
 11
-42.49999999999999
 21
89.58333333333333
 31
0.0
 12
-44.99999999999999
 22
90.0
 32
0.0
 13
-44.99999999999999
 23
90.0
 33
0.0
  0
SOLID
  5
281B
330
226E
100
AcDbEntity
  8
SK2
 62
     0
100
AcDbTrace
 10
92.5
 20
90.41666666666667
 30
0.0
 11
92.5
 21
89.58333333333333
 31
0.0
 12
95.0
 22
90.0
 32
0.0
 13
95.0
 23
90.0
 33
0.0
  0
MTEXT
  5
281C
330
226E
100
AcDbEntity
  8
SK2
 62
     0
100
AcDbMText
 10
25.0
 20
92.81148981026001
 30
0.0
 40
3.5
 41
0.0
 71
     5
 72
     1
  1
\A1;140
  7
STANDARD 3.5 mm
 73
     1
 44
1.0
1001
ACAD
1000
MTEXTBEGIN
1070
    73
1070
     1
1070
    44
1040
1.0
1070
    74
1070
     0
1000
MTEXTEND
  0
POINT
  5
281D
330
226E
100
AcDbEntity
  8
DEFPOINTS
 62
     0
100
AcDbPoint
 10
-45.0
 20
6.000000000000013
 30
0.0
  0
POINT
  5
281E
330
226E
100
AcDbEntity
  8
DEFPOINTS
 62
     0
100
AcDbPoint
 10
95.0
 20
7.800000000000013
 30
0.0
  0
POINT
  5
281F
330
226E
100
AcDbEntity
  8
DEFPOINTS
 62
     0
100
AcDbPoint
 10
95.0
 20
90.0
 30
0.0
  0
ENDBLK
  5
2270
330
226E
100
AcDbEntity
  8
0
100
AcDbBlockEnd
  0
ENDSEC
  0
SECTION
  2
ENTITIES
  0
LINE
  5
1684
330
18
100
AcDbEntity
  8
SK1
100
AcDbLine
 10
0.0
 20
8.0
 30
0.0
 11
-26.53363104729999
 21
8.0
 31
0.0
  0
LINE
  5
1685
330
18
100
AcDbEntity
  8
SK1
100
AcDbLine
 10
-26.53363104729999
 20
-8.0
 30
0.0
 11
0.0
 21
-8.0
 31
0.0
  0
ARC
  5
1686
330
18
100
AcDbEntity
  8
SK1
100
AcDbCircle
 10
-27.0
 20
8.649999999999991
 30
0.0
 40
0.8000000000000142
100
AcDbArc
 50
270.0
 51
305.6590876961002
  0
ARC
  5
1687
330
18
100
AcDbEntity
  8
SK1
100
AcDbCircle
 10
-27.0
 20
-8.650000000000002
 30
0.0
 40
0.8000000000000111
100
AcDbArc
 50
54.34091230389977
 51
90.0
  0
LINE
  5
1688
330
18
100
AcDbEntity
  8
SK1
100
AcDbLine
 10
-27.0
 20
7.849999999999994
 30
0.0
 11
-28.14999999999998
 21
7.849999999999994
 31
0.0
  0
LINE
  5
1689
330
18
100
AcDbEntity
  8
SK1
100
AcDbLine
 10
-28.14999999999998
 20
-7.850000000000008
 30
0.0
 11
-27.0
 21
-7.850000000000008
 31
0.0
  0
LINE
  5
168A
330
18
100
AcDbEntity
  8
1
100
AcDbLine
 10
17.41905249809997
 20
8.0
 30
0.0
 11
0.0
 21
8.0
 31
0.0
  0
LINE
  5
168B
330
18
100
AcDbEntity
  8
1
100
AcDbLine
 10
0.0
 20
-8.0
 30
0.0
 11
17.41905249809997
 21
-8.0
 31
0.0
  0
ARC
  5
168C
330
18
100
AcDbEntity
  8
1
100
AcDbCircle
 10
18.0
 20
8.549999999999997
 30
0.0
 40
0.7999999999999972
100
AcDbArc
 50
223.4325365578008
 51
270.0
  0
ARC
  5
168D
330
18
100
AcDbEntity
  8
1
100
AcDbCircle
 10
18.0
 20
-8.549999999999997
 30
0.0
 40
0.8000000000000111
100
AcDbArc
 50
90.0
 51
136.567463442199
  0
LINE
  5
168E
330
18
100
AcDbEntity
  8
1
100
AcDbLine
 10
39.09418114350001
 20
7.75
 30
0.0
 11
18.0
 21
7.75
 31
0.0
  0
LINE
  5
168F
330
18
100
AcDbEntity
  8
1
100
AcDbLine
 10
18.0
 20
-7.75
 30
0.0
 11
39.09418114350001
 21
-7.75
 31
0.0
  0
LINE
  5
1690
330
18
100
AcDbEntity
  8
SK1
100
AcDbLine
 10
-26.53363104729999
 20
0.0
 30
0.0
 11
-26.53363104729999
 21
-8.0
 31
0.0
  0
LINE
  5
1691
330
18
100
AcDbEntity
  8
SK1
100
AcDbLine
 10
-26.53363104729999
 20
8.0
 30
0.0
 11
-26.53363104729999
 21
0.0
 31
0.0
  0
LINE
  5
1692
330
18
100
AcDbEntity
  8
SK1
100
AcDbLine
 10
-28.14999999999998
 20
-7.850000000000008
 30
0.0
 11
-30.0
 21
-6.0
 31
0.0
  0
LINE
  5
1693
330
18
100
AcDbEntity
  8
SK1
100
AcDbLine
 10
-30.0
 20
-6.0
 30
0.0
 11
-43.14999999999996
 21
-6.0
 31
0.0
  0
LINE
  5
1694
330
18
100
AcDbEntity
  8
SK1
100
AcDbLine
 10
-43.14999999999996
 20
-6.0
 30
0.0
 11
-43.14999999999996
 21
-5.061867244400004
 31
0.0
  0
LINE
  5
1695
330
18
100
AcDbEntity
  8
SK1
100
AcDbLine
 10
-43.14999999999996
 20
-5.061867244400004
 30
0.0
 11
-30.0
 21
-5.061867244400004
 31
0.0
  0
ARC
  5
1696
330
18
100
AcDbEntity
  8
SK1
100
AcDbCircle
 10
-36.0
 20
0.0
 30
0.0
 40
7.850000000000022
100
AcDbArc
 50
319.8475301579009
 51
40.1524698420991
  0
LINE
  5
1697
330
18
100
AcDbEntity
  8
SK1
100
AcDbLine
 10
-30.0
 20
5.061867244400004
 30
0.0
 11
-43.14999999999996
 21
5.061867244400004
 31
0.0
  0
LINE
  5
1698
330
18
100
AcDbEntity
  8
SK1
100
AcDbLine
 10
-43.14999999999996
 20
5.061867244400004
 30
0.0
 11
-43.14999999999996
 21
6.0
 31
0.0
  0
LINE
  5
1699
330
18
100
AcDbEntity
  8
SK1
100
AcDbLine
 10
-43.14999999999996
 20
6.0
 30
0.0
 11
-30.0
 21
6.0
 31
0.0
  0
LINE
  5
169A
330
18
100
AcDbEntity
  8
SK1
100
AcDbLine
 10
-30.0
 20
6.0
 30
0.0
 11
-28.14999999999998
 21
7.849999999999994
 31
0.0
  0
LINE
  5
169B
330
18
100
AcDbEntity
  8
SK1
100
AcDbLine
 10
-30.0
 20
-5.061867244400004
 30
0.0
 11
-30.0
 21
5.061867244400004
 31
0.0
  0
LINE
  5
169C
330
18
100
AcDbEntity
  8
SK1
100
AcDbLine
 10
-45.0
 20
6.0
 30
0.0
 11
-43.14999999999996
 21
6.0
 31
0.0
  0
ARC
  5
169D
330
18
100
AcDbEntity
  8
SK1
100
AcDbCircle
 10
-35.8775544696
 20
-0.4650505668000024
 30
0.0
 40
9.134291679417623
100
AcDbArc
 50
142.7658691342002
 51
177.0816610236999
  0
LINE
  5
169E
330
18
100
AcDbEntity
  8
SK1
100
AcDbLine
 10
-45.0
 20
6.0
 30
0.0
 11
-45.0
 21
0.0
 31
0.0
  0
ARC
  5
169F
330
18
100
AcDbEntity
  8
SK1
100
AcDbCircle
 10
-35.87648269979999
 20
0.4654422748999992
 30
0.0
 40
9.13538200835392
100
AcDbArc
 50
182.9204502920998
 51
217.2320195498996
  0
LINE
  5
16A0
330
18
100
AcDbEntity
  8
SK1
100
AcDbLine
 10
-43.14999999999996
 20
-6.0
 30
0.0
 11
-45.0
 21
-6.0
 31
0.0
  0
LINE
  5
16A1
330
18
100
AcDbEntity
  8
SK1
100
AcDbLine
 10
-45.0
 20
0.0
 30
0.0
 11
-45.0
 21
-6.0
 31
0.0
  0
ARC
  5
16A2
330
18
100
AcDbEntity
  8
1
100
AcDbCircle
 10
239.2144110816
 20
2.294195165100004
 30
0.0
 40
161.852462415445
100
AcDbArc
 50
182.2298395333995
 51
183.9095993810998
  0
LINE
  5
16A3
330
18
100
AcDbEntity
  8
1
100
AcDbLine
 10
77.46832204150002
 20
-8.741287254699996
 30
0.0
 11
77.74141295650003
 21
-8.741287254699996
 31
0.0
  0
ARC
  5
16A4
330
18
100
AcDbEntity
  8
1
100
AcDbCircle
 10
238.9456058948999
 20
2.294311902299995
 30
0.0
 40
161.8544745163244
100
AcDbArc
 50
182.2298216106997
 51
183.9095899865995
  0
LINE
  5
16A5
330
18
100
AcDbEntity
  8
1
100
AcDbLine
 10
77.48719836940002
 20
-4.003123853299996
 30
0.0
 11
77.21176791830004
 21
-4.003123853299996
 31
0.0
  0
LINE
  5
16A6
330
18
100
AcDbEntity
  8
1
100
AcDbLine
 10
93.29114594129999
 20
-3.547668666100008
 30
0.0
 11
93.22452408969999
 21
-3.592211760599993
 31
0.0
  0
LWPOLYLINE
  5
16A7
330
18
100
AcDbEntity
  8
1
100
AcDbPolyline
 90
        3
 70
   128
 43
0.0
 10
93.22452408969999
 20
-3.592211760499991
 10
92.4557967289
 20
-3.658462968799993
 10
91.68708667249999
 20
-3.721823205000006
  0
ARC
  5
16A8
330
18
100
AcDbEntity
  8
1
100
AcDbCircle
 10
94.93703605730004
 20
1.625539938199992
 30
0.0
 40
6.25751257207061
100
AcDbArc
 50
235.7632266824009
 51
238.7101580360999
  0
ARC
  5
16A9
330
18
100
AcDbEntity
  8
1
100
AcDbCircle
 10
91.10380861250002
 20
-4.156331796299993
 30
0.0
 40
0.6842724252393352
100
AcDbArc
 50
62.81099875559939
 51
117.1890012444006
  0
ARC
  5
16AA
330
18
100
AcDbEntity
  8
1
100
AcDbCircle
 10
87.55832913580002
 20
1.2069096333
 30
0.0
 40
5.749532094285059
100
AcDbArc
 50
298.9125230144992
 51
304.2132593147004
  0
LINE
  5
16AB
330
18
100
AcDbEntity
  8
1
100
AcDbLine
 10
90.33807680630005
 20
-3.825994318799999
 30
0.0
 11
89.479516509
 21
-3.887604077800006
 31
0.0
  0
ARC
  5
16AC
330
18
100
AcDbEntity
  8
1
100
AcDbCircle
 10
92.21809120599999
 20
1.284641447399989
 30
0.0
 40
5.85251357486102
100
AcDbArc
 50
235.6576099171014
 51
242.0998991173997
  0
ARC
  5
16AD
330
18
100
AcDbEntity
  8
1
100
AcDbCircle
 10
88.60380861250002
 20
-4.156331796299993
 30
0.0
 40
0.6842724252394609
100
AcDbArc
 50
62.81099875559939
 51
117.1890012444006
  0
ARC
  5
16AE
330
18
100
AcDbEntity
  8
1
100
AcDbCircle
 10
85.21902075580005
 20
0.9512457828000007
 30
0.0
 40
5.447768751940952
100
AcDbArc
 50
294.5731657352003
 51
304.3275752107012
  0
LINE
  5
16AF
330
18
100
AcDbEntity
  8
1
100
AcDbLine
 10
87.48539544319998
 20
-4.003123853299996
 30
0.0
 11
87.21475690619994
 21
-4.003123853299996
 31
0.0
  0
ARC
  5
16B0
330
18
100
AcDbEntity
  8
1
100
AcDbCircle
 10
89.52872749790001
 20
0.9745021706999919
 30
0.0
 40
5.489641866266292
100
AcDbArc
 50
235.4634067364994
 51
245.057377888599
  0
ARC
  5
16B1
330
18
100
AcDbEntity
  8
1
100
AcDbCircle
 10
86.10380861250002
 20
-4.156331796299993
 30
0.0
 40
0.6842724252395877
100
AcDbArc
 50
62.81099875559939
 51
117.1890012444006
  0
ARC
  5
16B2
330
18
100
AcDbEntity
  8
1
100
AcDbCircle
 10
82.71902075580005
 20
0.9512457828000007
 30
0.0
 40
5.447768751938177
100
AcDbArc
 50
294.5731657352003
 51
304.3275752107012
  0
LINE
  5
16B3
330
18
100
AcDbEntity
  8
1
100
AcDbLine
 10
84.98406913270001
 20
-4.003123853299996
 30
0.0
 11
84.71638178659999
 21
-4.003123853299996
 31
0.0
  0
ARC
  5
16B4
330
18
100
AcDbEntity
  8
1
100
AcDbCircle
 10
87.02872749790001
 20
0.9745021706999919
 30
0.0
 40
5.489641866263824
100
AcDbArc
 50
235.4634067364994
 51
245.057377888599
  0
ARC
  5
16B5
330
18
100
AcDbEntity
  8
1
100
AcDbCircle
 10
83.60380861250002
 20
-4.156331796299993
 30
0.0
 40
0.684272425239361
100
AcDbArc
 50
62.81099875559939
 51
117.1890012444006
  0
ARC
  5
16B6
330
18
100
AcDbEntity
  8
1
100
AcDbCircle
 10
80.21902075580005
 20
0.9512457828000007
 30
0.0
 40
5.447768751942581
100
AcDbArc
 50
294.5731657352003
 51
304.3275752107012
  0
LINE
  5
16B7
330
18
100
AcDbEntity
  8
1
100
AcDbLine
 10
82.483959228
 20
-4.003123853299996
 30
0.0
 11
82.21330090589999
 21
-4.003123853299996
 31
0.0
  0
ARC
  5
16B8
330
18
100
AcDbEntity
  8
1
100
AcDbCircle
 10
84.52872749790001
 20
0.9745021706999919
 30
0.0
 40
5.489641866267022
100
AcDbArc
 50
235.4634067364994
 51
245.057377888599
  0
ARC
  5
16B9
330
18
100
AcDbEntity
  8
1
100
AcDbCircle
 10
81.10380861250002
 20
-4.156331796299993
 30
0.0
 40
0.6842724252390191
100
AcDbArc
 50
62.81099875559939
 51
117.1890012444006
  0
ARC
  5
16BA
330
18
100
AcDbEntity
  8
1
100
AcDbCircle
 10
77.71902075580005
 20
0.9512457828000007
 30
0.0
 40
5.447768751943018
100
AcDbArc
 50
294.5731657352003
 51
304.3275752107012
  0
LINE
  5
16BB
330
18
100
AcDbEntity
  8
1
100
AcDbLine
 10
79.98396592919998
 20
-4.003123853299996
 30
0.0
 11
79.7133679021
 21
-4.003123853299996
 31
0.0
  0
ARC
  5
16BC
330
18
100
AcDbEntity
  8
1
100
AcDbCircle
 10
82.02872749790001
 20
0.9745021706999919
 30
0.0
 40
5.48964186626504
100
AcDbArc
 50
235.4634067364994
 51
245.057377888599
  0
ARC
  5
16BD
330
18
100
AcDbEntity
  8
1
100
AcDbCircle
 10
78.60380861250002
 20
-4.156331796299993
 30
0.0
 40
0.6842724252391831
100
AcDbArc
 50
62.81099875559939
 51
117.1890012444006
  0
ARC
  5
16BE
330
18
100
AcDbEntity
  8
1
100
AcDbCircle
 10
75.21902075580005
 20
0.9512457828000007
 30
0.0
 40
5.447768751942311
100
AcDbArc
 50
294.5731657352003
 51
304.3275752107012
  0
ARC
  5
16BF
330
18
100
AcDbEntity
  8
1
100
AcDbCircle
 10
79.52872749790002
 20
0.9745021706999919
 30
0.0
 40
5.489641866263289
100
AcDbArc
 50
235.4634067364994
 51
245.057377888599
  0
ARC
  5
16C0
330
18
100
AcDbEntity
  8
1
100
AcDbCircle
 10
76.10380861250002
 20
-4.156331796299993
 30
0.0
 40
0.6842724252395255
100
AcDbArc
 50
62.81099875559939
 51
117.1890012444006
  0
ARC
  5
16C1
330
18
100
AcDbEntity
  8
1
100
AcDbCircle
 10
72.71902075580005
 20
0.9512457828000007
 30
0.0
 40
5.447768751947318
100
AcDbArc
 50
294.5731657352003
 51
304.3275752107012
  0
LINE
  5
16C2
330
18
100
AcDbEntity
  8
1
100
AcDbLine
 10
74.98256034260005
 20
-4.003123853299996
 30
0.0
 11
74.71418684580005
 21
-4.003123853299996
 31
0.0
  0
ARC
  5
16C3
330
18
100
AcDbEntity
  8
1
100
AcDbCircle
 10
77.02872749790002
 20
0.9745021706999919
 30
0.0
 40
5.489641866258077
100
AcDbArc
 50
235.4634067364994
 51
245.057377888599
  0
ARC
  5
16C4
330
18
100
AcDbEntity
  8
1
100
AcDbCircle
 10
73.60380861250002
 20
-4.156331796299993
 30
0.0
 40
0.6842724252394877
100
AcDbArc
 50
62.81099875559939
 51
117.1890012444006
  0
ARC
  5
16C5
330
18
100
AcDbEntity
  8
1
100
AcDbCircle
 10
70.21902075580005
 20
0.9512457829000029
 30
0.0
 40
5.447768751962623
100
AcDbArc
 50
294.5731657352003
 51
304.3275752107012
  0
LINE
  5
16C6
330
18
100
AcDbEntity
  8
1
100
AcDbLine
 10
72.48440775939997
 20
-4.003123853299996
 30
0.0
 11
72.21364693060002
 21
-4.003123853299996
 31
0.0
  0
ARC
  5
16C7
330
18
100
AcDbEntity
  8
1
100
AcDbCircle
 10
74.52872749790002
 20
0.9745021705999905
 30
0.0
 40
5.489641866239197
100
AcDbArc
 50
235.4634067364994
 51
245.0573778886996
  0
ARC
  5
16C8
330
18
100
AcDbEntity
  8
1
100
AcDbCircle
 10
71.10380861250002
 20
-4.156331796299993
 30
0.0
 40
0.6842724252396648
100
AcDbArc
 50
62.81099875559939
 51
117.1890012444006
  0
ARC
  5
16C9
330
18
100
AcDbEntity
  8
1
100
AcDbCircle
 10
67.71902075580005
 20
0.9512457829000029
 30
0.0
 40
5.447768751966326
100
AcDbArc
 50
294.5731657352003
 51
304.3275752107012
  0
LINE
  5
16CA
330
18
100
AcDbEntity
  8
1
100
AcDbLine
 10
69.98379986740002
 20
-4.003123853299996
 30
0.0
 11
69.71621471099997
 21
-4.003123853299996
 31
0.0
  0
ARC
  5
16CB
330
18
100
AcDbEntity
  8
1
100
AcDbCircle
 10
72.02872749790002
 20
0.9745021706999919
 30
0.0
 40
5.489641866242561
100
AcDbArc
 50
235.4634067364994
 51
245.057377888599
  0
ARC
  5
16CC
330
18
100
AcDbEntity
  8
1
100
AcDbCircle
 10
68.60380861250002
 20
-4.156331796299993
 30
0.0
 40
0.6842724252395364
100
AcDbArc
 50
62.81099875559939
 51
117.1890012444006
  0
ARC
  5
16CD
330
18
100
AcDbEntity
  8
1
100
AcDbCircle
 10
65.21902075580005
 20
0.9512457829000029
 30
0.0
 40
5.447768751961381
100
AcDbArc
 50
294.5731657352003
 51
304.3275752107012
  0
LINE
  5
16CE
330
18
100
AcDbEntity
  8
1
100
AcDbLine
 10
67.48423370170002
 20
-4.003123853299996
 30
0.0
 11
67.21368312610002
 21
-4.003123853299996
 31
0.0
  0
ARC
  5
16CF
330
18
100
AcDbEntity
  8
1
100
AcDbCircle
 10
69.52872749790002
 20
0.9745021706999919
 30
0.0
 40
5.489641866242409
100
AcDbArc
 50
235.4634067364994
 51
245.0573778886996
  0
ARC
  5
16D0
330
18
100
AcDbEntity
  8
1
100
AcDbCircle
 10
66.10380861250002
 20
-4.156331796299993
 30
0.0
 40
0.6842724252396632
100
AcDbArc
 50
62.81099875559939
 51
117.1890012444006
  0
ARC
  5
16D1
330
18
100
AcDbEntity
  8
1
100
AcDbCircle
 10
62.71902075580005
 20
0.9512457828000007
 30
0.0
 40
5.447768751959235
100
AcDbArc
 50
294.5731657352003
 51
304.3275752107012
  0
LINE
  5
16D2
330
18
100
AcDbEntity
  8
1
100
AcDbLine
 10
64.98702099349998
 20
-4.003123853299996
 30
0.0
 11
64.713683086
 21
-4.003123853299996
 31
0.0
  0
ARC
  5
16D3
330
18
100
AcDbEntity
  8
1
100
AcDbCircle
 10
67.02872749790002
 20
0.9745021705999905
 30
0.0
 40
5.489641866226613
100
AcDbArc
 50
235.4634067364994
 51
245.0573778886996
  0
ARC
  5
16D4
330
18
100
AcDbEntity
  8
1
100
AcDbCircle
 10
63.5997589411
 20
-4.179942660599991
 30
0.0
 40
0.7071613055685587
100
AcDbArc
 50
63.39325442260051
 51
112.7337093866003
  0
LINE
  5
16D5
330
18
100
AcDbEntity
  8
1
100
AcDbLine
 10
95.0
 20
-2.283167783699993
 30
0.0
 11
95.0
 21
-3.153109364900003
 31
0.0
  0
ARC
  5
16D6
330
18
100
AcDbEntity
  8
1
100
AcDbCircle
 10
88.8958152746
 20
9.676696922499999
 30
0.0
 40
14.20792034514761
100
AcDbArc
 50
291.9208812980007
 51
295.4442416645004
  0
LINE
  5
16D7
330
18
100
AcDbEntity
  8
1
100
AcDbLine
 10
94.19999999999999
 20
-3.503994445300008
 30
0.0
 11
93.89075464170003
 21
-3.532462821000008
 31
0.0
  0
ARC
  5
16D8
330
18
100
AcDbEntity
  8
1
100
AcDbCircle
 10
93.6070681516
 20
-4.175637729400007
 30
0.0
 40
0.7029594493004128
100
AcDbArc
 50
66.19906367619989
 51
116.7063112892996
  0
ARC
  5
16D9
330
18
100
AcDbEntity
  8
1
100
AcDbCircle
 10
246.7166859973001
 20
2.294323458999997
 30
0.0
 40
161.8547409032182
100
AcDbArc
 50
182.2298239988999
 51
183.9095855036
  0
LINE
  5
16DA
330
18
100
AcDbEntity
  8
1
100
AcDbLine
 10
84.97081184829998
 20
-8.741287254699996
 30
0.0
 11
85.2389628491
 21
-8.741287254699996
 31
0.0
  0
ARC
  5
16DB
330
18
100
AcDbEntity
  8
1
100
AcDbCircle
 10
246.4426149332
 20
2.294158795400008
 30
0.0
 40
161.8514797145562
100
AcDbArc
 50
182.2298230741
 51
183.9096211230999
  0
ARC
  5
16DC
330
18
100
AcDbEntity
  8
1
100
AcDbCircle
 10
231.7170191566
 20
2.294341123400001
 30
0.0
 40
161.8550745238221
100
AcDbArc
 50
182.2298230930002
 51
183.9095825406003
  0
LINE
  5
16DD
330
18
100
AcDbEntity
  8
1
100
AcDbLine
 10
69.96774884760004
 20
-8.741287254699996
 30
0.0
 11
70.23828142790001
 21
-8.741287254699996
 31
0.0
  0
ARC
  5
16DE
330
18
100
AcDbEntity
  8
1
100
AcDbCircle
 10
231.4453994221
 20
2.2942930902
 30
0.0
 40
161.8542673250693
100
AcDbArc
 50
182.2298317503997
 51
183.9095853109995
  0
ARC
  5
16DF
330
18
100
AcDbEntity
  8
1
100
AcDbCircle
 10
226.7156743586
 20
2.2942671773
 30
0.0
 40
161.8537277184577
100
AcDbArc
 50
182.2298299697002
 51
183.9095923119998
  0
LINE
  5
16E0
330
18
100
AcDbEntity
  8
1
100
AcDbLine
 10
64.9682412735
 20
-8.741287254699996
 30
0.0
 11
65.24024444520001
 21
-8.741287254699996
 31
0.0
  0
ARC
  5
16E1
330
18
100
AcDbEntity
  8
1
100
AcDbCircle
 10
226.4453613955
 20
2.29429631069999
 30
0.0
 40
161.8542295338939
100
AcDbArc
 50
182.2298254761003
 51
183.9095899852
  0
ARC
  5
16E2
330
18
100
AcDbEntity
  8
1
100
AcDbCircle
 10
236.7171151465
 20
2.294353236700004
 30
0.0
 40
161.8551710329835
100
AcDbArc
 50
182.2298142777997
 51
183.9095875024996
  0
LINE
  5
16E3
330
18
100
AcDbEntity
  8
1
100
AcDbLine
 10
74.96800700389997
 20
-8.741287254699996
 30
0.0
 11
75.24007669349998
 21
-8.741287254699996
 31
0.0
  0
ARC
  5
16E4
330
18
100
AcDbEntity
  8
1
100
AcDbCircle
 10
236.4454186002999
 20
2.294298025400009
 30
0.0
 40
161.854286745339
100
AcDbArc
 50
182.2298269262
 51
183.9095883848002
  0
ARC
  5
16E5
330
18
100
AcDbEntity
  8
1
100
AcDbCircle
 10
279.581083151
 20
3.774543774099996
 30
0.0
 40
192.2539688336546
100
AcDbArc
 50
182.3185505400996
 51
183.6023079431003
  0
LINE
  5
16E6
330
18
100
AcDbEntity
  8
1
100
AcDbLine
 10
87.46782284540001
 20
-8.741287254699996
 30
0.0
 11
87.70711766440003
 21
-8.741287254699996
 31
0.0
  0
ARC
  5
16E7
330
18
100
AcDbEntity
  8
1
100
AcDbCircle
 10
248.9455677138
 20
2.294304057999994
 30
0.0
 40
161.8544359622717
100
AcDbArc
 50
182.2298288024001
 51
183.9095855072995
  0
ARC
  5
16E8
330
18
100
AcDbEntity
  8
1
100
AcDbCircle
 10
244.2168454861
 20
2.294331800499989
 30
0.0
 40
161.8549006065643
100
AcDbArc
 50
182.2298237049997
 51
183.9095839901997
  0
LINE
  5
16E9
330
18
100
AcDbEntity
  8
1
100
AcDbLine
 10
82.46688861009998
 20
-8.741287254699996
 30
0.0
 11
82.73836664589998
 21
-8.741287254699996
 31
0.0
  0
ARC
  5
16EA
330
18
100
AcDbEntity
  8
1
100
AcDbCircle
 10
243.9466311273
 20
2.294358148699997
 30
0.0
 40
161.8555007220568
100
AcDbArc
 50
182.2298287026003
 51
183.9095741513999
  0
ARC
  5
16EB
330
18
100
AcDbEntity
  8
1
100
AcDbCircle
 10
241.7167413638999
 20
2.294326745400013
 30
0.0
 40
161.8547963657962
100
AcDbArc
 50
182.2298234210999
 51
183.9095853016999
  0
LINE
  5
16EC
330
18
100
AcDbEntity
  8
1
100
AcDbLine
 10
79.96732695150001
 20
-8.741287254699996
 30
0.0
 11
80.23894766640001
 21
-8.741287254699996
 31
0.0
  0
ARC
  5
16ED
330
18
100
AcDbEntity
  8
1
100
AcDbCircle
 10
241.4462273808
 20
2.29433858460001
 30
0.0
 40
161.8550965179312
100
AcDbArc
 50
182.2298275560999
 51
183.9095792681004
  0
ARC
  5
16EE
330
18
100
AcDbEntity
  8
1
100
AcDbCircle
 10
229.2170368259
 20
2.294339348899995
 30
0.0
 40
161.8550920684617
100
AcDbArc
 50
182.2298263470002
 51
183.9095801384999
  0
LINE
  5
16EF
330
18
100
AcDbEntity
  8
1
100
AcDbLine
 10
67.4682413086
 20
-8.741287254699996
 30
0.0
 11
67.73750490219999
 21
-8.741287254699996
 31
0.0
  0
ARC
  5
16F0
330
18
100
AcDbEntity
  8
1
100
AcDbCircle
 10
228.945361338
 20
2.294296307600006
 30
0.0
 40
161.8542294762698
100
AcDbArc
 50
182.2298254764002
 51
183.9095899857002
  0
ARC
  5
16F1
330
18
100
AcDbEntity
  8
1
100
AcDbCircle
 10
234.2162847334
 20
2.294301912199983
 30
0.0
 40
161.8543390688266
100
AcDbArc
 50
182.2298254207001
 51
183.9095888476999
  0
LINE
  5
16F2
330
18
100
AcDbEntity
  8
1
100
AcDbLine
 10
72.46709362130002
 20
-8.741287254699996
 30
0.0
 11
72.73969973229998
 21
-8.741287254699996
 31
0.0
  0
ARC
  5
16F3
330
18
100
AcDbEntity
  8
1
100
AcDbCircle
 10
233.9463983096
 20
2.29434633299999
 30
0.0
 40
161.8552676110326
100
AcDbArc
 50
182.229828692
 51
183.9095766596
  0
ARC
  5
16F4
330
18
100
AcDbEntity
  8
1
100
AcDbCircle
 10
210.7030487215
 20
2.075326352800004
 30
0.0
 40
122.5409809622615
100
AcDbArc
 50
182.6300348823
 51
184.4693512942004
  0
ARC
  5
16F5
330
18
100
AcDbEntity
  8
1
100
AcDbCircle
 10
135.1392932601
 20
-37.62876009780001
 30
0.0
 40
55.50956164673686
100
AcDbArc
 50
147.0955677257005
 51
148.6310692600006
  0
ARC
  5
16F6
330
18
100
AcDbEntity
  8
1
100
AcDbCircle
 10
121.0564218215
 20
-5.68475125729999
 30
0.0
 40
33.45224659839231
100
AcDbArc
 50
184.4960760762998
 51
185.2289384386999
  0
ARC
  5
16F7
330
18
100
AcDbEntity
  8
1
100
AcDbCircle
 10
27.93835371050001
 20
-44.19419095569999
 30
0.0
 40
67.15105706446717
100
AcDbArc
 50
31.86755441680008
 51
33.15001141560075
  0
ARC
  5
16F8
330
18
100
AcDbEntity
  8
1
100
AcDbCircle
 10
206.3283756501
 20
2.075326455299999
 30
0.0
 40
122.5409825517506
100
AcDbArc
 50
182.6300348664002
 51
184.4693512791002
  0
ARC
  5
16F9
330
18
100
AcDbEntity
  8
1
100
AcDbCircle
 10
200.7030499276
 20
2.075326428899983
 30
0.0
 40
122.5409821706611
100
AcDbArc
 50
182.6300348732998
 51
184.4693512807003
  0
ARC
  5
16FA
330
18
100
AcDbEntity
  8
1
100
AcDbCircle
 10
125.1568388191
 20
-37.63995070990001
 30
0.0
 40
55.53037169090114
100
AcDbArc
 50
147.0957080999002
 51
148.6401183731006
  0
ARC
  5
16FB
330
18
100
AcDbEntity
  8
1
100
AcDbCircle
 10
12.93835371059998
 20
-44.19419095559999
 30
0.0
 40
67.15105706437601
100
AcDbArc
 50
31.86755441680008
 51
33.15001141560075
  0
ARC
  5
16FC
330
18
100
AcDbEntity
  8
1
100
AcDbCircle
 10
191.3283727096
 20
2.075326290599988
 30
0.0
 40
122.540979606751
100
AcDbArc
 50
182.6300348526
 51
184.4693513362999
  0
ARC
  5
16FD
330
18
100
AcDbEntity
  8
1
100
AcDbCircle
 10
188.2030503057
 20
2.075326455199999
 30
0.0
 40
122.5409825497139
100
AcDbArc
 50
182.6300348664002
 51
184.4693512791999
  0
ARC
  5
16FE
330
18
100
AcDbEntity
  8
1
100
AcDbCircle
 10
112.6568388195
 20
-37.6399507102
 30
0.0
 40
55.53037169138079
100
AcDbArc
 50
147.0957080999002
 51
148.6401183731006
  0
ARC
  5
16FF
330
18
100
AcDbEntity
  8
1
100
AcDbCircle
 10
198.2030501797999
 20
2.0753264465
 30
0.0
 40
122.540982423458
100
AcDbArc
 50
182.6300348687003
 51
184.4693512796998
  0
ARC
  5
1700
330
18
100
AcDbEntity
  8
1
100
AcDbCircle
 10
122.6568388189
 20
-37.6399507098
 30
0.0
 40
55.53037169064078
100
AcDbArc
 50
147.0957080999002
 51
148.6401183731006
  0
ARC
  5
1701
330
18
100
AcDbEntity
  8
1
100
AcDbCircle
 10
20.43835371080001
 20
-44.1941909555
 30
0.0
 40
67.1510570642006
100
AcDbArc
 50
31.86755441680008
 51
33.15001141560075
  0
ARC
  5
1702
330
18
100
AcDbEntity
  8
1
100
AcDbCircle
 10
198.82837565
 20
2.075326455299999
 30
0.0
 40
122.5409825516697
100
AcDbArc
 50
182.6300348664002
 51
184.4693512791002
  0
ARC
  5
1703
330
18
100
AcDbEntity
  8
1
100
AcDbCircle
 10
195.7030502963999
 20
2.075326454600002
 30
0.0
 40
122.5409825403724
100
AcDbArc
 50
182.6300348665997
 51
184.4693512791999
  0
ARC
  5
1704
330
18
100
AcDbEntity
  8
1
100
AcDbCircle
 10
120.1568388196
 20
-37.6399507102
 30
0.0
 40
55.53037169148876
100
AcDbArc
 50
147.0957080999002
 51
148.6401183731006
  0
ARC
  5
1705
330
18
100
AcDbEntity
  8
1
100
AcDbCircle
 10
190.7030503017
 20
2.075326454899993
 30
0.0
 40
122.5409825456556
100
AcDbArc
 50
182.6300348664996
 51
184.4693512791999
  0
ARC
  5
1706
330
18
100
AcDbEntity
  8
1
100
AcDbCircle
 10
115.1568388195
 20
-37.6399507102
 30
0.0
 40
55.53037169141914
100
AcDbArc
 50
147.0957080999002
 51
148.6401183731006
  0
ARC
  5
1707
330
18
100
AcDbEntity
  8
1
100
AcDbCircle
 10
30.43835371099999
 20
-44.19419095539999
 30
0.0
 40
67.15105706390804
100
AcDbArc
 50
31.86755441680008
 51
33.15001141560075
  0
ARC
  5
1708
330
18
100
AcDbEntity
  8
1
100
AcDbCircle
 10
208.8283756505
 20
2.075326455400002
 30
0.0
 40
122.5409825521341
100
AcDbArc
 50
182.6300348664002
 51
184.4693512791002
  0
ARC
  5
1709
330
18
100
AcDbEntity
  8
1
100
AcDbCircle
 10
25.43835371099999
 20
-44.19419095539999
 30
0.0
 40
67.15105706392453
100
AcDbArc
 50
31.86755441680008
 51
33.15001141560075
  0
ARC
  5
170A
330
18
100
AcDbEntity
  8
1
100
AcDbCircle
 10
203.8283756263
 20
2.0753264537
 30
0.0
 40
122.5409825278732
100
AcDbArc
 50
182.6300348668003
 51
184.4693512791999
  0
ARC
  5
170B
330
18
100
AcDbEntity
  8
1
100
AcDbCircle
 10
193.2030503058
 20
2.075326455199999
 30
0.0
 40
122.5409825497586
100
AcDbArc
 50
182.6300348664002
 51
184.4693512791999
  0
ARC
  5
170C
330
18
100
AcDbEntity
  8
1
100
AcDbCircle
 10
117.6568388195
 20
-37.6399507102
 30
0.0
 40
55.53037169142417
100
AcDbArc
 50
147.0957080999002
 51
148.6401183731006
  0
ARC
  5
170D
330
18
100
AcDbEntity
  8
1
100
AcDbCircle
 10
15.43835371070002
 20
-44.19419095559999
 30
0.0
 40
67.15105706430172
100
AcDbArc
 50
31.86755441680008
 51
33.15001141560075
  0
ARC
  5
170E
330
18
100
AcDbEntity
  8
1
100
AcDbCircle
 10
193.8283756501999
 20
2.075326455299999
 30
0.0
 40
122.5409825518264
100
AcDbArc
 50
182.6300348664002
 51
184.4693512791002
  0
ARC
  5
170F
330
18
100
AcDbEntity
  8
1
100
AcDbCircle
 10
205.7030460107
 20
2.07532620149999
 30
0.0
 40
122.5409782473453
100
AcDbArc
 50
182.6300348686001
 51
184.4693513475002
  0
ARC
  5
1710
330
18
100
AcDbEntity
  8
1
100
AcDbCircle
 10
130.1568388195999
 20
-37.6399507103
 30
0.0
 40
55.53037169154389
100
AcDbArc
 50
147.0957080999002
 51
148.6401183731006
  0
ARC
  5
1711
330
18
100
AcDbEntity
  8
1
100
AcDbCircle
 10
203.2030496081
 20
2.0753264068
 30
0.0
 40
122.5409818504552
100
AcDbArc
 50
182.6300348791
 51
184.4693512819996
  0
ARC
  5
1712
330
18
100
AcDbEntity
  8
1
100
AcDbCircle
 10
127.6568388193999
 20
-37.63995071010001
 30
0.0
 40
55.53037169121378
100
AcDbArc
 50
147.0957080999002
 51
148.6401183731006
  0
ARC
  5
1713
330
18
100
AcDbEntity
  8
1
100
AcDbCircle
 10
17.93835371040001
 20
-44.19419095569999
 30
0.0
 40
67.15105706459985
100
AcDbArc
 50
31.86755441680008
 51
33.15001141560075
  0
ARC
  5
1714
330
18
100
AcDbEntity
  8
1
100
AcDbCircle
 10
196.3283756384999
 20
2.075326454499998
 30
0.0
 40
122.5409825401502
100
AcDbArc
 50
182.6300348665997
 51
184.4693512791999
  0
ARC
  5
1715
330
18
100
AcDbEntity
  8
1
100
AcDbCircle
 10
22.93835371080001
 20
-44.1941909555
 30
0.0
 40
67.15105706418381
100
AcDbArc
 50
31.86755441680008
 51
33.15001141560075
  0
ARC
  5
1716
330
18
100
AcDbEntity
  8
1
100
AcDbCircle
 10
201.32837565
 20
2.075326455299999
 30
0.0
 40
122.5409825516805
100
AcDbArc
 50
182.6300348664002
 51
184.4693512791002
  0
ARC
  5
1717
330
18
100
AcDbEntity
  8
1
100
AcDbCircle
 10
10.43835371040001
 20
-44.19419095579999
 30
0.0
 40
67.15105706464163
100
AcDbArc
 50
31.86755441680008
 51
33.15001141560075
  0
ARC
  5
1718
330
18
100
AcDbEntity
  8
1
100
AcDbCircle
 10
188.8283756256
 20
2.075326453599998
 30
0.0
 40
122.5409825272321
100
AcDbArc
 50
182.6300348668003
 51
184.4693512791999
  0
ARC
  5
1719
330
18
100
AcDbEntity
  8
1
100
AcDbCircle
 10
7.938353710300019
 20
-44.19419095579999
 30
0.0
 40
67.15105706470467
100
AcDbArc
 50
31.86755441680008
 51
33.15001141560075
  0
ARC
  5
171A
330
18
100
AcDbEntity
  8
1
100
AcDbCircle
 10
186.3283756499
 20
2.075326455299999
 30
0.0
 40
122.5409825515926
100
AcDbArc
 50
182.6300348664002
 51
184.4693512791002
  0
ARC
  5
171B
330
18
100
AcDbEntity
  8
1
100
AcDbCircle
 10
208.2030481247
 20
2.075326317999994
 30
0.0
 40
122.5409803644453
100
AcDbArc
 50
182.6300348816999
 51
184.4693513042996
  0
ARC
  5
171C
330
18
100
AcDbEntity
  8
1
100
AcDbCircle
 10
132.6568388192
 20
-37.63995071000001
 30
0.0
 40
55.53037169108593
100
AcDbArc
 50
147.0957080999002
 51
148.6401183731006
  0
ARC
  5
171D
330
18
100
AcDbEntity
  8
1
100
AcDbCircle
 10
109.5302084134999
 20
-37.2270952299
 30
0.0
 40
54.78010533563415
100
AcDbArc
 50
147.5051761194994
 51
148.3166094882998
  0
LWPOLYLINE
  5
171E
330
18
100
AcDbEntity
  8
1
100
AcDbPolyline
 90
       45
 70
   128
 43
0.0
 10
62.91434357220004
 20
-8.455215109199997
 10
62.91237062610004
 20
-8.382609417000011
 10
62.91039396490003
 20
-8.308518829400012
 10
62.90841426040003
 20
-8.232963497700012
 10
62.90643218450004
 20
-8.155963572899992
 10
62.9044484089
 20
-8.077539206299986
 10
62.90246360549997
 20
-7.997710549200007
 10
62.90047520349997
 20
-7.916467651399997
 10
62.8984785956
 20
-7.833802953200005
 10
62.89647123220004
 20
-7.749733437499997
 10
62.89445056380003
 20
-7.664276087000002
 10
62.89241404090001
 20
-7.577447884500003
 10
62.89035911400003
 20
-7.489265812999987
 10
62.8882857117
 20
-7.399727760100004
 10
62.88619589299997
 20
-7.308840937500008
 10
62.88409019210002
 20
-7.216631497999997
 10
62.88196914290001
 20
-7.123125594400007
 10
62.87983327960001
 20
-7.028349379599987
 10
62.87768313619999
 20
-6.932329006399996
 10
62.87536837760001
 20
-6.828288877899992
 10
62.8730371922
 20
-6.722826471499997
 10
62.87069030689997
 20
-6.615976361100008
 10
62.8683284485
 20
-6.507773120300015
 10
62.86595234369997
 20
-6.398251322700003
 10
62.86356271950001
 20
-6.287445542000012
 10
62.86119514479998
 20
-6.177020210200012
 10
62.85881456520002
 20
-6.065354772299996
 10
62.85642173860003
 20
-5.952484431599997
 10
62.85401742279997
 20
-5.838444391400003
 10
62.85160237550002
 20
-5.723269854999997
 10
62.84917673439998
 20
-5.606966236499998
 10
62.8467406725
 20
-5.48954014450001
 10
62.84429499979999
 20
-5.371028532400002
 10
62.84184052630002
 20
-5.251468353999996
 10
62.83937806200004
 20
-5.130896562700002
 10
62.83690778340002
 20
-5.0093188835
 10
62.83442989990003
 20
-4.886742143999994
 10
62.83194526830005
 20
-4.763204868300006
 10
62.8294547455
 20
-4.638745580800003
 10
62.82695918849999
 20
-4.513402805499993
 10
62.82432350510004
 20
-4.380334057999988
 10
62.82168274989999
 20
-4.246298548699996
 10
62.81903797540002
 20
-4.1113430547
 10
62.81639023400003
 20
-3.975514352800002
 10
62.8137405781
 20
-3.838859219900001
  0
ARC
  5
171F
330
18
100
AcDbEntity
  8
1
100
AcDbCircle
 10
60.10547620849997
 20
1.138229853999987
 30
0.0
 40
5.666225511357202
100
AcDbArc
 50
298.5526564485001
 51
304.2095175370008
  0
ARC
  5
1720
330
18
100
AcDbEntity
  8
1
100
AcDbCircle
 10
185.703091837
 20
2.075329338199991
 30
0.0
 40
122.5410241793507
100
AcDbArc
 50
182.6300341137002
 51
184.4693511097998
  0
LWPOLYLINE
  5
1721
330
18
100
AcDbEntity
  8
1
100
AcDbPolyline
 90
        3
 70
   128
 43
0.0
 10
63.32647734470004
 20
-7.797940027899997
 10
63.43051735590001
 20
-7.635304925499992
 10
63.53469521279999
 20
-7.473779164899994
  0
ARC
  5
1722
330
18
100
AcDbEntity
  8
1
100
AcDbCircle
 10
250.1434711751
 20
1.889478760100003
 30
0.0
 40
160.7677859991936
100
AcDbArc
 50
182.0593288624999
 51
183.6387882731995
  0
ARC
  5
1723
330
18
100
AcDbEntity
  8
1
100
AcDbCircle
 10
34.11805722590003
 20
-43.4342102681
 30
0.0
 40
65.74777815465025
100
AcDbArc
 50
32.28752240499971
 51
33.15769169040037
  0
ARC
  5
1724
330
18
100
AcDbEntity
  8
1
100
AcDbCircle
 10
211.3283755998
 20
2.075326451799995
 30
0.0
 40
122.5409825013543
100
AcDbArc
 50
182.6300348672999
 51
184.4693512792995
  0
ARC
  5
1725
330
18
100
AcDbEntity
  8
1
100
AcDbCircle
 10
60.13838959380001
 20
-8.327102742700006
 30
0.0
 40
5.225115578528884
100
AcDbArc
 50
59.20168720940072
 51
90.73365741669977
  0
ARC
  5
1726
330
18
100
AcDbEntity
  8
1
100
AcDbCircle
 10
61.54397373289999
 20
134.5825420449
 30
0.0
 40
137.692831190432
100
AcDbArc
 50
263.7167516687989
 51
269.3872666689976
  0
ARC
  5
1727
330
18
100
AcDbEntity
  8
1
100
AcDbCircle
 10
63.4407514011
 20
-3.771406017499998
 30
0.0
 40
0.2691493842510254
100
AcDbArc
 50
115.123755071799
 51
123.7689997503992
  0
LINE
  5
1728
330
18
100
AcDbEntity
  8
1
100
AcDbLine
 10
60.07148518869996
 20
-3.102415516700006
 30
0.0
 11
60.07148518869996
 21
-6.654990614400005
 31
0.0
  0
ARC
  5
1729
330
18
100
AcDbEntity
  8
1
100
AcDbCircle
 10
60.2257602138
 20
-9.556153206499999
 30
0.0
 40
2.905261635224026
100
AcDbArc
 50
22.26842825739918
 51
93.04394867599837
  0
ARC
  5
172A
330
18
100
AcDbEntity
  8
1
100
AcDbCircle
 10
209.9023919839
 20
1.984832866399995
 30
0.0
 40
119.7054350331132
100
AcDbArc
 50
182.7823863362
 51
184.8414334122998
  0
LINE
  5
172B
330
18
100
AcDbEntity
  8
1
100
AcDbLine
 10
89.6997943811
 20
-8.313834030399988
 30
0.0
 11
90.62405551519999
 21
-8.118118471599997
 31
0.0
  0
ARC
  5
172C
330
18
100
AcDbEntity
  8
1
100
AcDbCircle
 10
69.71092543170005
 20
-3.207823920200011
 30
0.0
 40
9.854947147902151
100
AcDbArc
 50
122.995650808201
 51
128.7962128248997
  0
LINE
  5
172D
330
18
100
AcDbEntity
  8
1
100
AcDbLine
 10
64.34452957249999
 20
5.057637603800001
 30
0.0
 11
64.61203354639997
 21
5.057637603800001
 31
0.0
  0
ARC
  5
172E
330
18
100
AcDbEntity
  8
1
100
AcDbCircle
 10
58.9568797635
 20
-3.478923800700001
 30
0.0
 40
10.24143323781536
100
AcDbArc
 50
50.93562949499956
 51
56.46327864319875
  0
ARC
  5
172F
330
18
100
AcDbEntity
  8
1
100
AcDbCircle
 10
65.72362299019999
 20
4.980923112100001
 30
0.0
 40
0.596511895966565
100
AcDbArc
 50
238.3888523435984
 51
301.6111476564017
  0
ARC
  5
1730
330
18
100
AcDbEntity
  8
1
100
AcDbCircle
 10
72.21092543170005
 20
-3.207823920200011
 30
0.0
 40
9.854947147900372
100
AcDbArc
 50
122.995650808201
 51
128.7962128248997
  0
LINE
  5
1731
330
18
100
AcDbEntity
  8
1
100
AcDbLine
 10
66.84316457619996
 20
5.057637603800001
 30
0.0
 11
67.115175819
 21
5.057637603800001
 31
0.0
  0
ARC
  5
1732
330
18
100
AcDbEntity
  8
1
100
AcDbCircle
 10
61.4568797635
 20
-3.478923800700001
 30
0.0
 40
10.24143323783032
100
AcDbArc
 50
50.93562949499956
 51
56.46327864319875
  0
ARC
  5
1733
330
18
100
AcDbEntity
  8
1
100
AcDbCircle
 10
68.22362299019999
 20
4.980923112100001
 30
0.0
 40
0.5965118959664803
100
AcDbArc
 50
238.3888523434989
 51
301.611147656501
  0
ARC
  5
1734
330
18
100
AcDbEntity
  8
1
100
AcDbCircle
 10
74.71092543170005
 20
-3.207823920200011
 30
0.0
 40
9.85494714788885
100
AcDbArc
 50
122.995650808201
 51
128.7962128248997
  0
LINE
  5
1735
330
18
100
AcDbEntity
  8
1
100
AcDbLine
 10
69.34179980489999
 20
5.057637603800001
 30
0.0
 11
69.61474363920001
 21
5.057637603800001
 31
0.0
  0
ARC
  5
1736
330
18
100
AcDbEntity
  8
1
100
AcDbCircle
 10
63.9568797635
 20
-3.478923800700001
 30
0.0
 40
10.2414332378227
100
AcDbArc
 50
50.93562949499956
 51
56.46327864319875
  0
ARC
  5
1737
330
18
100
AcDbEntity
  8
1
100
AcDbCircle
 10
70.72362299019999
 20
4.980923112100001
 30
0.0
 40
0.596511895967239
100
AcDbArc
 50
238.3888523435984
 51
301.6111476564017
  0
ARC
  5
1738
330
18
100
AcDbEntity
  8
1
100
AcDbCircle
 10
77.21092543160001
 20
-3.207823920100011
 30
0.0
 40
9.8549471477533
100
AcDbArc
 50
122.995650808201
 51
128.7962128249999
  0
LINE
  5
1739
330
18
100
AcDbEntity
  8
1
100
AcDbLine
 10
71.8444551764
 20
5.057637603800001
 30
0.0
 11
72.11518283089998
 21
5.057637603800001
 31
0.0
  0
ARC
  5
173A
330
18
100
AcDbEntity
  8
1
100
AcDbCircle
 10
66.4568797635
 20
-3.478923800800004
 30
0.0
 40
10.24143323787011
100
AcDbArc
 50
50.93562949510001
 51
56.46327864319875
  0
ARC
  5
173B
330
18
100
AcDbEntity
  8
1
100
AcDbCircle
 10
73.22362299019999
 20
4.980923112100001
 30
0.0
 40
0.5965118959662894
100
AcDbArc
 50
238.3888523434989
 51
301.611147656501
  0
ARC
  5
173C
330
18
100
AcDbEntity
  8
1
100
AcDbCircle
 10
79.71092543160001
 20
-3.207823920100011
 30
0.0
 40
9.854947147819393
100
AcDbArc
 50
122.995650808201
 51
128.7962128248997
  0
LINE
  5
173D
330
18
100
AcDbEntity
  8
1
100
AcDbLine
 10
74.3438438091
 20
5.057637603800001
 30
0.0
 11
74.61724842019998
 21
5.057637603800001
 31
0.0
  0
ARC
  5
173E
330
18
100
AcDbEntity
  8
1
100
AcDbCircle
 10
68.9568797635
 20
-3.478923800800004
 30
0.0
 40
10.24143323787644
100
AcDbArc
 50
50.93562949510001
 51
56.46327864319875
  0
ARC
  5
173F
330
18
100
AcDbEntity
  8
1
100
AcDbCircle
 10
75.72362299019999
 20
4.980923112100001
 30
0.0
 40
0.5965118959663136
100
AcDbArc
 50
238.3888523434989
 51
301.611147656501
  0
ARC
  5
1740
330
18
100
AcDbEntity
  8
1
100
AcDbCircle
 10
82.21092543160002
 20
-3.207823920100011
 30
0.0
 40
9.854947147776206
100
AcDbArc
 50
122.995650808201
 51
128.7962128249999
  0
LINE
  5
1741
330
18
100
AcDbEntity
  8
1
100
AcDbLine
 10
76.84645700319999
 20
5.057637603800001
 30
0.0
 11
77.11427543619997
 21
5.057637603800001
 31
0.0
  0
ARC
  5
1742
330
18
100
AcDbEntity
  8
1
100
AcDbCircle
 10
71.45687976350001
 20
-3.478923800800004
 30
0.0
 40
10.24143323788472
100
AcDbArc
 50
50.93562949510001
 51
56.46327864319875
  0
ARC
  5
1743
330
18
100
AcDbEntity
  8
1
100
AcDbCircle
 10
78.22362299019999
 20
4.980923112100001
 30
0.0
 40
0.596511895966362
100
AcDbArc
 50
238.3888523434989
 51
301.611147656501
  0
ARC
  5
1744
330
18
100
AcDbEntity
  8
1
100
AcDbCircle
 10
84.71092543160002
 20
-3.207823920100011
 30
0.0
 40
9.854947147780935
100
AcDbArc
 50
122.995650808201
 51
128.7962128249999
  0
LINE
  5
1745
330
18
100
AcDbEntity
  8
1
100
AcDbLine
 10
79.3415443188
 20
5.057637603800001
 30
0.0
 11
79.6164317514
 21
5.057637603800001
 31
0.0
  0
ARC
  5
1746
330
18
100
AcDbEntity
  8
1
100
AcDbCircle
 10
73.95687976350001
 20
-3.478923800700001
 30
0.0
 40
10.2414332378455
100
AcDbArc
 50
50.93562949510001
 51
56.46327864319875
  0
ARC
  5
1747
330
18
100
AcDbEntity
  8
1
100
AcDbCircle
 10
80.72362299019998
 20
4.980923112100001
 30
0.0
 40
0.596511895966299
100
AcDbArc
 50
238.3888523434989
 51
301.611147656501
  0
ARC
  5
1748
330
18
100
AcDbEntity
  8
1
100
AcDbCircle
 10
87.21092543160002
 20
-3.207823920100011
 30
0.0
 40
9.8549471477865
100
AcDbArc
 50
122.995650808201
 51
128.7962128249999
  0
LINE
  5
1749
330
18
100
AcDbEntity
  8
1
100
AcDbLine
 10
81.84477803160001
 20
5.057637603800001
 30
0.0
 11
82.11609933529997
 21
5.057637603800001
 31
0.0
  0
ARC
  5
174A
330
18
100
AcDbEntity
  8
1
100
AcDbCircle
 10
76.45687976350001
 20
-3.478923800800004
 30
0.0
 40
10.24143323787852
100
AcDbArc
 50
50.93562949510001
 51
56.46327864319875
  0
ARC
  5
174B
330
18
100
AcDbEntity
  8
1
100
AcDbCircle
 10
83.22362299019998
 20
4.980923112100001
 30
0.0
 40
0.5965118959661898
100
AcDbArc
 50
238.3888523434989
 51
301.611147656501
  0
ARC
  5
174C
330
18
100
AcDbEntity
  8
1
100
AcDbCircle
 10
89.71092543160002
 20
-3.207823920100011
 30
0.0
 40
9.854947147774987
100
AcDbArc
 50
122.995650808201
 51
128.7962128249999
  0
LINE
  5
174D
330
18
100
AcDbEntity
  8
1
100
AcDbLine
 10
84.34396971540001
 20
5.057637603800001
 30
0.0
 11
84.61475779990001
 21
5.057637603800001
 31
0.0
  0
ARC
  5
174E
330
18
100
AcDbEntity
  8
1
100
AcDbCircle
 10
78.95687976350001
 20
-3.478923800800004
 30
0.0
 40
10.24143323787941
100
AcDbArc
 50
50.93562949510001
 51
56.46327864319875
  0
ARC
  5
174F
330
18
100
AcDbEntity
  8
1
100
AcDbCircle
 10
85.72362299019998
 20
4.980923112100001
 30
0.0
 40
0.5965118959665743
100
AcDbArc
 50
238.3888523435984
 51
301.6111476564017
  0
ARC
  5
1750
330
18
100
AcDbEntity
  8
1
100
AcDbCircle
 10
92.21092543160001
 20
-3.207823920100011
 30
0.0
 40
9.854947147810168
100
AcDbArc
 50
122.995650808201
 51
128.7962128248997
  0
LINE
  5
1751
330
18
100
AcDbEntity
  8
1
100
AcDbLine
 10
86.84130575140001
 20
5.057637603800001
 30
0.0
 11
87.1139475919
 21
5.057637603800001
 31
0.0
  0
ARC
  5
1752
330
18
100
AcDbEntity
  8
1
100
AcDbCircle
 10
81.45687976340003
 20
-3.478923800800004
 30
0.0
 40
10.24143323790205
100
AcDbArc
 50
50.93562949510001
 51
56.46327864319875
  0
ARC
  5
1753
330
18
100
AcDbEntity
  8
1
100
AcDbCircle
 10
88.22362299019998
 20
4.980923112100001
 30
0.0
 40
0.5965118959666432
100
AcDbArc
 50
238.3888523435984
 51
301.6111476564017
  0
ARC
  5
1754
330
18
100
AcDbEntity
  8
1
100
AcDbCircle
 10
94.88536130209995
 20
-3.438905349400001
 30
0.0
 40
10.14434428986059
100
AcDbArc
 50
124.4281012206996
 51
128.7463242595013
  0
LINE
  5
1755
330
18
100
AcDbEntity
  8
1
100
AcDbLine
 10
89.15003694059997
 20
4.928518121399988
 30
0.0
 11
89.90532802019998
 21
4.858107053899985
 31
0.0
  0
ARC
  5
1756
330
18
100
AcDbEntity
  8
1
100
AcDbCircle
 10
83.60822081700002
 20
-3.93249549459999
 30
0.0
 40
10.81333677892645
100
AcDbArc
 50
51.01577404270042
 51
54.38425782540117
  0
ARC
  5
1757
330
18
100
AcDbEntity
  8
1
100
AcDbCircle
 10
90.72362299019999
 20
4.980923112100001
 30
0.0
 40
0.5965118959667734
100
AcDbArc
 50
238.3888523435984
 51
301.6111476564017
  0
ARC
  5
1758
330
18
100
AcDbEntity
  8
1
100
AcDbCircle
 10
97.65745446410001
 20
-3.791850452600001
 30
0.0
 40
10.58991431702723
100
AcDbArc
 50
126.5294723627999
 51
128.6993250782003
  0
LWPOLYLINE
  5
1759
330
18
100
AcDbEntity
  8
1
100
AcDbPolyline
 90
        3
 70
   128
 43
0.0
 10
91.3539540676
 20
4.717683494300002
 10
92.070327167
 20
4.645647902100007
 10
92.78673631980002
 20
4.571903308499996
  0
LINE
  5
175A
330
18
100
AcDbEntity
  8
1
100
AcDbLine
 10
92.78673631980002
 20
4.571903308499996
 30
0.0
 11
92.91096031909999
 21
4.472918686799999
 31
0.0
  0
ARC
  5
175B
330
18
100
AcDbEntity
  8
1
100
AcDbCircle
 10
93.22362299019999
 20
4.980923112100001
 30
0.0
 40
0.5965118959666043
100
AcDbArc
 50
238.3888523435984
 51
301.6111476564017
  0
LINE
  5
175C
330
18
100
AcDbEntity
  8
1
100
AcDbLine
 10
93.53628566139995
 20
4.472918686799999
 30
0.0
 11
93.5583919811
 21
4.490572451800003
 31
0.0
  0
LINE
  5
175D
330
18
100
AcDbEntity
  8
1
100
AcDbLine
 10
93.5583919811
 20
4.490572451800003
 30
0.0
 11
94.19999999999999
 21
4.4214541301
 31
0.0
  0
ARC
  5
175E
330
18
100
AcDbEntity
  8
1
100
AcDbCircle
 10
84.52768967539999
 20
-16.0943580256
 30
0.0
 40
22.6815373250012
100
AcDbArc
 50
62.50244368279986
 51
64.75816762630002
  0
LINE
  5
175F
330
18
100
AcDbEntity
  8
1
100
AcDbLine
 10
95.0
 20
3.517703368099986
 30
0.0
 11
95.0
 21
4.02485796040001
 31
0.0
  0
ARC
  5
1760
330
18
100
AcDbEntity
  8
1
100
AcDbCircle
 10
63.2819615304
 20
4.837696923300001
 30
0.0
 40
0.4446840737357855
100
AcDbArc
 50
275.7453094708986
 51
304.8842872779008
  0
ARC
  5
1761
330
18
100
AcDbEntity
  8
1
100
AcDbCircle
 10
-34.23885707670001
 20
1.20993890790001
 30
0.0
 40
98.92868862217319
100
AcDbArc
 50
2.229019543000164
 51
4.674270220600113
  0
ARC
  5
1762
330
18
100
AcDbEntity
  8
1
100
AcDbCircle
 10
-34.51099575619998
 20
1.20985921239999
 30
0.0
 40
98.93001570426513
100
AcDbArc
 50
2.229015502900268
 51
4.674245719700008
  0
LINE
  5
1763
330
18
100
AcDbEntity
  8
1
100
AcDbLine
 10
64.35825150350003
 20
9.271720466800005
 30
0.0
 11
64.09027086049997
 21
9.271720466800005
 31
0.0
  0
ARC
  5
1764
330
18
100
AcDbEntity
  8
1
100
AcDbCircle
 10
-11.73841820929999
 20
1.209957371
 30
0.0
 40
98.92824948637837
100
AcDbArc
 50
2.229009135200245
 51
4.674287200000249
  0
ARC
  5
1765
330
18
100
AcDbEntity
  8
1
100
AcDbCircle
 10
-12.00901258649998
 20
1.209987267499995
 30
0.0
 40
98.9280284617207
100
AcDbArc
 50
2.229034494899775
 51
4.674272632399527
  0
LINE
  5
1766
330
18
100
AcDbEntity
  8
1
100
AcDbLine
 10
86.85893069580004
 20
9.271720466800005
 30
0.0
 11
86.58775725459999
 21
9.271720466800005
 31
0.0
  0
ARC
  5
1767
330
18
100
AcDbEntity
  8
1
100
AcDbCircle
 10
-19.24004679649999
 20
1.209865408899985
 30
0.0
 40
98.92988057240204
100
AcDbArc
 50
2.229013065000359
 51
4.674250366900365
  0
ARC
  5
1768
330
18
100
AcDbEntity
  8
1
100
AcDbCircle
 10
-19.50962718419997
 20
1.209953273600007
 30
0.0
 40
98.92864395680987
100
AcDbArc
 50
2.229037029700389
 51
4.674257938600391
  0
LINE
  5
1769
330
18
100
AcDbEntity
  8
1
100
AcDbLine
 10
79.36082389849996
 20
9.271720466800005
 30
0.0
 11
79.08999196849999
 21
9.271720466800005
 31
0.0
  0
ARC
  5
176A
330
18
100
AcDbEntity
  8
1
100
AcDbCircle
 10
-29.23841921019999
 20
1.209954793600005
 30
0.0
 40
98.92825065031289
100
AcDbArc
 50
2.229005407899825
 51
4.6742899914002
  0
ARC
  5
176B
330
18
100
AcDbEntity
  8
1
100
AcDbCircle
 10
-29.50984345820001
 20
1.209939917499994
 30
0.0
 40
98.92886063595588
100
AcDbArc
 50
2.229035859399902
 51
4.674254323899837
  0
LINE
  5
176C
330
18
100
AcDbEntity
  8
1
100
AcDbLine
 10
69.3587413865
 20
9.271720466800005
 30
0.0
 11
69.09023514720002
 21
9.271720466800005
 31
0.0
  0
ARC
  5
176D
330
18
100
AcDbEntity
  8
1
100
AcDbCircle
 10
-21.73938290889998
 20
1.209905728500004
 30
0.0
 40
98.92921548466576
100
AcDbArc
 50
2.229015652599998
 51
4.674262220699851
  0
ARC
  5
176E
330
18
100
AcDbEntity
  8
1
100
AcDbCircle
 10
-22.01145031739998
 20
1.209821151799999
 30
0.0
 40
98.93047175725122
100
AcDbArc
 50
2.228998264199719
 51
4.674249273300001
  0
LINE
  5
176F
330
18
100
AcDbEntity
  8
1
100
AcDbLine
 10
76.86026969080002
 20
9.271720466800005
 30
0.0
 11
76.58951701310001
 21
9.271720466800005
 31
0.0
  0
ARC
  5
1770
330
18
100
AcDbEntity
  8
1
100
AcDbCircle
 10
-24.23896313860002
 20
1.2099205337
 30
0.0
 40
98.92879564056787
100
AcDbArc
 50
2.229001474599952
 51
4.674281647399968
  0
ARC
  5
1771
330
18
100
AcDbEntity
  8
1
100
AcDbCircle
 10
-24.5105177616
 20
1.209889423399999
 30
0.0
 40
98.92953676991501
100
AcDbArc
 50
2.229019113400207
 51
4.674252935900011
  0
LINE
  5
1772
330
18
100
AcDbEntity
  8
1
100
AcDbLine
 10
74.3590783706
 20
9.271720466800005
 30
0.0
 11
74.0899570514
 21
9.271720466800005
 31
0.0
  0
ARC
  5
1773
330
18
100
AcDbEntity
  8
1
100
AcDbCircle
 10
-16.74104901300001
 20
1.209813397900004
 30
0.0
 40
98.93088403291034
100
AcDbArc
 50
2.229022261700043
 51
4.67422258640004
  0
ARC
  5
1774
330
18
100
AcDbEntity
  8
1
100
AcDbCircle
 10
-17.0110145772
 20
1.20985639780001
 30
0.0
 40
98.93003466638576
100
AcDbArc
 50
2.229012956300095
 51
4.674247249700449
  0
LINE
  5
1775
330
18
100
AcDbEntity
  8
1
100
AcDbLine
 10
81.86233515560003
 20
9.271720466800005
 30
0.0
 11
81.59048567050001
 21
9.271720466800005
 31
0.0
  0
ARC
  5
1776
330
18
100
AcDbEntity
  8
1
100
AcDbCircle
 10
-31.73947155389999
 20
1.209899313500002
 30
0.0
 40
98.92930435602831
100
AcDbArc
 50
2.229013781200273
 51
4.674261789100348
  0
ARC
  5
1777
330
18
100
AcDbEntity
  8
1
100
AcDbCircle
 10
-32.00983253610002
 20
1.209930490699989
 30
0.0
 40
98.9288503408539
100
AcDbArc
 50
2.229020973000245
 51
4.674265782699568
  0
LINE
  5
1778
330
18
100
AcDbEntity
  8
1
100
AcDbLine
 10
66.86026060739999
 20
9.271720466800005
 30
0.0
 11
66.58811616410003
 21
9.271720466800005
 31
0.0
  0
ARC
  5
1779
330
18
100
AcDbEntity
  8
1
100
AcDbCircle
 10
-26.73811585559997
 20
1.209970768499998
 30
0.0
 40
98.9279469042907
100
AcDbArc
 50
2.229002967499845
 51
4.674298141400302
  0
ARC
  5
177A
330
18
100
AcDbEntity
  8
1
100
AcDbCircle
 10
-27.01073348400001
 20
1.209873580299998
 30
0.0
 40
98.92975305800987
100
AcDbArc
 50
2.229014216099903
 51
4.674252144700159
  0
LINE
  5
177B
330
18
100
AcDbEntity
  8
1
100
AcDbLine
 10
71.85829927539998
 20
9.271720466800005
 30
0.0
 11
71.58990360910002
 21
9.271720466800005
 31
0.0
  0
ARC
  5
177C
330
18
100
AcDbEntity
  8
1
100
AcDbCircle
 10
-14.23898023510003
 20
1.209925226599992
 30
0.0
 40
98.92881240061214
100
AcDbArc
 50
2.229009887499934
 51
4.67427494440005
  0
ARC
  5
177D
330
18
100
AcDbEntity
  8
1
100
AcDbCircle
 10
-14.51097328750001
 20
1.2098649717
 30
0.0
 40
98.92999291325523
100
AcDbArc
 50
2.229022092599909
 51
4.674241215099896
  0
LINE
  5
177E
330
18
100
AcDbEntity
  8
1
100
AcDbLine
 10
84.35954976319999
 20
9.271720466800005
 30
0.0
 11
84.0917981153
 21
9.271720466800005
 31
0.0
  0
ARC
  5
177F
330
18
100
AcDbEntity
  8
1
100
AcDbCircle
 10
-9.290589333699983
 20
0.9997753817000043
 30
0.0
 40
74.78224551951988
100
AcDbArc
 50
2.661969560799771
 51
5.336410531600343
  0
ARC
  5
1780
330
18
100
AcDbEntity
  8
1
100
AcDbCircle
 10
123.5873737768
 20
44.64696701139996
 30
0.0
 40
68.98691647551813
100
AcDbArc
 50
210.8493133058999
 51
212.1320102350988
  0
ARC
  5
1781
330
18
100
AcDbEntity
  8
1
100
AcDbCircle
 10
11.3347351703
 20
0.9997753295000107
 30
0.0
 40
74.7822463594334
100
AcDbArc
 50
2.661969568600259
 51
5.336410499300316
  0
ARC
  5
1782
330
18
100
AcDbEntity
  8
1
100
AcDbCircle
 10
41.77110577579997
 20
35.50025768139999
 30
0.0
 40
51.92945739783122
100
AcDbArc
 50
327.9647818285007
 51
329.6633281298005
  0
ARC
  5
1783
330
18
100
AcDbEntity
  8
1
100
AcDbCircle
 10
3.834735179300025
 20
0.9997753303000108
 30
0.0
 40
74.78224635038839
100
AcDbArc
 50
2.661969568900174
 51
5.33641049940013
  0
ARC
  5
1784
330
18
100
AcDbEntity
  8
1
100
AcDbCircle
 10
34.2711057761
 20
35.5002576813
 30
0.0
 40
51.92945739757597
100
AcDbArc
 50
327.9647818285007
 51
329.6633281298005
  0
ARC
  5
1785
330
18
100
AcDbEntity
  8
1
100
AcDbCircle
 10
-1.790590078600016
 20
0.9997753371000044
 30
0.0
 40
74.78224626573643
100
AcDbArc
 50
2.661969571400145
 51
5.336410500199954
  0
ARC
  5
1786
330
18
100
AcDbEntity
  8
1
100
AcDbCircle
 10
131.0873737768
 20
44.64696701139996
 30
0.0
 40
68.98691647549577
100
AcDbArc
 50
210.8493133058999
 51
212.1320102350988
  0
ARC
  5
1787
330
18
100
AcDbEntity
  8
1
100
AcDbCircle
 10
-6.165263794400003
 20
0.9997753946000074
 30
0.0
 40
74.78224532217139
100
AcDbArc
 50
2.66196956010041
 51
5.336410538300508
  0
ARC
  5
1788
330
18
100
AcDbEntity
  8
1
100
AcDbCircle
 10
24.27110577579998
 20
35.50025768139999
 30
0.0
 40
51.92945739783702
100
AcDbArc
 50
327.9647818285007
 51
329.6633281298005
  0
ARC
  5
1789
330
18
100
AcDbEntity
  8
1
100
AcDbCircle
 10
1.334736022000014
 20
0.9997753835000079
 30
0.0
 40
74.78224550610017
100
AcDbArc
 50
2.661969562500038
 51
5.336410530699893
  0
ARC
  5
178A
330
18
100
AcDbEntity
  8
1
100
AcDbCircle
 10
31.77110577590003
 20
35.50025768139999
 30
0.0
 40
51.92945739769986
100
AcDbArc
 50
327.9647818285007
 51
329.6633281298005
  0
ARC
  5
178B
330
18
100
AcDbEntity
  8
1
100
AcDbCircle
 10
0.7094099170000164
 20
0.999775336799999
 30
0.0
 40
74.78224627013974
100
AcDbArc
 50
2.661969571299798
 51
5.336410500100137
  0
ARC
  5
178C
330
18
100
AcDbEntity
  8
1
100
AcDbCircle
 10
133.5873737765999
 20
44.64696701130002
 30
0.0
 40
68.98691647535549
100
AcDbArc
 50
210.8493133058999
 51
212.1320102350988
  0
ARC
  5
178D
330
18
100
AcDbEntity
  8
1
100
AcDbCircle
 10
-4.290590100100017
 20
0.9997753354000023
 30
0.0
 40
74.7822462873049
100
AcDbArc
 50
2.661969570800162
 51
5.336410500000327
  0
ARC
  5
178E
330
18
100
AcDbEntity
  8
1
100
AcDbCircle
 10
128.587373777
 20
44.64696701159996
 30
0.0
 40
68.98691647582558
100
AcDbArc
 50
210.8493133058999
 51
212.1320102350988
  0
ARC
  5
178F
330
18
100
AcDbEntity
  8
1
100
AcDbCircle
 10
-8.665264727299984
 20
0.9997753375999991
 30
0.0
 40
74.7822462567079
100
AcDbArc
 50
2.661969570999884
 51
5.336410500800151
  0
ARC
  5
1790
330
18
100
AcDbEntity
  8
1
100
AcDbCircle
 10
21.77110577590003
 20
35.50025768139999
 30
0.0
 40
51.92945739774128
100
AcDbArc
 50
327.9647818285007
 51
329.6633281298005
  0
ARC
  5
1791
330
18
100
AcDbEntity
  8
1
100
AcDbCircle
 10
13.20941049390001
 20
0.9997753722999933
 30
0.0
 40
74.78224569215327
100
AcDbArc
 50
2.661969564999856
 51
5.336410523000074
  0
ARC
  5
1792
330
18
100
AcDbEntity
  8
1
100
AcDbCircle
 10
146.0873737769
 20
44.64696701149999
 30
0.0
 40
68.98691647571488
100
AcDbArc
 50
210.8493133060004
 51
212.1320102350988
  0
ARC
  5
1793
330
18
100
AcDbEntity
  8
1
100
AcDbCircle
 10
8.834735854299992
 20
0.9997753732999967
 30
0.0
 40
74.78224567413689
100
AcDbArc
 50
2.661969564699941
 51
5.336410523799593
  0
ARC
  5
1794
330
18
100
AcDbEntity
  8
1
100
AcDbCircle
 10
39.2711057761
 20
35.5002576813
 30
0.0
 40
51.92945739757624
100
AcDbArc
 50
327.9647818285007
 51
329.6633281298005
  0
ARC
  5
1795
330
18
100
AcDbEntity
  8
1
100
AcDbCircle
 10
8.209409909600026
 20
0.9997753362000024
 30
0.0
 40
74.78224627754681
100
AcDbArc
 50
2.661969571100076
 51
5.336410500100137
  0
ARC
  5
1796
330
18
100
AcDbEntity
  8
1
100
AcDbCircle
 10
141.0873737767
 20
44.64696701139996
 30
0.0
 40
68.98691647545961
100
AcDbArc
 50
210.8493133058999
 51
212.1320102350988
  0
ARC
  5
1797
330
18
100
AcDbEntity
  8
1
100
AcDbCircle
 10
5.709409901500009
 20
0.9997753354999899
 30
0.0
 40
74.78224628564333
100
AcDbArc
 50
2.661969570800162
 51
5.336410500000327
  0
ARC
  5
1798
330
18
100
AcDbEntity
  8
1
100
AcDbCircle
 10
138.5873737765
 20
44.64696701130002
 30
0.0
 40
68.98691647519772
100
AcDbArc
 50
210.8493133058999
 51
212.1320102350988
  0
ARC
  5
1799
330
18
100
AcDbEntity
  8
1
100
AcDbCircle
 10
10.70940991930001
 20
0.9997753370000026
 30
0.0
 40
74.78224626776228
100
AcDbArc
 50
2.661969571400145
 51
5.336410500199954
  0
ARC
  5
179A
330
18
100
AcDbEntity
  8
1
100
AcDbCircle
 10
143.5873737769
 20
44.64696701149999
 30
0.0
 40
68.98691647571571
100
AcDbArc
 50
210.8493133058999
 51
212.1320102350988
  0
ARC
  5
179B
330
18
100
AcDbEntity
  8
1
100
AcDbCircle
 10
3.209409903099981
 20
0.9997753356999934
 30
0.0
 40
74.78224628408526
100
AcDbArc
 50
2.661969570899691
 51
5.336410500000327
  0
ARC
  5
179C
330
18
100
AcDbEntity
  8
1
100
AcDbCircle
 10
136.0873737768
 20
44.64696701139996
 30
0.0
 40
68.98691647552261
100
AcDbArc
 50
210.8493133058999
 51
212.1320102350988
  0
ARC
  5
179D
330
18
100
AcDbEntity
  8
1
100
AcDbCircle
 10
6.334735281400012
 20
0.9997753381999956
 30
0.0
 40
74.78224624797795
100
AcDbArc
 50
2.661969571199606
 51
5.336410500899964
  0
ARC
  5
179E
330
18
100
AcDbEntity
  8
1
100
AcDbCircle
 10
36.7711057762
 20
35.50025768120001
 30
0.0
 40
51.92945739744931
100
AcDbArc
 50
327.9647818285007
 51
329.6633281298005
  0
ARC
  5
179F
330
18
100
AcDbEntity
  8
1
100
AcDbCircle
 10
-6.790590124199978
 20
0.9997753333999952
 30
0.0
 40
74.7822463114338
100
AcDbArc
 50
2.661969569999794
 51
5.33641049979989
  0
ARC
  5
17A0
330
18
100
AcDbEntity
  8
1
100
AcDbCircle
 10
126.0873737767
 20
44.64696701139996
 30
0.0
 40
68.98691647541546
100
AcDbArc
 50
210.8493133058999
 51
212.1320102350988
  0
ARC
  5
17A1
330
18
100
AcDbEntity
  8
1
100
AcDbCircle
 10
-11.16521253539997
 20
0.9997785369000098
 30
0.0
 40
74.78219397262366
100
AcDbArc
 50
2.661968976399607
 51
5.336412588999967
  0
LINE
  5
17A2
330
18
100
AcDbEntity
  8
1
100
AcDbLine
 10
63.32647734470004
 20
8.008503632499994
 30
0.0
 11
63.29285998879999
 21
7.954774680799999
 31
0.0
  0
ARC
  5
17A3
330
18
100
AcDbEntity
  8
1
100
AcDbCircle
 10
19.12517722090001
 20
35.58697180110001
 30
0.0
 40
52.09920190513352
100
AcDbArc
 50
328.0387692904989
 51
329.6620799707999
  0
ARC
  5
17A4
330
18
100
AcDbEntity
  8
1
100
AcDbCircle
 10
-1.165264720600021
 20
0.999775337999992
 30
0.0
 40
74.78224625000213
100
AcDbArc
 50
2.661969571100076
 51
5.336410500899964
  0
ARC
  5
17A5
330
18
100
AcDbEntity
  8
1
100
AcDbCircle
 10
29.2711057761
 20
35.5002576813
 30
0.0
 40
51.92945739752524
100
AcDbArc
 50
327.9647818285007
 51
329.6633281298005
  0
ARC
  5
17A6
330
18
100
AcDbEntity
  8
1
100
AcDbCircle
 10
-3.665264810099982
 20
0.9997753310999968
 30
0.0
 40
74.78224633978836
100
AcDbArc
 50
2.661969569200088
 51
5.336410499499941
  0
ARC
  5
17A7
330
18
100
AcDbEntity
  8
1
100
AcDbCircle
 10
26.7711057757
 20
35.5002576815
 30
0.0
 40
51.92945739797067
100
AcDbArc
 50
327.9647818285007
 51
329.6633281298005
  0
ARC
  5
17A8
330
18
100
AcDbEntity
  8
1
100
AcDbCircle
 10
213.2030487252
 20
2.075326357500003
 30
0.0
 40
122.5409809661954
100
AcDbArc
 50
182.6300348745998
 51
184.4693512994003
  0
ARC
  5
17A9
330
18
100
AcDbEntity
  8
1
100
AcDbCircle
 10
135.6816565504999
 20
-36.3804647537
 30
0.0
 40
53.1878522636598
100
AcDbArc
 50
147.0789521642005
 51
147.9020382364995
  0
ARC
  5
17AA
330
18
100
AcDbEntity
  8
1
100
AcDbCircle
 10
-21.42109779949999
 20
0.9550389396000014
 30
0.0
 40
110.6425070870593
100
AcDbArc
 50
2.05809285090038
 51
4.168747667800301
  0
ARC
  5
17AB
330
18
100
AcDbEntity
  8
1
100
AcDbCircle
 10
13.83473526429998
 20
0.999775337199992
 30
0.0
 40
74.78224626516237
100
AcDbArc
 50
2.661969571400145
 51
5.336410500199954
  0
ARC
  5
17AC
330
18
100
AcDbEntity
  8
1
100
AcDbCircle
 10
45.30528072409999
 20
34.8673225406
 30
0.0
 40
50.71703135726174
100
AcDbArc
 50
327.9512082656008
 51
329.3315344959992
  0
LINE
  5
17AD
330
18
100
AcDbEntity
  8
1
100
AcDbLine
 10
89.61773061260004
 20
8.84514943469999
 30
0.0
 11
88.92867987089998
 21
8.9981069249
 31
0.0
  0
ARC
  5
17AE
330
18
100
AcDbEntity
  8
1
100
AcDbCircle
 10
7.069761482800004
 20
0.8868213063999943
 30
0.0
 40
82.93070718407031
100
AcDbArc
 50
2.74476093440013
 51
5.506782679200322
  0
ARC
  5
17AF
330
18
100
AcDbEntity
  8
1
100
AcDbCircle
 10
237.8590648086
 20
1.884834996099995
 30
0.0
 40
146.2794647529477
100
AcDbArc
 50
182.1965937459003
 51
183.8157548934998
  0
ARC
  5
17B0
330
18
100
AcDbEntity
  8
1
100
AcDbCircle
 10
37.73222302750003
 20
-42.7122896999
 30
0.0
 40
64.42018294689995
100
AcDbArc
 50
32.76354270130047
 51
33.16215520630021
  0
ARC
  5
17B1
330
18
100
AcDbEntity
  8
1
100
AcDbCircle
 10
213.8283756502
 20
2.075326455299999
 30
0.0
 40
122.5409825518223
100
AcDbArc
 50
182.6300348664002
 51
184.4693512791002
  0
ARC
  5
17B2
330
18
100
AcDbEntity
  8
1
100
AcDbCircle
 10
196.8869342063
 20
1.8615123143
 30
0.0
 40
103.8057723706416
100
AcDbArc
 50
183.0115791620004
 51
185.1843415553998
  0
LWPOLYLINE
  5
17B3
330
18
100
AcDbEntity
  8
1
100
AcDbPolyline
 90
        3
 70
   128
 43
0.0
 10
91.90387136099998
 20
-7.849810044099996
 10
92.7048236228
 20
-7.683498013899992
 10
93.50581770050002
 20
-7.518419854100002
  0
ARC
  5
17B4
330
18
100
AcDbEntity
  8
1
100
AcDbCircle
 10
15.70941006150002
 20
0.9997753455999855
 30
0.0
 40
74.78224612537959
100
AcDbArc
 50
2.661969569600349
 51
5.336410506000176
  0
ARC
  5
17B5
330
18
100
AcDbEntity
  8
1
100
AcDbCircle
 10
147.6527749870999
 20
44.0666610951
 30
0.0
 40
67.88682684577903
100
AcDbArc
 50
211.2535948591
 51
212.1367949896004
  0
ARC
  5
17B6
330
18
100
AcDbEntity
  8
1
100
AcDbCircle
 10
215.7030477944
 20
2.075326310400001
 30
0.0
 40
122.5409800343637
100
AcDbArc
 50
182.6300348616
 51
184.4693513232
  0
LINE
  5
17B7
330
18
100
AcDbEntity
  8
1
100
AcDbLine
 10
93.50581770050002
 20
-7.518419854100002
 30
0.0
 11
93.5346952128
 21
-7.473779164899994
 31
0.0
  0
LINE
  5
17B8
330
18
100
AcDbEntity
  8
1
100
AcDbLine
 10
60.07148518869996
 20
7.101937620200003
 30
0.0
 11
60.07148518869996
 21
3.971599164300002
 31
0.0
  0
ARC
  5
17B9
330
18
100
AcDbEntity
  8
1
100
AcDbCircle
 10
60.15492403730004
 20
10.1282413755
 30
0.0
 40
3.027453791639273
100
AcDbArc
 50
268.420686279401
 51
320.8724353421005
  0
ARC
  5
17BA
330
18
100
AcDbEntity
  8
1
100
AcDbCircle
 10
-52.52918118930001
 20
2.171499145599995
 30
0.0
 40
115.1914214842213
100
AcDbArc
 50
1.251892182700192
 51
3.008774734000002
  0
ARC
  5
17BB
330
18
100
AcDbEntity
  8
1
100
AcDbCircle
 10
60.1340314949
 20
8.690580248299994
 30
0.0
 40
4.719395566333713
100
AcDbArc
 50
269.2406349004991
 51
301.9973470982007
  0
ARC
  5
17BC
330
18
100
AcDbEntity
  8
1
100
AcDbCircle
 10
62.55451182069998
 20
-161.0724835568
 30
0.0
 40
165.0627597688656
100
AcDbArc
 50
90.86192859469909
 51
94.33661761410096
  0
LWPOLYLINE
  5
17BD
330
18
100
AcDbEntity
  8
1
100
AcDbPolyline
 90
        3
 70
   128
 43
0.0
 10
62.63474480560001
 20
4.688190031300009
 10
62.77273166170004
 20
4.582231908899981
 10
62.9109816519
 20
4.472522962799999
  0
ARC
  5
17BE
330
18
100
AcDbEntity
  8
1
100
AcDbCircle
 10
63.21876786580002
 20
4.971766261300004
 30
0.0
 40
0.5864948631025975
100
AcDbArc
 50
238.3459415840995
 51
280.5824045442995
  0
ARC
  5
17BF
330
18
100
AcDbEntity
  8
1
100
AcDbCircle
 10
-8.607776571099975
 20
0.8907831329000115
 30
0.0
 40
100.0349576831662
100
AcDbArc
 50
2.192421148100065
 51
4.36909724669993
  0
ARC
  5
17C0
330
18
100
AcDbEntity
  8
1
100
AcDbCircle
 10
16.33473570500001
 20
0.9997753642000047
 30
0.0
 40
74.78224582367068
100
AcDbArc
 50
2.661969566499734
 51
5.336410517799745
  0
ARC
  5
17C1
330
18
100
AcDbEntity
  8
1
100
AcDbCircle
 10
49.64840002929996
 20
33.73078486679999
 30
0.0
 40
48.55171830117232
100
AcDbArc
 50
327.9338493180994
 51
328.7059829522001
  0
LINE
  5
17C2
330
18
100
AcDbEntity
  8
1
100
AcDbLine
 10
17.41905249809997
 20
8.0
 30
0.0
 11
17.41905249809997
 21
-8.0
 31
0.0
  0
ARC
  5
17C3
330
18
100
AcDbEntity
  8
1
100
AcDbCircle
 10
63.84735788400003
 20
-7.695982732899992
 30
0.0
 40
0.3835783773893682
100
AcDbArc
 50
35.40070293339971
 51
144.5992970666003
  0
ARC
  5
17C4
330
18
100
AcDbEntity
  8
1
100
AcDbCircle
 10
83.84735788400002
 20
-7.695982732899992
 30
0.0
 40
0.3835783773893517
100
AcDbArc
 50
35.40070293339971
 51
144.5992970666003
  0
ARC
  5
17C5
330
18
100
AcDbEntity
  8
1
100
AcDbCircle
 10
68.84735788400002
 20
-7.695982732899992
 30
0.0
 40
0.3835783773893764
100
AcDbArc
 50
35.40070293339971
 51
144.5992970666003
  0
ARC
  5
17C6
330
18
100
AcDbEntity
  8
1
100
AcDbCircle
 10
251.4236131189
 20
2.719667658800004
 30
0.0
 40
157.6568762710369
100
AcDbArc
 50
182.2727498900001
 51
183.6796640764996
  0
ARC
  5
17C7
330
18
100
AcDbEntity
  8
1
100
AcDbCircle
 10
93.84887256590003
 20
-7.699748830200007
 30
0.0
 40
0.3870009028973262
100
AcDbArc
 50
51.12700832209966
 51
144.2747115143999
  0
ARC
  5
17C8
330
18
100
AcDbEntity
  8
1
100
AcDbCircle
 10
86.34735788400002
 20
-7.695982732899992
 30
0.0
 40
0.3835783773893353
100
AcDbArc
 50
35.40070293339971
 51
144.5992970666003
  0
ARC
  5
17C9
330
18
100
AcDbEntity
  8
1
100
AcDbCircle
 10
91.34735788400002
 20
-7.695982732899992
 30
0.0
 40
0.3835783773894341
100
AcDbArc
 50
35.40070293339971
 51
144.5992970666003
  0
ARC
  5
17CA
330
18
100
AcDbEntity
  8
1
100
AcDbCircle
 10
88.84735788400002
 20
-7.695982732899992
 30
0.0
 40
0.3835783773893188
100
AcDbArc
 50
35.40070293339971
 51
144.5992970666003
  0
ARC
  5
17CB
330
18
100
AcDbEntity
  8
1
100
AcDbCircle
 10
66.34735788400002
 20
-7.695982732899992
 30
0.0
 40
0.3835783773893667
100
AcDbArc
 50
35.40070293339971
 51
144.5992970666003
  0
ARC
  5
17CC
330
18
100
AcDbEntity
  8
1
100
AcDbCircle
 10
71.34735788400002
 20
-7.695982732899992
 30
0.0
 40
0.3835783773894011
100
AcDbArc
 50
35.40070293339971
 51
144.5992970666003
  0
ARC
  5
17CD
330
18
100
AcDbEntity
  8
1
100
AcDbCircle
 10
73.84735788400002
 20
-7.695982732899992
 30
0.0
 40
0.3835783773893615
100
AcDbArc
 50
35.40070293339971
 51
144.5992970666003
  0
ARC
  5
17CE
330
18
100
AcDbEntity
  8
1
100
AcDbCircle
 10
76.34735788400002
 20
-7.695982732899992
 30
0.0
 40
0.3835783773893615
100
AcDbArc
 50
35.40070293339971
 51
144.5992970666003
  0
ARC
  5
17CF
330
18
100
AcDbEntity
  8
1
100
AcDbCircle
 10
81.34735788400002
 20
-7.695982732899992
 30
0.0
 40
0.3835783773893368
100
AcDbArc
 50
35.40070293339971
 51
144.5992970666003
  0
ARC
  5
17D0
330
18
100
AcDbEntity
  8
1
100
AcDbCircle
 10
78.84735788400002
 20
-7.695982732899992
 30
0.0
 40
0.3835783773893615
100
AcDbArc
 50
35.40070293339971
 51
144.5992970666003
  0
LWPOLYLINE
  5
17D1
330
18
100
AcDbEntity
  8
1
100
AcDbPolyline
 90
        3
 70
   128
 43
0.0
 10
92.50469297630004
 20
8.215289095900004
 10
91.82057475560005
 20
8.362928561200009
 10
91.13647812219999
 20
8.511571434299995
  0
ARC
  5
17D2
330
18
100
AcDbEntity
  8
1
100
AcDbCircle
 10
21.47502302750002
 20
0.8841000904999845
 30
0.0
 40
71.40700487536434
100
AcDbArc
 50
2.960348230399688
 51
5.892806149599846
  0
ARC
  5
17D3
330
18
100
AcDbEntity
  8
1
100
AcDbCircle
 10
-11.77595589689997
 20
1.000564106300003
 30
0.0
 40
74.76759417502965
100
AcDbArc
 50
2.66158292750022
 51
5.337160900599752
  0
LWPOLYLINE
  5
17D4
330
18
100
AcDbEntity
  8
1
100
AcDbPolyline
 90
        3
 70
   128
 43
0.0
 10
62.66748928380002
 20
7.95517468989999
 10
62.5854942629
 20
8.086090406899995
 10
62.50344983000002
 20
8.2177694282
  0
LINE
  5
17D5
330
18
100
AcDbEntity
  8
1
100
AcDbLine
 10
94.19999999999999
 20
-3.503994445300008
 30
0.0
 11
94.19999999999999
 21
-7.376363831499998
 31
0.0
  0
LINE
  5
17D6
330
18
100
AcDbEntity
  8
1
100
AcDbLine
 10
94.09175283739999
 20
-7.398453505600002
 30
0.0
 11
94.19999999999999
 21
-7.376363831499998
 31
0.0
  0
LINE
  5
17D7
330
18
100
AcDbEntity
  8
1
100
AcDbLine
 10
95.0
 20
-6.681356029900001
 30
0.0
 11
95.0
 21
-3.153109364900003
 31
0.0
  0
ARC
  5
17D8
330
18
100
AcDbEntity
  8
1
100
AcDbCircle
 10
136.0384466688
 20
-54.7272559189
 30
0.0
 40
63.18672804578628
100
AcDbArc
 50
130.5023247321014
 51
131.4632700261992
  0
LWPOLYLINE
  5
17D9
330
18
100
AcDbEntity
  8
1
100
AcDbPolyline
 90
       69
 70
   128
 43
0.0
 10
39.09418114350001
 20
7.749997880099996
 10
39.09871083230001
 20
7.749996334400009
 10
39.10600970140001
 20
7.749975968599996
 10
39.11345992320003
 20
7.749938115999995
 10
39.12259300670001
 20
7.749870237600005
 10
39.13193285419999
 20
7.749778535300007
 10
39.14147119170003
 20
7.749663728699998
 10
39.15119974499999
 20
7.749526537400001
 10
39.16111024029999
 20
7.749367681300014
 10
39.17192676690002
 20
7.749174149199999
 10
39.18293963960002
 20
7.748957270400012
 10
39.19414049549999
 20
7.748717828500003
 10
39.20552097180001
 20
7.748456607400001
 10
39.21707270590002
 20
7.748174390900002
 10
39.23166495470002
 20
7.747795331399982
 10
39.2465044928
 20
7.747386137100007
 10
39.26157947120004
 20
7.746948010300003
 10
39.27687804100003
 20
7.746482153399995
 10
39.29238835320001
 20
7.745989768499995
 10
39.30809855889999
 20
7.74547205809999
 10
39.32399680909997
 20
7.744930224400008
 10
39.34654760040002
 20
7.744133341000007
 10
39.36943921800003
 20
7.743293338800014
 10
39.39264989700001
 20
7.7424126059
 10
39.41615787270001
 20
7.741493530300004
 10
39.43994138030002
 20
7.740538500300004
 10
39.47002848369999
 20
7.739297514699982
 10
39.50050176119999
 20
7.738006670200007
 10
39.53133235040002
 20
7.736669334200001
 10
39.562491389
 20
7.735288874099992
 10
39.59595805800001
 20
7.733777056000007
 10
39.6297541523
 20
7.732222550100003
 10
39.66385578990003
 20
7.730628291200003
 10
39.69823908910001
 20
7.728997214199992
 10
39.75235811099998
 20
7.726387842999982
 10
39.80707159960002
 20
7.723703456699992
 10
39.8623335585
 20
7.720950183399992
 10
39.91809799139998
 20
7.718134151300006
 10
39.974318902
 20
7.715261488700008
 10
40.03095029389998
 20
7.712338323999986
 10
40.08794617080002
 20
7.709370785200007
 10
40.1452605365
 20
7.706365000699987
 10
40.2374793491
 20
7.701490745499993
 10
40.33043664300004
 20
7.696537219999996
 10
40.42405436280001
 20
7.691515846900003
 10
40.51825445299999
 20
7.686438048700011
 10
40.61295885840002
 20
7.68131524819999
 10
40.73193344399999
 20
7.674863965499992
 10
40.85157501449997
 20
7.66836659079999
 10
40.97180783750002
 20
7.661834920900004
 10
41.09255618059999
 20
7.655280752800009
 10
41.26593510570001
 20
7.645892612199984
 10
41.44016918210001
 20
7.636497265499983
 10
41.61513616630003
 20
7.627114528600002
 10
41.85147765419997
 20
7.614545060499992
 10
42.0888567109
 20
7.602057422
 10
42.3271361152
 20
7.589674181100007
 10
42.56617864589997
 20
7.577417905599986
 10
42.80584708169999
 20
7.565311163299996
 10
43.10610072370002
 20
7.5504166682
 10
43.40716255870001
 20
7.5357947894
 10
43.7089187048
 20
7.521462470800003
 10
44.01125528049999
 20
7.507436656599992
 10
44.41510782929998
 20
7.4892353508
 10
44.81977430220001
 20
7.471614661100003
 10
45.22511564220002
 20
7.454588995899995
 10
45.64101315049997
 20
7.437772981799994
 10
46.05745702619997
 20
7.421594286100002
 10
46.47436078599996
 20
7.406054608999992
  0
ARC
  5
17DA
330
18
100
AcDbEntity
  8
1
100
AcDbCircle
 10
63.50195403010002
 20
464.5957847921001
 30
0.0
 40
457.5067084935652
100
AcDbArc
 50
267.8670594644
 51
269.5703817571992
  0
LWPOLYLINE
  5
17DB
330
18
100
AcDbEntity
  8
1
100
AcDbPolyline
 90
      219
 70
   128
 43
0.0
 10
50.07312445720003
 20
3.517703368099986
 10
49.47575359529998
 20
3.469217299299998
 10
48.8788006913
 20
3.416526416799996
 10
48.28235442049997
 20
3.359284621499995
 10
47.83537052609999
 20
3.313148639999993
 10
47.3887409206
 20
3.264048536399996
 10
46.94252959150003
 20
3.211767531900008
 10
46.49680052649999
 20
3.156088847600003
 10
46.05155273029999
 20
3.096777083999993
 10
45.60689323949998
 20
3.033511666599991
 10
45.16294499849999
 20
2.96593475819999
 10
44.71983095149999
 20
2.893688521699997
 10
44.36235430069999
 20
2.831634328199996
 10
44.00553497790002
 20
2.765971534199989
 10
43.64952545139999
 20
2.696331795899993
 10
43.29447818979995
 20
2.622346769600014
 10
42.9405456618
 20
2.5436481113
 10
42.698862303
 20
2.486796957399988
 10
42.4578429009
 20
2.427292036099998
 10
42.21759273550003
 20
2.364917188499999
 10
41.97817009810001
 20
2.299428428800013
 10
41.7397344341
 20
2.230511375199994
 10
41.50247423270002
 20
2.157826022500003
 10
41.36070971219999
 20
2.1122455662
 10
41.21946491490001
 20
2.065057967100003
 10
41.07882355050003
 20
2.016135707599998
 10
40.93886932880002
 20
1.965351269799995
 10
40.79968595950004
 20
1.912577136099995
 10
40.69825874450002
 20
1.872584254600013
 10
40.59729417120002
 20
1.831357488999998
 10
40.49687730710002
 20
1.788795870599995
 10
40.39709321960002
 20
1.74479843040001
 10
40.29802697640002
 20
1.699264199799998
 10
40.19976364479997
 20
1.652092209899989
 10
40.10238829249997
 20
1.603181492000004
 10
40.0409762278
 20
1.5711138571
 10
39.97999794380002
 20
1.5382278509
 10
39.91949928450003
 20
1.50447986799999
 10
39.87445836239999
 20
1.478570409600008
 10
39.82972870160001
 20
1.452121473800005
 10
39.78533890990002
 20
1.425109435699994
 10
39.74131759490001
 20
1.397510670499982
 10
39.70606347879999
 20
1.374782577199992
 10
39.6710784119
 20
1.351633614999997
 10
39.63638567690003
 20
1.328047831399985
 10
39.60200855670001
 20
1.304009273899991
 10
39.56797033399999
 20
1.279501989699994
 10
39.5366629591
 20
1.256291238999992
 10
39.50568432620002
 20
1.232636432299995
 10
39.47506277029999
 20
1.208522062699997
 10
39.44482662609999
 20
1.183932623199991
 10
39.42092446750002
 20
1.163899543399991
 10
39.39729701570004
 20
1.143534505300008
 10
39.37396560079998
 20
1.122828750400002
 10
39.35095155250002
 20
1.101773520199998
 10
39.32827620090001
 20
1.080360056100005
 10
39.31228911520003
 20
1.064830694699992
 10
39.2964888362
 20
1.049102871399995
 10
39.2808869813
 20
1.033173688999992
 10
39.26549516760002
 20
1.01704025059999
 10
39.25032501210001
 20
1.000699659099993
 10
39.2353881322
 20
0.9841490175000018
 10
39.2206961448
 20
0.9673854287000123
 10
39.20875739519999
 20
0.9533801746000134
 10
39.19699412580003
 20
0.9392165361000051
 10
39.1854161087
 20
0.9248941240999926
 10
39.1740331158
 20
0.9104125493000051
 10
39.16285491899998
 20
0.8957714226000064
 10
39.1518912903
 20
0.8809703546999967
 10
39.1411520017
 20
0.8660089563999946
 10
39.13064682499999
 20
0.8508868386000044
 10
39.12038553220003
 20
0.8356036119999997
 10
39.11163798530004
 20
0.8221341761000076
 10
39.10308756310003
 20
0.8085355393999973
 10
39.09474254130003
 20
0.7948089493000055
 10
39.08661119559997
 20
0.7809556532999978
 10
39.08026370200003
 20
0.769779328300004
 10
39.0740604504
 20
0.7585194974000018
 10
39.06800613320001
 20
0.7471775271999947
 10
39.06210544240003
 20
0.735754784400001
 10
39.05636307040004
 20
0.7242526354999939
 10
39.05078175910001
 20
0.7126683410999988
 10
39.04536578369999
 20
0.7010025527000039
 10
39.04012011769999
 20
0.6892576089999949
 10
39.0350497348
 20
0.6774358488999896
 10
39.03015960850002
 20
0.6655396112000034
 10
39.02604616019999
 20
0.6551064660000066
 10
39.02207468419999
 20
0.6446152205999879
 10
39.01824844250001
 20
0.6340682354999956
 10
39.01457069740003
 20
0.623467870799999
 10
39.01104471100001
 20
0.6128164871000053
 10
39.00767374560003
 20
0.6021164446000144
 10
39.00459779490001
 20
0.5918398538999981
 10
39.00166730379999
 20
0.5815176449999912
 10
38.99888480139998
 20
0.5711526559999954
 10
38.99625281670001
 20
0.5607477247999954
 10
38.9937738787
 20
0.5503056895000073
 10
38.99145051649997
 20
0.5398293880999887
 10
38.98928422440003
 20
0.5293170216999954
 10
38.9872765944
 20
0.5187697560999994
 10
38.98542950019999
 20
0.5081911284000002
 10
38.98374481540003
 20
0.4975846756999971
 10
38.98222441370001
 20
0.4869539351000043
 10
38.98087016880004
 20
0.4763024438999964
 10
38.979842572
 20
0.467155205200001
 10
38.97893841780001
 20
0.4579921672999916
 10
38.97815827990001
 20
0.4488158604000036
 10
38.97750273169999
 20
0.4396288147999883
 10
38.97697234679998
 20
0.4304335606999956
 10
38.97656769870002
 20
0.421232628300004
 10
38.976289361
 20
0.4120285478000059
 10
38.9761304301
 20
0.4020017052000071
 10
38.9761217084
 20
0.3919701313999866
 10
38.97626297419999
 20
0.3819371946000132
 10
38.97655400560001
 20
0.3719062628000103
 10
38.97699458059998
 20
0.3618807041000025
 10
38.97758447749999
 20
0.3518638867000021
 10
38.97832347420001
 20
0.3418591786000036
 10
38.97916993540003
 20
0.3322976551000067
 10
38.98015197590003
 20
0.3227466765999907
 10
38.98126863190004
 20
0.3132090002000041
 10
38.98251893949998
 20
0.3036873831999998
 10
38.9839019351
 20
0.294184582699998
 10
38.98541665459999
 20
0.2847033558999925
 10
38.98706235639997
 20
0.2752442657999978
 10
38.98883811600001
 20
0.2658065123999904
 10
38.99074241530002
 20
0.2563924882999942
 10
38.99277373630003
 20
0.2470045860000027
 10
38.994930561
 20
0.2376451979999956
 10
38.99721137120002
 20
0.2283167168999967
 10
38.99961495320003
 20
0.2190197943999976
 10
39.00214023620004
 20
0.2097532332999918
 10
39.00478533559999
 20
0.2005189616999985
 10
39.0075483668
 20
0.1913189074999906
 10
39.01042744530002
 20
0.1821549988999891
 10
39.0134206866
 20
0.1730291637000079
 10
39.01742386699999
 20
0.1613826546000041
 10
39.02160958669997
 20
0.1497978123999957
 10
39.02597349620004
 20
0.1382776470000095
 10
39.03051124600001
 20
0.1268251683000017
 10
39.03521848680004
 20
0.1154433863999884
 10
39.0399130838
 20
0.1045398141999954
 10
39.04475988080003
 20
0.0937000556999976
 10
39.04975499300003
 20
0.0829257810000002
 10
39.0548945357
 20
0.0722186602000079
 10
39.06017462419999
 20
0.0615803632999956
 10
39.06559137369999
 20
0.0510125604000109
 10
39.07114089960004
 20
0.0405169217000037
 10
39.07777834940004
 20
0.0283642750000013
 10
39.08458955539999
 20
0.016305206200002
 10
39.0915689167
 20
0.0043409338000089
 10
39.09871083230001
 20
-0.0075273236000015
 10
39.10600970140001
 20
-0.0192983473999959
 10
39.11345992320003
 20
-0.0309709189999978
 10
39.12259300670001
 20
-0.044847982099995
 10
39.13193285419999
 20
-0.0585896566000059
 10
39.14147119170003
 20
-0.0721954755999974
 10
39.15119974499999
 20
-0.0856649720999912
 10
39.16111024029999
 20
-0.0989976791999965
 10
39.17192676690002
 20
-0.1131377196999921
 10
39.18293963960002
 20
-0.127128017800004
 10
39.19414049549999
 20
-0.1409692317999998
 10
39.20552097180001
 20
-0.1546620195999964
 10
39.21707270590002
 20
-0.1682070394000021
 10
39.23166495470002
 20
-0.1848470533000039
 10
39.2465044928
 20
-0.2012724918000117
 10
39.26157947120004
 20
-0.2174861278999884
 10
39.27687804100003
 20
-0.2334907349000019
 10
39.29238835320001
 20
-0.2492890855999974
 10
39.30809855889999
 20
-0.2648839533
 10
39.32399680909997
 20
-0.280278111100003
 10
39.34654760040002
 20
-0.3014966749999957
 10
39.36943921800003
 20
-0.322353080100001
 10
39.39264989700001
 20
-0.3428560341999969
 10
39.41615787270001
 20
-0.3630142452000058
 10
39.43994138030002
 20
-0.3828364208000039
 10
39.47002848369999
 20
-0.4071554669000081
 10
39.50050176119999
 20
-0.4309937222000002
 10
39.53133235040002
 20
-0.4543667975000007
 10
39.562491389
 20
-0.4772903036999879
 10
39.59595805800001
 20
-0.5011925911999953
 10
39.6297541523
 20
-0.5246305351000018
 10
39.66385578990003
 20
-0.5476200925999989
 10
39.69823908910001
 20
-0.5701772209000069
 10
39.75235811099998
 20
-0.6045332036000133
 10
39.80707159960002
 20
-0.6379582746999973
 10
39.8623335585
 20
-0.6704931928000093
 10
39.91809799139998
 20
-0.7021787162999971
 10
39.974318902
 20
-0.7330556035000058
 10
40.03095029389998
 20
-0.7631646130000008
 10
40.08794617080002
 20
-0.7925465032000007
 10
40.1452605365
 20
-0.8212420324999952
 10
40.2374793491
 20
-0.8657764170000064
 10
40.33043664300004
 20
-0.9087783932999967
 10
40.42405436280001
 20
-0.9503402275000071
 10
40.51825445299999
 20
-0.9905541858000075
 10
40.61295885840002
 20
-1.029512534200009
 10
40.73193344399999
 20
-1.076560881399996
 10
40.85157501449997
 20
-1.121913237399994
 10
40.97180783750002
 20
-1.165678063799987
 10
41.09255618059999
 20
-1.207963822400001
 10
41.26593510570001
 20
-1.26603604969999
 10
41.44016918210001
 20
-1.321525744899999
 10
41.61513616630003
 20
-1.374635940000004
 10
41.85147765419997
 20
-1.442683293100003
 10
42.088856711
 20
-1.507154156399989
 10
42.3271361152
 20
-1.568321190700004
 10
42.56617864589997
 20
-1.626457056900008
 10
42.80584708169999
 20
-1.681834415999998
 10
43.10610072380001
 20
-1.747508064400008
 10
43.40716255870001
 20
-1.809538627199996
 10
43.7089187048
 20
-1.868201229599988
 10
44.01125528049999
 20
-1.923770996699999
 10
44.41510782929998
 20
-1.993466378999995
 10
44.81977430220001
 20
-2.058525575800004
 10
45.22511564220002
 20
-2.119340204599993
 10
45.64101315049997
 20
-2.177628818899989
 10
46.05745702619997
 20
-2.232145107500002
 10
46.47436078599996
 20
-2.283167783699993
  0
ARC
  5
17DC
330
18
100
AcDbEntity
  8
1
100
AcDbCircle
 10
63.51773090060004
 20
-343.6280741271
 30
0.0
 40
336.9907055417605
100
AcDbArc
 50
90.58594724740052
 51
92.28648355189784
  0
LWPOLYLINE
  5
17DD
330
18
100
AcDbEntity
  8
1
100
AcDbPolyline
 90
      219
 70
   128
 43
0.0
 10
50.07312445720003
 20
-6.905668904199997
 10
49.47575359529998
 20
-6.930157209100003
 10
48.8788006913
 20
-6.956284635200004
 10
48.28235442049997
 20
-6.984103867499996
 10
47.83537052609999
 20
-7.006111953200004
 10
47.3887409206
 20
-7.029124641500003
 10
46.94252959150003
 20
-7.053163124899995
 10
46.49680052649999
 20
-7.078248596000006
 10
46.05155273029999
 20
-7.104406101700007
 10
45.60689323949998
 20
-7.131655796599998
 10
45.16294499849999
 20
-7.160017462999987
 10
44.71983095149999
 20
-7.1895108832
 10
44.36235430069999
 20
-7.21419098119999
 10
44.00553497790002
 20
-7.239638839299999
 10
43.64952545139999
 20
-7.265863550600003
 10
43.29447818979995
 20
-7.292874208500007
 10
42.9405456618
 20
-7.320679906000007
 10
42.698862303
 20
-7.340188396199991
 10
42.4578429009
 20
-7.360080065399997
 10
42.21759273550003
 20
-7.380356813299997
 10
41.97817009810001
 20
-7.401025124100002
 10
41.7397344341
 20
-7.422086216700009
 10
41.50247423270002
 20
-7.443539941199985
 10
41.36070971219999
 20
-7.456605396699997
 10
41.21946491490001
 20
-7.469815193500012
 10
41.07882355050003
 20
-7.483167886399995
 10
40.93886932880002
 20
-7.496662030099997
 10
40.79968595950004
 20
-7.510296179199997
 10
40.69825874450002
 20
-7.52037227459999
 10
40.59729417120002
 20
-7.530526487999992
 10
40.49687730710002
 20
-7.540755932899997
 10
40.39709321960002
 20
-7.551057723300004
 10
40.29802697640002
 20
-7.561428972800015
 10
40.19976364479997
 20
-7.571866795300008
 10
40.10238829249997
 20
-7.582368304400005
 10
40.0409762278
 20
-7.589077930599995
 10
39.97999794380002
 20
-7.595811852099997
 10
39.91949928450003
 20
-7.602568008699987
 10
39.87445836239999
 20
-7.607649578600002
 10
39.82972870160001
 20
-7.612742464099992
 10
39.78533890990002
 20
-7.617845213899997
 10
39.74131759490001
 20
-7.622956377000007
 10
39.70606347879999
 20
-7.627088278500012
 10
39.6710784119
 20
-7.631224854699992
 10
39.63638567690003
 20
-7.635364772599999
 10
39.60200855670001
 20
-7.639506699500002
 10
39.56797033399999
 20
-7.643649302400007
 10
39.5366629591
 20
-7.647498537299995
 10
39.50568432620002
 20
-7.651346953900003
 10
39.47506277029999
 20
-7.655192747499993
 10
39.44482662609999
 20
-7.659034112999989
 10
39.42092446750002
 20
-7.662104101399986
 10
39.39729701570004
 20
-7.665170058200002
 10
39.37396560079998
 20
-7.668230486900012
 10
39.35095155250002
 20
-7.671283891399992
 10
39.32827620090001
 20
-7.674328775200009
 10
39.31228911520003
 20
-7.676498974300002
 10
39.2964888362
 20
-7.678664317700011
 10
39.2808869813
 20
-7.680823900900007
 10
39.26549516760002
 20
-7.682976819700003
 10
39.25032501210001
 20
-7.685122169500004
 10
39.2353881322
 20
-7.687259046000007
 10
39.2206961448
 20
-7.689386544599996
 10
39.20875739519999
 20
-7.691135595000003
 10
39.19699412580003
 20
-7.692878123500006
 10
39.1854161087
 20
-7.694613270599999
 10
39.1740331158
 20
-7.696340176499999
 10
39.16285491899998
 20
-7.698057981399997
 10
39.1518912903
 20
-7.699765825699995
 10
39.1411520017
 20
-7.701462849599989
 10
39.13064682499999
 20
-7.703148193500012
 10
39.12038553220003
 20
-7.704820997500008
 10
39.11163798530004
 20
-7.706269874500009
 10
39.10308756310003
 20
-7.707708495399995
 10
39.09474254130003
 20
-7.709136055100003
 10
39.08661119559997
 20
-7.710551748600011
 10
39.08026370200003
 20
-7.711675546100011
 10
39.0740604504
 20
-7.712791196499992
 10
39.06800613320001
 20
-7.7138982111
 10
39.06210544240003
 20
-7.714996101000012
 10
39.05636307040004
 20
-7.716084377499996
 10
39.05078175910001
 20
-7.717162931499997
 10
39.04536578369999
 20
-7.718231347999989
 10
39.04012011769999
 20
-7.719289064899996
 10
39.0350497348
 20
-7.720335520300011
 10
39.03015960850002
 20
-7.721370152099992
 10
39.02604616019999
 20
-7.722262319199995
 10
39.02207468419999
 20
-7.723145131800007
 10
39.01824844250001
 20
-7.724018180300006
 10
39.01457069740003
 20
-7.72488105539999
 10
39.01104471100001
 20
-7.725733347699998
 10
39.00767374560003
 20
-7.726574647700005
 10
39.00459779490001
 20
-7.727368591699999
 10
39.00166730379999
 20
-7.728152212700009
 10
38.99888480139998
 20
-7.728925143600007
 10
38.99625281670001
 20
-7.729687017000002
 10
38.9937738787
 20
-7.730437465599989
 10
38.99145051649997
 20
-7.731176122199995
 10
38.98928422440003
 20
-7.731902947099995
 10
38.9872765944
 20
-7.732617742499996
 10
38.98542950019999
 20
-7.733320165300012
 10
38.98374481540003
 20
-7.734009872000013
 10
38.98222441370001
 20
-7.734686519599986
 10
38.98087016880004
 20
-7.735349764699987
 10
38.979842572
 20
-7.735907557399996
 10
38.97893841780001
 20
-7.736455415900008
 10
38.97815827990001
 20
-7.736993163400001
 10
38.97750273169999
 20
-7.737520623099994
 10
38.97697234679998
 20
-7.738037617999992
 10
38.97656769870002
 20
-7.738543971199987
 10
38.976289361
 20
-7.739039506000012
 10
38.9761304301
 20
-7.739566798300002
 10
38.9761217084
 20
-7.740081284599996
 10
38.97626297419999
 20
-7.740582817999992
 10
38.97655400560001
 20
-7.741071251100007
 10
38.97699458059998
 20
-7.741546436800008
 10
38.97758447749999
 20
-7.742008227899987
 10
38.97832347420001
 20
-7.742456477299995
 10
38.97916993540003
 20
-7.742872726000001
 10
38.98015197590003
 20
-7.743276698400007
 10
38.98126863190004
 20
-7.743668343899997
 10
38.98251893949998
 20
-7.744047612199992
 10
38.9839019351
 20
-7.744414452700012
 10
38.98541665459999
 20
-7.744768815100003
 10
38.98706235639997
 20
-7.745110742400001
 10
38.98883811600001
 20
-7.745440363900003
 10
38.99074241530002
 20
-7.745757697099986
 10
38.99277373630003
 20
-7.746062759199999
 10
38.994930561
 20
-7.746355567500001
 10
38.99721137120002
 20
-7.74663613940001
 10
38.99961495320003
 20
-7.746904555300004
 10
39.00214023620004
 20
-7.7471609782
 10
39.00478533559999
 20
-7.747405481399994
 10
39.0075483668
 20
-7.747638138100001
 10
39.01042744530002
 20
-7.747859021500003
 10
39.0134206866
 20
-7.748068204999995
 10
39.01742386699999
 20
-7.748319525699995
 10
39.02160958669997
 20
-7.7485521384
 10
39.02597349620004
 20
-7.748766283699991
 10
39.03051124600001
 20
-7.74896220219999
 10
39.03521848680004
 20
-7.749140134500009
 10
39.0399130838
 20
-7.749294887600001
 10
39.04475988080003
 20
-7.749433516299986
 10
39.04975499300003
 20
-7.749556286100002
 10
39.0548945357
 20
-7.749663462700012
 10
39.06017462419999
 20
-7.749755311499995
 10
39.06559137369999
 20
-7.749832098200003
 10
39.07114089960004
 20
-7.749894088299996
 10
39.07777834940004
 20
-7.749948090499997
 10
39.08458955539999
 20
-7.749982837600001
 10
39.0915689167
 20
-7.749998771500003
 10
39.09871083230001
 20
-7.749996334400009
 10
39.10600970140001
 20
-7.749975968600011
 10
39.11345992320003
 20
-7.749938116000007
 10
39.12259300670001
 20
-7.749870237600005
 10
39.13193285419999
 20
-7.749778535300007
 10
39.14147119170003
 20
-7.749663728699985
 10
39.15119974499999
 20
-7.749526537500002
 10
39.16111024029999
 20
-7.749367681299998
 10
39.17192676690002
 20
-7.749174149199999
 10
39.18293963960002
 20
-7.748957270399997
 10
39.19414049549999
 20
-7.748717828500003
 10
39.20552097180001
 20
-7.748456607400001
 10
39.21707270590002
 20
-7.748174390900002
 10
39.23166495470002
 20
-7.747795331399997
 10
39.2465044928
 20
-7.747386137099994
 10
39.26157947120004
 20
-7.746948010300003
 10
39.27687804100003
 20
-7.746482153400007
 10
39.29238835320001
 20
-7.74598976850001
 10
39.30809855889999
 20
-7.74547205809999
 10
39.32399680909997
 20
-7.744930224400008
 10
39.34654760040002
 20
-7.744133341000007
 10
39.36943921800003
 20
-7.7432933388
 10
39.39264989700001
 20
-7.7424126059
 10
39.41615787270001
 20
-7.741493530399992
 10
39.43994138030002
 20
-7.740538500300004
 10
39.47002848369999
 20
-7.739297514699995
 10
39.50050176119999
 20
-7.738006670200007
 10
39.53133235040002
 20
-7.736669334200001
 10
39.562491389
 20
-7.735288874100008
 10
39.59595805800001
 20
-7.733777056000007
 10
39.6297541523
 20
-7.732222550100003
 10
39.66385578990003
 20
-7.730628291199991
 10
39.69823908910001
 20
-7.728997214200004
 10
39.75235811099998
 20
-7.726387843099999
 10
39.80707159960002
 20
-7.723703456700008
 10
39.8623335585
 20
-7.720950183400006
 10
39.91809799139998
 20
-7.718134151299991
 10
39.974318902
 20
-7.715261488799995
 10
40.03095029389998
 20
-7.712338324
 10
40.08794617080002
 20
-7.709370785200007
 10
40.1452605365
 20
-7.706365000700002
 10
40.2374793491
 20
-7.701490745499993
 10
40.33043664300004
 20
-7.696537219999996
 10
40.42405436280001
 20
-7.691515846900003
 10
40.51825445299999
 20
-7.686438048699997
 10
40.61295885840002
 20
-7.68131524819999
 10
40.73193344399999
 20
-7.674863965599994
 10
40.85157501449997
 20
-7.668366590800005
 10
40.97180783750002
 20
-7.661834920900004
 10
41.09255618059999
 20
-7.655280752800009
 10
41.26593510570001
 20
-7.645892612199999
 10
41.44016918210001
 20
-7.636497265499997
 10
41.61513616630003
 20
-7.627114528600002
 10
41.85147765419997
 20
-7.614545060499992
 10
42.088856711
 20
-7.602057422000013
 10
42.3271361152
 20
-7.589674181100007
 10
42.56617864589997
 20
-7.577417905599999
 10
42.80584708169999
 20
-7.565311163299996
 10
43.10610072380001
 20
-7.5504166682
 10
43.40716255870001
 20
-7.535794789400012
 10
43.7089187048
 20
-7.521462470800003
 10
44.01125528049999
 20
-7.507436656600004
 10
44.41510782929998
 20
-7.4892353508
 10
44.81977430220001
 20
-7.471614661100003
 10
45.22511564220002
 20
-7.454588995900008
 10
45.64101315049997
 20
-7.437772981800009
 10
46.05745702619997
 20
-7.421594286100002
 10
46.47436078599996
 20
-7.406054608999992
  0
ARC
  5
17DE
330
18
100
AcDbEntity
  8
1
100
AcDbCircle
 10
63.50206989740001
 20
-464.6009652403001
 30
0.0
 40
457.5118896649248
100
AcDbArc
 50
90.42962788830008
 51
92.13293089009859
  0
ARC
  5
17DF
330
18
100
AcDbEntity
  8
1
100
AcDbCircle
 10
18.2094099519
 20
0.9997753386000027
 30
0.0
 40
74.78224623514375
100
AcDbArc
 50
2.661969570099988
 51
5.336410502100362
  0
LWPOLYLINE
  5
17E0
330
18
100
AcDbEntity
  8
1
100
AcDbPolyline
 90
        3
 70
   128
 43
0.0
 10
92.66753476479999
 20
7.95477363719999
 10
92.58613872739999
 20
8.084656400699996
 10
92.50469297630004
 20
8.215289095900004
  0
ARC
  5
17E1
330
18
100
AcDbEntity
  8
1
100
AcDbCircle
 10
2.636288052599979
 20
0.7564576412000008
 30
0.0
 40
90.99875052000149
100
AcDbArc
 50
2.35178072600015
 51
4.588126286800098
  0
ARC
  5
17E2
330
18
100
AcDbEntity
  8
1
100
AcDbCircle
 10
18.834735163
 20
0.9997753288999859
 30
0.0
 40
74.78224636676883
100
AcDbArc
 50
2.661969568399723
 51
5.336410499300316
  0
LINE
  5
17E3
330
18
100
AcDbEntity
  8
1
100
AcDbLine
 10
93.34343099339998
 20
8.035661974600003
 30
0.0
 11
93.29286010709999
 21
7.95477363719999
 31
0.0
  0
LINE
  5
17E4
330
18
100
AcDbEntity
  8
1
100
AcDbLine
 10
94.19999999999999
 20
7.853790354199999
 30
0.0
 11
93.34343099339998
 21
8.035661974600003
 31
0.0
  0
LINE
  5
17E5
330
18
100
AcDbEntity
  8
1
100
AcDbLine
 10
94.19999999999999
 20
7.853790354199999
 30
0.0
 11
94.19999999999999
 21
4.4214541301
 31
0.0
  0
ARC
  5
17E6
330
18
100
AcDbEntity
  8
1
100
AcDbCircle
 10
62.98030865560003
 20
8.164499346200003
 30
0.0
 40
0.3763944355824595
100
AcDbArc
 50
213.7886584191
 51
326.1380448038994
  0
ARC
  5
17E7
330
18
100
AcDbEntity
  8
1
100
AcDbCircle
 10
92.98019743589998
 20
8.164425194299994
 30
0.0
 40
0.3764461732242549
100
AcDbArc
 50
213.8432732247005
 51
326.1567267752995
  0
ARC
  5
17E8
330
18
100
AcDbEntity
  8
1
100
AcDbCircle
 10
85.48019743589998
 20
8.164425194299994
 30
0.0
 40
0.3764461732242232
100
AcDbArc
 50
213.8432732247005
 51
326.1567267752995
  0
ARC
  5
17E9
330
18
100
AcDbEntity
  8
1
100
AcDbCircle
 10
77.98019743589998
 20
8.164425194299994
 30
0.0
 40
0.3764461732242707
100
AcDbArc
 50
213.8432732247005
 51
326.1567267752995
  0
ARC
  5
17EA
330
18
100
AcDbEntity
  8
1
100
AcDbCircle
 10
70.48019743589998
 20
8.164425194299994
 30
0.0
 40
0.376446173224271
100
AcDbArc
 50
213.8432732247005
 51
326.1567267752995
  0
ARC
  5
17EB
330
18
100
AcDbEntity
  8
1
100
AcDbCircle
 10
65.48019743589996
 20
8.164425194299994
 30
0.0
 40
0.3764461732243181
100
AcDbArc
 50
213.8432732247005
 51
326.1567267752995
  0
ARC
  5
17EC
330
18
100
AcDbEntity
  8
1
100
AcDbCircle
 10
67.98019743589996
 20
8.164425194299994
 30
0.0
 40
0.376446173224326
100
AcDbArc
 50
213.8432732247005
 51
326.1567267752995
  0
ARC
  5
17ED
330
18
100
AcDbEntity
  8
1
100
AcDbCircle
 10
80.48019743589998
 20
8.164425194299994
 30
0.0
 40
0.3764461732242232
100
AcDbArc
 50
213.8432732247005
 51
326.1567267752995
  0
ARC
  5
17EE
330
18
100
AcDbEntity
  8
1
100
AcDbCircle
 10
82.98019743589998
 20
8.164425194299994
 30
0.0
 40
0.3764461732241758
100
AcDbArc
 50
213.8432732247005
 51
326.1567267752995
  0
ARC
  5
17EF
330
18
100
AcDbEntity
  8
1
100
AcDbCircle
 10
75.48019743589998
 20
8.164425194299994
 30
0.0
 40
0.3764461732242232
100
AcDbArc
 50
213.8432732247005
 51
326.1567267752995
  0
ARC
  5
17F0
330
18
100
AcDbEntity
  8
1
100
AcDbCircle
 10
90.48019743589998
 20
8.164425194299994
 30
0.0
 40
0.3764461732241996
100
AcDbArc
 50
213.8432732247005
 51
326.1567267752995
  0
ARC
  5
17F1
330
18
100
AcDbEntity
  8
1
100
AcDbCircle
 10
72.98019743589998
 20
8.164425194299994
 30
0.0
 40
0.3764461732241995
100
AcDbArc
 50
213.8432732247005
 51
326.1567267752995
  0
ARC
  5
17F2
330
18
100
AcDbEntity
  8
1
100
AcDbCircle
 10
87.98019743589998
 20
8.164425194299994
 30
0.0
 40
0.3764461732241996
100
AcDbArc
 50
213.8432732247005
 51
326.1567267752995
  0
ARC
  5
17F3
330
18
100
AcDbEntity
  8
1
100
AcDbCircle
 10
134.6886843992999
 20
52.0671126246
 30
0.0
 40
59.95124211037724
100
AcDbArc
 50
227.517869956399
 51
228.5461900556009
  0
LINE
  5
17F4
330
18
100
AcDbEntity
  8
1
100
AcDbLine
 10
95.0
 20
4.02485796040001
 30
0.0
 11
95.0
 21
7.134276510799992
 31
0.0
  0
LINE
  5
17F5
330
18
100
AcDbEntity
  8
1
100
AcDbLine
 10
95.0
 20
3.517703368099986
 30
0.0
 11
95.0
 21
-2.283167783699993
 31
0.0
  0
LINE
  5
17F6
330
18
100
AcDbEntity
  8
1
100
AcDbLine
 10
87.70711766440003
 20
-8.741287254699996
 30
0.0
 11
87.743386891
 21
-8.733440517099992
 31
0.0
  0
ARC
  5
17F7
330
18
100
AcDbEntity
  8
1
100
AcDbCircle
 10
60.20756038970001
 20
-9.979430125700003
 30
0.0
 40
2.880708173257106
100
AcDbArc
 50
14.22021796410007
 51
92.70747211100148
  0
ARC
  5
17F8
330
18
100
AcDbEntity
  8
1
100
AcDbCircle
 10
124.9532115382
 20
-46.2267218775
 30
0.0
 40
72.0427217600805
100
AcDbArc
 50
148.8060875000996
 51
149.1388613157009
  0
LINE
  5
17F9
330
18
100
AcDbEntity
  8
1
100
AcDbLine
 10
63.11080105740001
 20
-9.271748943799991
 30
0.0
 11
63.0
 21
-9.271785722000004
 31
0.0
  0
LWPOLYLINE
  5
17FA
330
18
100
AcDbEntity
  8
1
100
AcDbPolyline
 90
        3
 70
   128
 43
0.0
 10
93.9553405962
 20
-7.905575354899994
 10
93.09770026770001
 20
-8.088130732899998
 10
92.24006845229999
 20
-8.272277874300003
  0
LWPOLYLINE
  5
17FB
330
18
100
AcDbEntity
  8
1
100
AcDbPolyline
 90
        3
 70
   128
 43
0.0
 10
92.24006845229999
 20
-8.272277874300003
 10
92.14154181319996
 20
-8.112955775000003
 10
92.04286010709999
 20
-7.95477363719999
  0
ARC
  5
17FC
330
18
100
AcDbEntity
  8
1
100
AcDbCircle
 10
91.7532342532
 20
-8.138145948400007
 30
0.0
 40
0.3427951863045599
100
AcDbArc
 50
32.33933882859935
 51
58.97208875899875
  0
ARC
  5
17FD
330
18
100
AcDbEntity
  8
1
100
AcDbCircle
 10
91.73073589010003
 20
-8.166005485900001
 30
0.0
 40
0.3777748519497416
100
AcDbArc
 50
65.80190311230055
 51
146.0031406467004
  0
ARC
  5
17FE
330
18
100
AcDbEntity
  8
1
100
AcDbCircle
 10
148.1977423844
 20
-43.627790265
 30
0.0
 40
67.05636504208671
100
AcDbArc
 50
147.8602917553005
 51
148.4368454593001
  0
LWPOLYLINE
  5
17FF
330
18
100
AcDbEntity
  8
1
100
AcDbPolyline
 90
        3
 70
   128
 43
0.0
 10
91.06144653550002
 20
-8.527935716499996
 10
90.54705137209998
 20
-8.64044914690001
 10
90.03267697140001
 20
-8.753522861900009
  0
ARC
  5
1800
330
18
100
AcDbEntity
  8
1
100
AcDbCircle
 10
48.30300885900005
 20
-33.8037679558
 30
0.0
 40
48.67114114166888
100
AcDbArc
 50
30.97631826509938
 51
31.5989823671
  0
ARC
  5
1801
330
18
100
AcDbEntity
  8
1
100
AcDbCircle
 10
89.23073479850001
 20
-8.166004108400002
 30
0.0
 40
0.3777731767397105
100
AcDbArc
 50
65.80990513630045
 51
146.0032212755006
  0
ARC
  5
1802
330
18
100
AcDbEntity
  8
1
100
AcDbCircle
 10
147.1256735093
 20
-44.51548085659998
 30
0.0
 40
68.73770965401948
100
AcDbArc
 50
147.8669464657005
 51
149.0524262189994
  0
LINE
  5
1803
330
18
100
AcDbEntity
  8
1
100
AcDbLine
 10
88.17358745749997
 20
-9.166870153699987
 30
0.0
 11
87.82449988920005
 21
-9.245293444300004
 31
0.0
  0
ARC
  5
1804
330
18
100
AcDbEntity
  8
1
100
AcDbCircle
 10
43.08100891970002
 20
-35.4648170677
 30
0.0
 40
51.85984384065871
100
AcDbArc
 50
30.37014817800053
 51
31.01770582659889
  0
ARC
  5
1805
330
18
100
AcDbEntity
  8
1
100
AcDbCircle
 10
86.73073479850001
 20
-8.166004108400002
 30
0.0
 40
0.3777731767398594
100
AcDbArc
 50
65.80990513630045
 51
146.0032212755006
  0
ARC
  5
1806
330
18
100
AcDbEntity
  8
1
100
AcDbCircle
 10
144.8373737775
 20
-44.64696701189999
 30
0.0
 40
68.98691647630894
100
AcDbArc
 50
147.8679897649011
 51
149.1506866939995
  0
LINE
  5
1807
330
18
100
AcDbEntity
  8
1
100
AcDbLine
 10
85.61230273680001
 20
-9.271720466900003
 30
0.0
 11
85.33886560190001
 21
-9.271720466900003
 31
0.0
  0
ARC
  5
1808
330
18
100
AcDbEntity
  8
1
100
AcDbCircle
 10
40.21398397569996
 20
-35.68376908729999
 30
0.0
 40
52.28721383033678
100
AcDbArc
 50
30.34024690510096
 51
31.01607816600101
  0
ARC
  5
1809
330
18
100
AcDbEntity
  8
1
100
AcDbCircle
 10
84.23073479850001
 20
-8.166004108400002
 30
0.0
 40
0.3777731767397016
100
AcDbArc
 50
65.80990513630045
 51
146.0032212755006
  0
ARC
  5
180A
330
18
100
AcDbEntity
  8
1
100
AcDbCircle
 10
142.3373737767
 20
-44.64696701139999
 30
0.0
 40
68.98691647536627
100
AcDbArc
 50
147.8679897649011
 51
149.1506866941
  0
LINE
  5
180B
330
18
100
AcDbEntity
  8
1
100
AcDbLine
 10
83.1105895796
 20
-9.271720466900003
 30
0.0
 11
82.83938345550001
 21
-9.271720466900003
 31
0.0
  0
ARC
  5
180C
330
18
100
AcDbEntity
  8
1
100
AcDbCircle
 10
37.7139839729
 20
-35.68376908889999
 30
0.0
 40
52.28721383350932
100
AcDbArc
 50
30.34024690510096
 51
31.01607816600101
  0
ARC
  5
180D
330
18
100
AcDbEntity
  8
1
100
AcDbCircle
 10
81.73073479850001
 20
-8.166004108400002
 30
0.0
 40
0.3777731767397882
100
AcDbArc
 50
65.80990513630045
 51
146.0032212755006
  0
ARC
  5
180E
330
18
100
AcDbEntity
  8
1
100
AcDbCircle
 10
139.8373737768
 20
-44.64696701149999
 30
0.0
 40
68.98691647558742
100
AcDbArc
 50
147.8679897649011
 51
149.1506866941
  0
LINE
  5
180F
330
18
100
AcDbEntity
  8
1
100
AcDbLine
 10
80.6123027383
 20
-9.271720466900003
 30
0.0
 11
80.34048525719999
 21
-9.271720466900003
 31
0.0
  0
ARC
  5
1810
330
18
100
AcDbEntity
  8
1
100
AcDbCircle
 10
35.21398397550001
 20
-35.68376908729999
 30
0.0
 40
52.28721383051549
100
AcDbArc
 50
30.34024690510096
 51
31.01607816600101
  0
ARC
  5
1811
330
18
100
AcDbEntity
  8
1
100
AcDbCircle
 10
79.23073479850001
 20
-8.166004108400002
 30
0.0
 40
0.3777731767398279
100
AcDbArc
 50
65.80990513630045
 51
146.0032212755006
  0
ARC
  5
1812
330
18
100
AcDbEntity
  8
1
100
AcDbCircle
 10
137.3373737765
 20
-44.64696701130001
 30
0.0
 40
68.98691647518383
100
AcDbArc
 50
147.8679897649011
 51
149.1506866941
  0
LINE
  5
1813
330
18
100
AcDbEntity
  8
1
100
AcDbLine
 10
78.10921617959997
 20
-9.271720466900003
 30
0.0
 11
77.84036233860001
 21
-9.271720466900003
 31
0.0
  0
ARC
  5
1814
330
18
100
AcDbEntity
  8
1
100
AcDbCircle
 10
32.71398397300004
 20
-35.68376908880001
 30
0.0
 40
52.2872138334231
100
AcDbArc
 50
30.34024690510096
 51
31.01607816600101
  0
ARC
  5
1815
330
18
100
AcDbEntity
  8
1
100
AcDbCircle
 10
76.73073479850001
 20
-8.166004108400002
 30
0.0
 40
0.3777731767397726
100
AcDbArc
 50
65.80990513630045
 51
146.0032212755006
  0
ARC
  5
1816
330
18
100
AcDbEntity
  8
1
100
AcDbCircle
 10
134.8373737765
 20
-44.64696701130001
 30
0.0
 40
68.98691647519071
100
AcDbArc
 50
147.8679897649011
 51
149.1506866941
  0
LINE
  5
1817
330
18
100
AcDbEntity
  8
1
100
AcDbLine
 10
75.60987741299998
 20
-9.271720466900003
 30
0.0
 11
75.33858841819998
 21
-9.271720466900003
 31
0.0
  0
ARC
  5
1818
330
18
100
AcDbEntity
  8
1
100
AcDbCircle
 10
30.21398397220003
 20
-35.6837690893
 30
0.0
 40
52.28721383440089
100
AcDbArc
 50
30.34024690510096
 51
31.01607816600101
  0
ARC
  5
1819
330
18
100
AcDbEntity
  8
1
100
AcDbCircle
 10
74.23073479850001
 20
-8.166004108400002
 30
0.0
 40
0.37777317673982
100
AcDbArc
 50
65.80990513630045
 51
146.0032212755006
  0
ARC
  5
181A
330
18
100
AcDbEntity
  8
1
100
AcDbCircle
 10
132.3373737767
 20
-44.64696701139999
 30
0.0
 40
68.98691647542725
100
AcDbArc
 50
147.8679897649011
 51
149.1506866941
  0
LINE
  5
181B
330
18
100
AcDbEntity
  8
1
100
AcDbLine
 10
73.11030351670002
 20
-9.271720466900003
 30
0.0
 11
72.83816547719998
 21
-9.271720466900003
 31
0.0
  0
ARC
  5
181C
330
18
100
AcDbEntity
  8
1
100
AcDbCircle
 10
27.71398396979999
 20
-35.6837690907
 30
0.0
 40
52.28721383709488
100
AcDbArc
 50
30.34024690510096
 51
31.01607816590053
  0
ARC
  5
181D
330
18
100
AcDbEntity
  8
1
100
AcDbCircle
 10
71.73073479850001
 20
-8.166004108400002
 30
0.0
 40
0.3777731767398026
100
AcDbArc
 50
65.80990513630045
 51
146.0032212755006
  0
ARC
  5
181E
330
18
100
AcDbEntity
  8
1
100
AcDbCircle
 10
129.8373737769
 20
-44.64696701149999
 30
0.0
 40
68.9869164756772
100
AcDbArc
 50
147.8679897649011
 51
149.1506866941
  0
LINE
  5
181F
330
18
100
AcDbEntity
  8
1
100
AcDbLine
 10
70.6121784952
 20
-9.271720466900003
 30
0.0
 11
70.34031992820001
 21
-9.271720466900003
 31
0.0
  0
ARC
  5
1820
330
18
100
AcDbEntity
  8
1
100
AcDbCircle
 10
25.2139839697
 20
-35.6837690908
 30
0.0
 40
52.28721383731684
100
AcDbArc
 50
30.34024690510096
 51
31.01607816590053
  0
ARC
  5
1821
330
18
100
AcDbEntity
  8
1
100
AcDbCircle
 10
69.23073479850001
 20
-8.166004108400002
 30
0.0
 40
0.3777731767398282
100
AcDbArc
 50
65.80990513630045
 51
146.0032212755006
  0
ARC
  5
1822
330
18
100
AcDbEntity
  8
1
100
AcDbCircle
 10
127.3373737770999
 20
-44.6469670116
 30
0.0
 40
68.9869164759045
100
AcDbArc
 50
147.8679897649011
 51
149.1506866941
  0
LINE
  5
1823
330
18
100
AcDbEntity
  8
1
100
AcDbLine
 10
68.11079559879999
 20
-9.271720466900003
 30
0.0
 11
67.84148878580004
 21
-9.271720466900003
 31
0.0
  0
ARC
  5
1824
330
18
100
AcDbEntity
  8
1
100
AcDbCircle
 10
22.71398397920001
 20
-35.6837690852
 30
0.0
 40
52.28721382626225
100
AcDbArc
 50
30.34024690510096
 51
31.01607816600101
  0
ARC
  5
1825
330
18
100
AcDbEntity
  8
1
100
AcDbCircle
 10
66.73073479850001
 20
-8.166004108400002
 30
0.0
 40
0.37777317673966
100
AcDbArc
 50
65.80990513630045
 51
146.0032212755006
  0
ARC
  5
1826
330
18
100
AcDbEntity
  8
1
100
AcDbCircle
 10
124.837373777
 20
-44.6469670116
 30
0.0
 40
68.98691647581556
100
AcDbArc
 50
147.8679897649011
 51
149.1506866941
  0
LINE
  5
1827
330
18
100
AcDbEntity
  8
1
100
AcDbLine
 10
65.60809301119997
 20
-9.271720466900003
 30
0.0
 11
65.34148878799999
 21
-9.271720466900003
 31
0.0
  0
ARC
  5
1828
330
18
100
AcDbEntity
  8
1
100
AcDbCircle
 10
20.21398398029999
 20
-35.6837690845
 30
0.0
 40
52.28721382488495
100
AcDbArc
 50
30.34024690500015
 51
31.01607816600101
  0
ARC
  5
1829
330
18
100
AcDbEntity
  8
1
100
AcDbCircle
 10
64.23073479850001
 20
-8.166004108400002
 30
0.0
 40
0.3777731767398914
100
AcDbArc
 50
65.80990513630045
 51
146.0032212755006
  0
ARC
  5
182A
330
18
100
AcDbEntity
  8
1
100
AcDbCircle
 10
121.4563944384
 20
-44.100439993
 30
0.0
 40
67.95019918176551
100
AcDbArc
 50
147.8631368396994
 51
148.8126093719011
  0
ARC
  5
182B
330
18
100
AcDbEntity
  8
1
100
AcDbCircle
 10
134.6266204301999
 20
-51.99765636889999
 30
0.0
 40
59.85809802362679
100
AcDbArc
 50
131.4532977051009
 51
132.3944130081996
  0
ARC
  5
182C
330
18
100
AcDbEntity
  8
1
100
AcDbCircle
 10
94.22833103710004
 20
-8.167092205300008
 30
0.0
 40
0.3780407965968484
100
AcDbArc
 50
83.90468420309801
 51
136.2297070167005
  0
LINE
  5
182D
330
18
100
AcDbEntity
  8
1
100
AcDbLine
 10
95.0
 20
-6.681356029900001
 30
0.0
 11
95.0
 21
-7.134276510800006
 31
0.0
  0
LWPOLYLINE
  5
182E
330
18
100
AcDbEntity
  8
1
100
AcDbPolyline
 90
        3
 70
   128
 43
0.0
 10
63.13552604839998
 20
7.821436327699997
 10
63.22235969299999
 20
7.956466540299997
 10
63.32647734470004
 20
8.119443314899996
  0
LINE
  5
182F
330
18
100
AcDbEntity
  8
1
100
AcDbLine
 10
63.71754843299999
 20
8.74128725460001
 30
0.0
 11
63.7753151636
 21
8.74128725460001
 31
0.0
  0
ARC
  5
1830
330
18
100
AcDbEntity
  8
1
100
AcDbCircle
 10
9.028165906100014
 20
44.2959543127
 30
0.0
 40
67.34082664107223
100
AcDbArc
 50
327.2045823684004
 51
328.1308695893003
  0
LINE
  5
1831
330
18
100
AcDbEntity
  8
1
100
AcDbLine
 10
66.2166283752
 20
8.74128725460001
 30
0.0
 11
66.2753151636
 21
8.74128725460001
 31
0.0
  0
ARC
  5
1832
330
18
100
AcDbEntity
  8
1
100
AcDbCircle
 10
11.52816590660001
 20
44.29595431239998
 30
0.0
 40
67.34082664050112
100
AcDbArc
 50
327.2045823684004
 51
328.1308695893003
  0
LINE
  5
1833
330
18
100
AcDbEntity
  8
1
100
AcDbLine
 10
68.7181794558
 20
8.74128725460001
 30
0.0
 11
68.7753151636
 21
8.74128725460001
 31
0.0
  0
ARC
  5
1834
330
18
100
AcDbEntity
  8
1
100
AcDbCircle
 10
14.02816590650002
 20
44.29595431239998
 30
0.0
 40
67.34082664057163
100
AcDbArc
 50
327.2045823684004
 51
328.1308695893003
  0
LINE
  5
1835
330
18
100
AcDbEntity
  8
1
100
AcDbLine
 10
71.21747544850001
 20
8.74128725460001
 30
0.0
 11
71.2753151636
 21
8.74128725460001
 31
0.0
  0
ARC
  5
1836
330
18
100
AcDbEntity
  8
1
100
AcDbCircle
 10
16.52816590639998
 20
44.2959543125
 30
0.0
 40
67.34082664068295
100
AcDbArc
 50
327.2045823684004
 51
328.1308695893003
  0
LINE
  5
1837
330
18
100
AcDbEntity
  8
1
100
AcDbLine
 10
73.71914981669998
 20
8.74128725460001
 30
0.0
 11
73.7753151636
 21
8.74128725460001
 31
0.0
  0
ARC
  5
1838
330
18
100
AcDbEntity
  8
1
100
AcDbCircle
 10
19.02816590610001
 20
44.2959543127
 30
0.0
 40
67.34082664100355
100
AcDbArc
 50
327.2045823684004
 51
328.1308695893003
  0
LINE
  5
1839
330
18
100
AcDbEntity
  8
1
100
AcDbLine
 10
76.2177450739
 20
8.74128725460001
 30
0.0
 11
76.2753151636
 21
8.74128725460001
 31
0.0
  0
ARC
  5
183A
330
18
100
AcDbEntity
  8
1
100
AcDbCircle
 10
21.5281659067
 20
44.2959543123
 30
0.0
 40
67.34082664035581
100
AcDbArc
 50
327.2045823684004
 51
328.1308695893003
  0
LINE
  5
183B
330
18
100
AcDbEntity
  8
1
100
AcDbLine
 10
78.71789943850001
 20
8.74128725460001
 30
0.0
 11
78.7753151636
 21
8.74128725460001
 31
0.0
  0
ARC
  5
183C
330
18
100
AcDbEntity
  8
1
100
AcDbCircle
 10
24.02816590690003
 20
44.29595431219996
 30
0.0
 40
67.34082664006443
100
AcDbArc
 50
327.2045823684004
 51
328.1308695893003
  0
LINE
  5
183D
330
18
100
AcDbEntity
  8
1
100
AcDbLine
 10
81.21732656849998
 20
8.74128725460001
 30
0.0
 11
81.27531516359999
 21
8.74128725460001
 31
0.0
  0
ARC
  5
183E
330
18
100
AcDbEntity
  8
1
100
AcDbCircle
 10
26.52816590690003
 20
44.29595431219996
 30
0.0
 40
67.34082664012823
100
AcDbArc
 50
327.2045823684004
 51
328.1308695893003
  0
LINE
  5
183F
330
18
100
AcDbEntity
  8
1
100
AcDbLine
 10
83.71579338380001
 20
8.74128725460001
 30
0.0
 11
83.77531516359999
 21
8.74128725460001
 31
0.0
  0
ARC
  5
1840
330
18
100
AcDbEntity
  8
1
100
AcDbCircle
 10
29.02816590589998
 20
44.29595431279998
 30
0.0
 40
67.34082664122706
100
AcDbArc
 50
327.2045823684004
 51
328.1308695893003
  0
LINE
  5
1841
330
18
100
AcDbEntity
  8
1
100
AcDbLine
 10
86.21981235269998
 20
8.74128725460001
 30
0.0
 11
86.27531516359999
 21
8.74128725460001
 31
0.0
  0
ARC
  5
1842
330
18
100
AcDbEntity
  8
1
100
AcDbCircle
 10
32.53819166760003
 20
43.65188199040001
 30
0.0
 40
66.14293323788593
100
AcDbArc
 50
327.1996813807013
 51
327.9466710710997
  0
LINE
  5
1843
330
18
100
AcDbEntity
  8
1
100
AcDbLine
 10
88.59793226890003
 20
8.549273810499983
 30
0.0
 11
88.65224184499998
 21
8.537642767600003
 31
0.0
  0
LWPOLYLINE
  5
1844
330
18
100
AcDbEntity
  8
1
100
AcDbPolyline
 90
        3
 70
   128
 43
0.0
 10
90.6355423808
 20
7.821406798400005
 10
90.71026897069996
 20
7.937595014199999
 10
90.8017712152
 20
8.080673294699991
  0
LINE
  5
1845
330
18
100
AcDbEntity
  8
1
100
AcDbLine
 10
90.8017712152
 20
8.080673294699991
 30
0.0
 11
90.86337433799995
 21
8.0677410894
 31
0.0
  0
ARC
  5
1846
330
18
100
AcDbEntity
  8
1
100
AcDbCircle
 10
4.779324101899987
 20
45.39548612439999
 30
0.0
 40
69.40657404286071
100
AcDbArc
 50
327.5157398788989
 51
328.1222601014001
  0
LINE
  5
1847
330
18
100
AcDbEntity
  8
SK1
100
AcDbLine
 10
-27.0
 20
7.849999999999994
 30
0.0
 11
-27.0
 21
-7.850000000000008
 31
0.0
  0
LINE
  5
1848
330
18
100
AcDbEntity
  8
1
100
AcDbLine
 10
18.0
 20
7.75
 30
0.0
 11
18.0
 21
-7.75
 31
0.0
  0
LINE
  5
1849
330
18
100
AcDbEntity
  8
1
100
AcDbLine
 10
63.32647734470004
 20
-7.797854467500002
 30
0.0
 11
63.32647734470004
 21
-8.913193617099992
 31
0.0
  0
LINE
  5
184A
330
18
100
AcDbEntity
  8
1
100
AcDbLine
 10
63.32647734470004
 20
8.119443314899996
 30
0.0
 11
63.32647734470004
 21
8.008331013700001
 31
0.0
  0
LINE
  5
1855
330
18
100
AcDbEntity
  8
SK4
100
AcDbLine
 10
-47.0
 20
0.0
 30
0.0
 11
97.0
 21
0.0
 31
0.0
  0
LINE
  5
1858
330
18
100
AcDbEntity
  8
4
100
AcDbLine
 10
0.0
 20
0.0
 30
0.0
 11
97.0
 21
0.0
 31
0.0
  0
MTEXT
  5
185A
330
18
100
AcDbEntity
  8
SK6
100
AcDbMText
 10
-45.0
 20
-35.0
 30
0.0
 40
3.5
 41
0.0
 71
     1
 72
     1
  1
T35-SS01C06-20X2.5-65R-H
  7
STANDARD 3.5 mm
 73
     1
 44
1.0
1001
ACAD
1000
MTEXTBEGIN
1070
    73
1070
     1
1070
    44
1040
1.0
1070
    74
1070
     0
1000
MTEXTEND
  0
LWPOLYLINE
  5
1DEF
330
18
100
AcDbEntity
  8
NOCUT
100
AcDbPolyline
 90
        7
 70
     1
 43
0.0
 10
60.07148518869996
 20
7.75
 10
18.0
 20
7.75
 10
17.41905249809997
 20
8.0
 10
0.0
 20
8.0
 10
0.0
 20
0.0
 10
63.0
 20
0.0
 10
63.0
 20
10.099
  0
LWPOLYLINE
  5
1DF0
330
18
100
AcDbEntity
  8
CUT
100
AcDbPolyline
 90
        6
 70
     1
 43
0.0
 10
95.0
 20
7.799999999999998
 10
95.0
 20
0.0
 10
63.0
 20
0.0
 10
63.0
 20
10.099
 10
87.70711766440003
 20
10.099
 10
94.19999999999999
 20
8.599999999999994
  0
DIMENSION
  5
21CC
330
18
100
AcDbEntity
  8
2
100
AcDbDimension
  2
*D3
 10
95.0
 20
30.0
 30
0.0
 11
106.7456
 21
30.0
 31
0.0
 70
   160
  1
<>\P'C'
 71
     5
 42
7.292882335499996
  3
AM_DIN
100
AcDbAlignedDimension
 13
87.7071176645
 23
10.09899999999999
 33
0.0
 14
95.0
 24
7.800000000000013
 34
0.0
100
AcDbRotatedDimension
1001
ACAD
1000
DSTYLE
1002
{
1070
    78
1070
     8
1070
   271
1070
     2
1002
}
1001
ACAD_DSTYLE_DIMFLIPARROW_WHICH_SYMBOL
1070
   386
1070
     3
  0
DIMENSION
  5
21CF
330
18
100
AcDbEntity
  8
2
100
AcDbDimension
  2
*D4
 10
95.0
 20
44.99999999999999
 30
0.0
 11
104.2886507378777
 21
44.99999999999999
 31
0.0
 70
   160
 71
     5
 42
32.0
  3
AM_DIN
100
AcDbAlignedDimension
 13
63.0
 23
10.09899999999999
 33
0.0
 14
95.0
 24
7.800000000000013
 34
0.0
100
AcDbRotatedDimension
1001
ACAD
1000
DSTYLE
1002
{
1070
    78
1070
     8
1002
}
  0
DIMENSION
  5
21D2
330
18
100
AcDbEntity
  8
2
100
AcDbDimension
  2
*D5
 10
95.0
 20
60.0
 30
0.0
 11
56.5
 21
60.0
 31
0.0
 70
   160
 71
     5
 42
77.0
  3
AM_DIN
100
AcDbAlignedDimension
 13
18.0
 23
7.75
 33
0.0
 14
95.0
 24
7.75
 34
0.0
100
AcDbRotatedDimension
1001
ACAD
1000
DSTYLE
1002
{
1070
    78
1070
     8
1002
}
  0
DIMENSION
  5
21D5
330
18
100
AcDbEntity
  8
2
100
AcDbDimension
  2
*D6
 10
95.0
 20
75.0
 30
0.0
 11
47.5
 21
75.0
 31
0.0
 70
   160
 71
     5
 42
95.0
  3
AM_DIN
100
AcDbAlignedDimension
 13
0.0
 23
0.0
 33
0.0
 14
95.0
 24
7.800000000000013
 34
0.0
100
AcDbRotatedDimension
1001
ACAD
1000
DSTYLE
1002
{
1070
    78
1070
     8
1002
}
  0
DIMENSION
  5
21D8
330
18
100
AcDbEntity
  8
2
100
AcDbDimension
  2
*D7
 10
135.0
 20
8.59999999999999
 30
0.0
 11
135.0
 21
21.94310000000001
 31
0.0
 70
   160
  1
%%C<>
 71
     5
 42
17.19999999999996
  3
AM_DIN
100
AcDbAlignedDimension
 13
94.19999999999999
 23
-8.59999999999998
 33
0.0
 14
94.19999999999999
 24
8.59999999999998
 34
0.0
 50
90.0
100
AcDbRotatedDimension
1001
ACAD
1000
DSTYLE
1002
{
1070
    78
1070
     8
1002
}
1001
ACAD_DSTYLE_DIMFLIPARROW_WHICH_SYMBOL
1070
   386
1070
     3
  0
DIMENSION
  5
21DB
330
18
100
AcDbEntity
  8
2
100
AcDbDimension
  2
*D8
 10
150.0
 20
10.099
 30
0.0
 11
150.0
 21
26.4219
 31
0.0
 70
   160
  1
M20x2.5
 71
     5
 42
20.19799999999999
  3
AM_DIN
100
AcDbAlignedDimension
 13
87.7071176645
 23
-10.09899999999999
 33
0.0
 14
87.7071176645
 24
10.09899999999999
 34
0.0
 50
90.0
100
AcDbRotatedDimension
1001
ACAD
1000
DSTYLE
1002
{
1070
    78
1070
     8
1002
}
1001
ACAD_DSTYLE_DIMFLIPARROW_WHICH_SYMBOL
1070
   386
1070
     3
  0
DIMENSION
  5
21E1
330
18
100
AcDbEntity
  8
SK2
100
AcDbDimension
  2
*D9
 10
87.7071176645
 20
-30.0
 30
0.0
 11
21.35355883225003
 21
-30.0
 31
0.0
 70
   160
 71
     5
 42
132.7071176645
  3
AM_DIN
100
AcDbAlignedDimension
 13
-45.0
 23
-6.0
 33
0.0
 14
87.7071176645
 24
10.09899999999999
 34
0.0
100
AcDbRotatedDimension
1001
ACAD
1000
DSTYLE
1002
{
1070
    78
1070
     8
1002
}
  0
DIMENSION
  5
21E4
330
18
100
AcDbEntity
  8
SK2
100
AcDbDimension
  2
*D10
 10
-60.00000000000001
 20
8.000000000000007
 30
0.0
 11
-60.0
 21
21.3603
 31
0.0
 70
   160
  1
%%C<>
 71
     5
 42
15.99999999999969
  3
AM_DIN
100
AcDbAlignedDimension
 13
-26.53363104734598
 23
-7.999999999999682
 33
0.0
 14
-26.53363104729999
 24
8.000000000000008
 34
0.0
 50
90.0
100
AcDbRotatedDimension
1001
ACAD
1000
DSTYLE
1002
{
1070
    78
1070
     8
1002
}
1001
ACAD_DSTYLE_DIMFLIPARROW_WHICH_SYMBOL
1070
   386
1070
     3
  0
DIMENSION
  5
21E7
330
18
100
AcDbEntity
  8
SK2
100
AcDbDimension
  2
*D11
 10
95.0
 20
90.0
 30
0.0
 11
25.0
 21
90.0
 31
0.0
 70
   160
 71
     5
 42
140.0
  3
AM_DIN
100
AcDbAlignedDimension
 13
-45.0
 23
6.000000000000013
 33
0.0
 14
95.0
 24
7.800000000000013
 34
0.0
100
AcDbRotatedDimension
1001
ACAD
1000
DSTYLE
1002
{
1070
    78
1070
     8
1002
}
  0
VIEWPORT
  5
B5D
102
{ACAD_XDICTIONARY
360
B5E
102
}
330
B56
100
AcDbEntity
 67
     1
  8
0
100
AcDbViewport
 10
148.5000039764134
 20
105.0000028116055
 30
0.0
 40
482.0802126835716
 41
211.5328119247469
 68
     1
 69
     1
 12
148.5000039764134
 22
105.0000028116055
 13
0.0
 23
0.0
 14
10.0
 24
10.0
 15
10.0
 25
10.0
 16
0.0
 26
0.0
 36
1.0
 17
0.0
 27
0.0
 37
0.0
 42
50.0
 43
0.0
 44
0.0
 45
211.5328119247469
 50
0.0
 51
0.0
 72
  2000
 90
   819232
  1

281
     0
 71
     1
 74
     0
110
0.0
120
0.0
130
0.0
111
1.0
121
0.0
131
0.0
112
0.0
122
1.0
132
0.0
 79
     0
146
0.0
  0
VIEWPORT
  5
B61
102
{ACAD_XDICTIONARY
360
B62
102
}
330
B56
100
AcDbEntity
 67
     1
  8
1
100
AcDbViewport
 10
148.5
 20
105.0
 30
0.0
 40
297.0
 41
210.0
 68
     2
 69
     2
 12
42.9785475936701
 22
28.08830359378875
 13
0.0
 23
0.0
 14
5.0
 24
5.0
 15
5.0
 25
5.0
 16
0.0
 26
0.0
 36
1.0
 17
0.0
 27
0.0
 37
0.0
 42
50.0
 43
0.0
 44
0.0
 45
154.9705865196687
 50
0.0
 51
0.0
 72
  2000
 90
   819232
  1

281
     0
 71
     1
 74
     0
110
0.0
120
0.0
130
0.0
111
1.0
121
0.0
131
0.0
112
0.0
122
1.0
132
0.0
 79
     0
146
0.0
1001
GENIUS_GENSCREG_15
1000
PF
1040
0.0
1000
DF
1040
0.0
1000
MIN
1011
0.0
1021
0.0
1031
0.0
1000
MAX
1011
297.0
1021
210.0
1031
0.0
1000
FLAGS
1070
     4
1001
GENIUS_GENOBJ-N-SDF_13
1002
{
1000
OWNER
1000
GEN
1002
}
1001
GENIUS_GENODEF_13
1002
{
1000
HIER
1070
     0
1002
}
1002
{
1000
MANEDIT
1070
     0
1002
}
1002
{
1000
NOSEL
1070
     0
1002
}
1002
{
1000
BEHIND
1070
     0
1002
}
1002
{
1000
OTHER
1070
     0
1002
}
1002
{
1000
REACTOR
1002
}
  0
ENDSEC
  0
SECTION
  2
OBJECTS
  0
DICTIONARY
  5
C
330
0
100
AcDbDictionary
281
     1
  3
ACAD_2007HEADERVARS_RT
350
2881
  3
ACAD_BACKGROUND
350
B0F
  3
ACAD_CIP_PREVIOUS_PRODUCT_INFO
350
CF7
  3
ACAD_COLOR
350
387
  3
ACAD_DETAILVIEWSTYLE
350
CEF
  3
ACAD_FIELDLIST
350
D13
  3
ACAD_GROUP
350
D
  3
ACAD_LAYOUT
350
301
  3
ACAD_MATERIAL
350
386
  3
ACAD_MLEADERSTYLE
350
46F
  3
ACAD_MLINESTYLE
350
E
  3
ACAD_PLOTSETTINGS
350
302
  3
ACAD_PLOTSTYLENAME
350
2FF
  3
ACAD_RENDER_ACTIVE_RAPIDRT_SETTINGS
350
EF0
  3
ACAD_RENDER_ACTIVE_SETTINGS
350
253C
  3
ACAD_SCALELIST
350
44D
  3
ACAD_SECTIONVIEWSTYLE
350
CED
  3
ACAD_TABLESTYLE
350
388
  3
ACAD_VISUALSTYLE
350
3F2
  3
ACDB_RECOMPOSE_DATA
350
287F
  3
AcDbVariableDictionary
350
357
  3
AcmDictionary
350
4D1
  3
AMG
350
478
  3
AMGSNAPSETTINGS
350
51E
  3
APPDATA
350
E9F
  3
DWGPROPS
350
2880
  0
DICTIONARY
  5
A45
330
8
100
AcDbDictionary
280
     1
281
     1
  0
DICTIONARY
  5
43C
330
2
100
AcDbDictionary
280
     1
281
     1
  3
ACAD_LAYERSTATES
360
567
  3
ACLYDICTIONARY
360
EA4
  3
AMLAYER_GROUPCOLORS
360
E31
  0
DICTIONARY
  5
24D0
330
F
100
AcDbDictionary
280
     1
281
     1
  3
ADSK_XREC_LAYER_RECONCILED
360
24D1
  0
DICTIONARY
  5
24D2
330
23
100
AcDbDictionary
280
     1
281
     1
  3
ADSK_XREC_LAYER_RECONCILED
360
24D3
  0
DICTIONARY
  5
24D4
330
24
100
AcDbDictionary
280
     1
281
     1
  3
ADSK_XREC_LAYER_RECONCILED
360
24D5
  0
DICTIONARY
  5
24D6
330
25
100
AcDbDictionary
280
     1
281
     1
  3
ADSK_XREC_LAYER_RECONCILED
360
24D7
  0
DICTIONARY
  5
24D8
330
27
100
AcDbDictionary
280
     1
281
     1
  3
ADSK_XREC_LAYER_RECONCILED
360
24D9
  0
DICTIONARY
  5
24DA
330
2A
100
AcDbDictionary
280
     1
281
     1
  3
ADSK_XREC_LAYER_RECONCILED
360
24DB
  0
DICTIONARY
  5
24DC
330
2B
100
AcDbDictionary
280
     1
281
     1
  3
ADSK_XREC_LAYER_RECONCILED
360
24DD
  0
DICTIONARY
  5
24DE
330
2E
100
AcDbDictionary
280
     1
281
     1
  3
ADSK_XREC_LAYER_RECONCILED
360
24DF
  0
DICTIONARY
  5
F84
330
F83
100
AcDbDictionary
280
     1
281
     1
  3
ADSK_XREC_LAYER_RECONCILED
360
24E0
  0
DICTIONARY
  5
F86
330
F85
100
AcDbDictionary
280
     1
281
     1
  3
ADSK_XREC_LAYER_RECONCILED
360
24E1
  0
DICTIONARY
  5
DB1
330
18
100
AcDbDictionary
280
     1
281
     1
  3
ACAD_SORTENTS
360
DB2
  3
DIM_BOUNDING_BOXES_V1
360
EA6
  0
DICTIONARY
  5
B5E
330
B5D
100
AcDbDictionary
280
     1
281
     1
  3
ACAD_XREC_ROUNDTRIP
360
28B2
  3
ASDK_XREC_ANNOTATION_SCALE_INFO
360
B5F
  0
DICTIONARY
  5
B62
330
B61
100
AcDbDictionary
280
     1
281
     1
  3
ACAD_XREC_ROUNDTRIP
360
28B3
  3
ASDK_XREC_ANNOTATION_SCALE_INFO
360
B63
  0
DICTIONARY
  5
2881
102
{ACAD_REACTORS
330
C
102
}
330
C
100
AcDbDictionary
281
     1
  3
DIMARCSYM
350
2882
  3
DIMJOGANG
350
2883
  3
DIMLTEX1
350
2885
  3
DIMLTEX2
350
2886
  3
DIMLTYPE
350
2884
  0
DICTIONARY
  5
B0F
102
{ACAD_REACTORS
330
C
102
}
330
C
100
AcDbDictionary
281
     1
  0
XRECORD
  5
CF7
102
{ACAD_REACTORS
330
C
102
}
330
C
100
AcDbXrecord
280
     1
300
AMECH_PP
300
2020
300
87229AMECH_PP_2020_0F
  0
DICTIONARY
  5
387
102
{ACAD_REACTORS
330
C
102
}
330
C
100
AcDbDictionary
281
     1
  0
DICTIONARY
  5
CEF
102
{ACAD_REACTORS
330
C
102
}
330
C
100
AcDbDictionary
281
     1
  3
Metric50
350
CF0
  0
FIELDLIST
  5
D13
102
{ACAD_REACTORS
330
C
102
}
330
C
100
AcDbIdSet
 90
        0
100
AcDbFieldList
  0
DICTIONARY
  5
D
102
{ACAD_REACTORS
330
C
102
}
330
C
100
AcDbDictionary
281
     1
  0
DICTIONARY
  5
301
102
{ACAD_REACTORS
330
C
102
}
330
C
100
AcDbDictionary
281
     1
  3
Layout1
350
B57
  3
Model
350
303
  0
DICTIONARY
  5
386
102
{ACAD_REACTORS
330
C
102
}
330
C
100
AcDbDictionary
281
     1
  3
ByBlock
350
3F0
  3
ByLayer
350
3EF
  3
Global
350
3F1
  0
DICTIONARY
  5
46F
102
{ACAD_REACTORS
330
C
102
}
330
C
100
AcDbDictionary
281
     1
  3
Standard
350
470
  0
DICTIONARY
  5
E
102
{ACAD_REACTORS
330
C
102
}
330
C
100
AcDbDictionary
281
     1
  3
STANDARD
350
1B
  0
DICTIONARY
  5
302
102
{ACAD_REACTORS
330
C
102
}
330
C
100
AcDbDictionary
281
     1
  3
DWG To PDF A4 - landscape
350
7EF
  3
DWG To PDF A4 - portrait
350
7F8
  0
ACDBDICTIONARYWDFLT
  5
2FF
102
{ACAD_REACTORS
330
C
102
}
330
C
100
AcDbDictionary
281
     1
  3
Normal
350
300
100
AcDbDictionaryWithDefault
340
300
  0
RAPIDRTRENDERSETTINGS
  5
EF0
102
{ACAD_REACTORS
330
C
102
}
330
C
100
AcDbRenderSettings
 90
        2
  1
\U+015Arednia
290
     1
290
     0
290
     1
290
     1
  1

  1
Wykonuje 5 poziomów renderowania
 90
        0
100
AcDbRapidRTRenderSettings
 90
        3
 70
     0
 90
        5
 90
        1
 70
     1
 70
     2
 40
3.0
 40
3.0
290
     1
  0
MENTALRAYRENDERSETTINGS
  5
253C
102
{ACAD_XDICTIONARY
360
253D
102
}
102
{ACAD_REACTORS
330
C
102
}
330
C
100
AcDbRenderSettings
 90
        2
  1
Medium
290
     1
290
     1
290
     1
290
     1
  1

  1

 90
        0
100
AcDbMentalRayRenderSettings
 90
        2
 90
        0
 90
        1
 70
     2
 40
3.0
 40
3.0
 40
0.0500000007450581
 40
0.0500000007450581
 40
0.0500000007450581
 40
0.0500000007450581
 70
     0
290
     0
290
     1
 90
        5
 90
        5
 90
        5
290
     0
 90
      500
290
     0
 40
1.0
 90
    10000
 90
        5
 90
        5
 90
        5
290
     0
 90
      200
290
     0
290
     0
290
     0
 40
1.0
 40
1.0
 40
1500.0
 70
     0
 70
     0
 40
10.0
 70
     0
 70
     0
290
     0
  1

 90
       32
 70
     0
 90
     1048
290
     0
 40
1.0
  0
DICTIONARY
  5
44D
102
{ACAD_REACTORS
330
C
102
}
330
C
100
AcDbDictionary
281
     1
  3
A0
350
BFC
  3
A1
350
BFD
  3
A2
350
BFE
  3
A3
350
BFF
  3
A4
350
C00
  3
A5
350
C01
  3
A6
350
44E
  3
A7
350
C02
  3
A8
350
C03
  3
A9
350
C04
  3
B0
350
C05
  3
B1
350
C06
  3
B2
350
C07
  0
DICTIONARY
  5
CED
102
{ACAD_REACTORS
330
C
102
}
330
C
100
AcDbDictionary
281
     1
  3
Metric50
350
CEE
  0
DICTIONARY
  5
388
102
{ACAD_REACTORS
330
C
102
}
330
C
100
AcDbDictionary
281
     1
  3
Standard
350
389
  0
DICTIONARY
  5
3F2
102
{ACAD_REACTORS
330
C
102
}
330
C
100
AcDbDictionary
281
     1
  3
2dWireframe
350
3F8
  3
3D Hidden
350
3FA
  3
3dWireframe
350
3F9
  3
Basic
350
3F7
  3
Brighten
350
3FE
  3
ColorChange
350
402
  3
Conceptual
350
3FB
  3
Dim
350
3FD
  3
EdgeColorOff
350
BDF
  3
Facepattern
350
401
  3
Flat
350
3F3
  3
FlatWithEdges
350
3F4
  3
Gouraud
350
3F5
  3
GouraudWithEdges
350
3F6
  3
Hidden
350
CE7
  3
JitterOff
350
BDD
  3
Linepattern
350
400
  3
OverhangOff
350
BDE
  3
Realistic
350
3FC
  3
Shaded
350
CEC
  3
Shaded with edges
350
CEB
  3
Shades of Gray
350
CE8
  3
Sketchy
350
CE9
  3
Thicken
350
3FF
  3
Wireframe
350
CE6
  3
X-Ray
350
CEA
  0
XRECORD
  5
287F
102
{ACAD_REACTORS
330
C
102
}
330
C
100
AcDbXrecord
280
     1
 90
        1
330
389
  0
DICTIONARY
  5
357
102
{ACAD_REACTORS
330
C
102
}
330
C
100
AcDbDictionary
281
     1
  3
CANNOSCALE
350
57C
  3
CMLEADERSTYLE
350
57A
  3
CTABLESTYLE
350
38E
  3
CVIEWDETAILSTYLE
350
D2C
  3
CVIEWSECTIONSTYLE
350
D2D
  3
DIMASSOC
350
359
  3
HIDETEXT
350
358
  3
INDEXCTL
350
ACC
  3
LAYEREVAL
350
BF1
  3
LAYERNOTIFY
350
BF2
  3
LIGHTINGUNITS
350
57D
  3
MSLTSCALE
350
57B
  3
SOLIDHIST
350
24E2
  3
SORTENTS
350
ACB
  3
XCLIPFRAME
350
287D
  0
DICTIONARY
  5
4D1
102
{ACAD_REACTORS
330
C
102
}
330
C
100
AcDbDictionary
281
     1
  3
AcmStdDictionary
350
4DC
  3
AMDTSECTSYM_ARROWCOLOR
350
4F3
  0
DICTIONARY
  5
478
102
{ACAD_REACTORS
330
C
102
}
330
C
100
AcDbDictionary
281
     1
  0
DICTIONARY
  5
51E
102
{ACAD_REACTORS
330
C
102
}
330
C
100
AcDbDictionary
281
     1
  0
DICTIONARY
  5
E9F
102
{ACAD_REACTORS
330
C
102
}
330
C
100
AcDbDictionary
281
     1
  0
XRECORD
  5
2880
102
{ACAD_REACTORS
330
C
102
}
330
C
100
AcDbXrecord
280
     1
  1
DWGPROPS COOKIE
  2

  3

  4
Philippe Vogel
  6
Secotools DIN Template metric
  7

  8
inpumpadp
  9

300
=
301
=
302
=
303
=
304
=
305
=
306
=
307
=
308
=
309
=
 40
0.0318402777777778
 41
2460375.745532407
 42
2460446.461608796
  1
HTTP://WWW.SECOTOOLS.COM/
 90
        0
  0
DICTIONARY
  5
567
102
{ACAD_REACTORS
330
43C
102
}
330
43C
100
AcDbDictionary
281
     1
  3
BMG3.0
350
8E9
  0
DICTIONARY
  5
EA4
102
{ACAD_REACTORS
330
43C
102
}
330
43C
100
AcDbDictionary
281
     1
1001
ACAD
1000
<All
  0
DICTIONARY
  5
E31
102
{ACAD_REACTORS
330
43C
102
}
330
43C
100
AcDbDictionary
280
     1
281
     1
  0
XRECORD
  5
24D1
102
{ACAD_REACTORS
330
24D0
102
}
330
24D0
100
AcDbXrecord
280
     1
290
     1
  0
XRECORD
  5
24D3
102
{ACAD_REACTORS
330
24D2
102
}
330
24D2
100
AcDbXrecord
280
     1
290
     1
  0
XRECORD
  5
24D5
102
{ACAD_REACTORS
330
24D4
102
}
330
24D4
100
AcDbXrecord
280
     1
290
     1
  0
XRECORD
  5
24D7
102
{ACAD_REACTORS
330
24D6
102
}
330
24D6
100
AcDbXrecord
280
     1
290
     1
  0
XRECORD
  5
24D9
102
{ACAD_REACTORS
330
24D8
102
}
330
24D8
100
AcDbXrecord
280
     1
290
     1
  0
XRECORD
  5
24DB
102
{ACAD_REACTORS
330
24DA
102
}
330
24DA
100
AcDbXrecord
280
     1
290
     1
  0
XRECORD
  5
24DD
102
{ACAD_REACTORS
330
24DC
102
}
330
24DC
100
AcDbXrecord
280
     1
290
     1
  0
XRECORD
  5
24DF
102
{ACAD_REACTORS
330
24DE
102
}
330
24DE
100
AcDbXrecord
280
     1
290
     1
  0
XRECORD
  5
24E0
102
{ACAD_REACTORS
330
F84
102
}
330
F84
100
AcDbXrecord
280
     1
290
     1
  0
XRECORD
  5
24E1
102
{ACAD_REACTORS
330
F86
102
}
330
F86
100
AcDbXrecord
280
     1
290
     1
  0
SORTENTSTABLE
  5
DB2
102
{ACAD_REACTORS
330
DB1
102
}
330
DB1
100
AcDbSortentsTable
330
18
331
1DEF
  5
1856
331
1DF0
  5
184E
  0
DICTIONARY
  5
EA6
102
{ACAD_REACTORS
330
DB1
102
}
330
DB1
100
AcDbDictionary
281
     1
  3
DBBIsEnabled
350
EAE
  3
DBBIsVisible
350
EAF
  0
XRECORD
  5
28B2
102
{ACAD_REACTORS
330
B5E
102
}
330
B5E
100
AcDbXrecord
280
     1
102
SHADEPLOT
 70
     0
  0
XRECORD
  5
B5F
102
{ACAD_REACTORS
330
B5E
102
}
330
B5E
100
AcDbXrecord
280
     1
 90
        1
340
44E
  0
XRECORD
  5
28B3
102
{ACAD_REACTORS
330
B62
102
}
330
B62
100
AcDbXrecord
280
     1
102
SHADEPLOT
 70
     0
  0
XRECORD
  5
B63
102
{ACAD_REACTORS
330
B62
102
}
330
B62
100
AcDbXrecord
280
     1
 90
        1
340
44E
  0
XRECORD
  5
2882
102
{ACAD_REACTORS
330
2881
102
}
330
2881
100
AcDbXrecord
280
     1
 70
     1
  0
XRECORD
  5
2883
102
{ACAD_REACTORS
330
2881
102
}
330
2881
100
AcDbXrecord
280
     1
 40
1.570796326794896
  0
XRECORD
  5
2885
102
{ACAD_REACTORS
330
2881
102
}
330
2881
100
AcDbXrecord
280
     1
340
12
  0
XRECORD
  5
2886
102
{ACAD_REACTORS
330
2881
102
}
330
2881
100
AcDbXrecord
280
     1
340
12
  0
XRECORD
  5
2884
102
{ACAD_REACTORS
330
2881
102
}
330
2881
100
AcDbXrecord
280
     1
340
12
  0
ACDBDETAILVIEWSTYLE
  5
CF0
102
{ACAD_XDICTIONARY
360
28CA
102
}
102
{ACAD_REACTORS
330
CEF
102
}
330
CEF
100
AcDbModelDocViewStyle
 70
     0
  3
Metric50
290
     0
100
AcDbDetailViewStyle
 70
     0
 71
     0
 90
        3
 71
     1
340
10
 40
5.0
340
0
 40
5.0
300

 40
0.0
280
     1
 71
     2
340
14
 90
       25
 71
     3
340
10
 40
5.0
 90
        0
 40
15.0
 90
        1
300
%<\AcVar ViewDetailId>% (%<\AcVar ViewScale \f "%sn">%)
 71
     4
340
14
 90
       25
340
14
 90
       25
280
     0
  0
LAYOUT
  5
B57
102
{ACAD_XDICTIONARY
360
28B0
102
}
102
{ACAD_REACTORS
330
301
102
}
330
301
100
AcDbPlotSettings
  1

  2
DWG To PDF.pc3
  4
UserDefinedMetric (297.00 x 210.00mm)
  6

 40
0.0
 41
0.0
 42
0.0
 43
0.0
 44
297.0
 45
210.0
 46
0.0
 47
0.0
 48
0.0
 49
0.0
140
0.0
141
0.0
142
1.0
143
1.0
 70
   688
 72
     1
 73
     0
 74
     5
  7
monochrome.ctb
 75
    16
147
1.0
148
0.0
149
0.0
100
AcDbLayout
  1
Layout1
 70
     1
 71
     1
 10
0.0
 20
0.0
 11
297.0
 21
210.0
 12
0.0
 22
0.0
 32
0.0
 14
-0.0090585340732332
 24
-0.0064050240921461
 34
-0.0015258207003583
 15
297.0090664869001
 25
210.0064106473033
 35
0.0000000349246037
146
0.0
 13
0.0
 23
0.0
 33
0.0
 16
1.0
 26
0.0
 36
0.0
 17
0.0
 27
1.0
 37
0.0
 76
     0
330
B56
331
B5D
1001
ACAD_PSEXT
1000
DWG To PDF.pc3
1000
PDF
1000
Datei
1000

1070
     0
  0
LAYOUT
  5
303
102
{ACAD_XDICTIONARY
360
2887
102
}
102
{ACAD_REACTORS
330
301
102
}
330
301
100
AcDbPlotSettings
  1

  2
Default Windows System Printer.pc3
  4
A4
  6

 40
4.233333110809326
 41
4.995328426361083
 42
4.233322143554686
 43
4.995330810546875
 44
209.9733276367186
 45
296.9683227539062
 46
0.0
 47
97.55556227323861
 48
0.0
 49
0.0
140
0.0
141
0.0
142
1.0
143
6.090554118624327
 70
  3764
 72
     1
 73
     1
 74
     1
  7
monochrome.ctb
 75
     0
147
0.164188673234525
148
197.0402205952446
149
599.055175279564
100
AcDbLayout
  1
Model
 70
     1
 71
     0
 10
0.0
 20
0.0
 11
12.0
 21
9.0
 12
0.0
 22
0.0
 32
0.0
 14
0.0
 24
0.0
 34
0.0
 15
0.0
 25
0.0
 35
0.0
146
0.0
 13
0.0
 23
0.0
 33
0.0
 16
1.0
 26
0.0
 36
0.0
 17
0.0
 27
1.0
 37
0.0
 76
     0
330
18
331
AD1
1001
ACAD_PSEXT
1000
Default Windows System Printer.pc3
1000
HP LaserJet 5100 PCL 6
1000
HPLaserJet5100Series
1000

1070
     0
  0
MATERIAL
  5
3F0
102
{ACAD_XDICTIONARY
360
24F8
102
}
102
{ACAD_REACTORS
330
386
102
}
330
386
100
AcDbMaterial
  1
ByBlock
 73
     1
 78
     1
172
     1
176
     1
270
     1
274
     1
  0
MATERIAL
  5
3EF
102
{ACAD_XDICTIONARY
360
24F6
102
}
102
{ACAD_REACTORS
330
386
102
}
330
386
100
AcDbMaterial
  1
ByLayer
 73
     1
 78
     1
172
     1
176
     1
270
     1
274
     1
  0
MATERIAL
  5
3F1
102
{ACAD_XDICTIONARY
360
24FA
102
}
102
{ACAD_REACTORS
330
386
102
}
330
386
100
AcDbMaterial
  1
Global
 73
     1
 78
     1
172
     1
176
     1
270
     1
274
     1
  0
MLEADERSTYLE
  5
470
102
{ACAD_XDICTIONARY
360
28AA
102
}
102
{ACAD_REACTORS
330
46F
102
}
330
46F
100
AcDbMLeaderStyle
170
     2
171
     1
172
     0
 90
        2
 40
0.0
 41
0.0
173
     1
 91
-1056964608
340
12
 92
       -2
290
     1
 42
2.0
291
     1
 43
0.36
  3
Standard
 44
5.0
300

342
10
174
     0
178
     6
175
     1
176
     0
 93
-1056964608
 45
3.5
292
     0
297
     0
 46
4.0
 94
-1056964608
 47
1.0
 49
1.0
140
1.0
293
     1
141
0.0
294
     1
177
     0
142
1.0
295
     0
296
     0
143
0.125
1001
ACAD_MLEADERVER
1070
     2
  0
MLINESTYLE
  5
1B
102
{ACAD_REACTORS
330
E
102
}
330
E
100
AcDbMlineStyle
  2
STANDARD
 70
     0
  3

 62
     0
 51
90.0
 52
90.0
 71
     2
 49
0.5
 62
   256
  6
BYLAYER
 49
-0.5
 62
   256
  6
BYLAYER
  0
PLOTSETTINGS
  5
7EF
102
{ACAD_XDICTIONARY
360
28AC
102
}
102
{ACAD_REACTORS
330
302
102
}
330
302
100
AcDbPlotSettings
  1
DWG To PDF A4 - landscape
  2
DWG To PDF.pc3
  4
ISO_expand_A4_(297.00_x_210.00_MM)
  6

 40
5.793749809265136
 41
10.79374980926513
 42
5.79376220703125
 43
10.79374694824219
 44
297.0
 45
210.0
 46
99.7577788938406
 47
0.0
 48
0.0
 49
0.0
140
0.0
141
0.0
142
1.0
143
6.513831472368249
 70
 11956
 72
     1
 73
     0
 74
     1
  7
monochrome.ctb
 75
     0
147
0.153519476861201
148
197.0402205952446
149
599.055175279564
1001
ACAD_PSEXT
1000
DWG To PDF.pc3
1000
PDF
1000
Datei
1000

1070
     0
  0
PLOTSETTINGS
  5
7F8
102
{ACAD_XDICTIONARY
360
28AE
102
}
102
{ACAD_REACTORS
330
302
102
}
330
302
100
AcDbPlotSettings
  1
DWG To PDF A4 - portrait
  2
DWG To PDF.pc3
  4
ISO_expand_A4_(210.00_x_297.00_MM)
  6

 40
5.793749809265136
 41
10.79374980926513
 42
5.793746948242187
 43
10.79376220703125
 44
210.0
 45
297.0
 46
36.42621619811505
 47
0.0
 48
0.0
 49
0.0
140
0.0
141
0.0
142
1.0
143
4.456178811620381
 70
 11956
 72
     1
 73
     0
 74
     1
  7
monochrome.ctb
 75
     0
147
0.2244075119679441
148
197.0402205952446
149
599.055175279564
1001
ACAD_PSEXT
1000
DWG To PDF.pc3
1000
PDF
1000
Datei
1000

1070
     0
  0
ACDBPLACEHOLDER
  5
300
102
{ACAD_REACTORS
330
2FF
102
}
330
2FF
  0
DICTIONARY
  5
253D
330
253C
100
AcDbDictionary
280
     1
281
     1
  3
ADSK_XREC_MENTALRAYSETTINGSINFO
360
253E
  0
SCALE
  5
BFC
102
{ACAD_REACTORS
330
44D
102
}
330
44D
100
AcDbScale
 70
     0
300
100:1
140
100.0
141
1.0
290
     0
  0
SCALE
  5
BFD
102
{ACAD_REACTORS
330
44D
102
}
330
44D
100
AcDbScale
 70
     0
300
50:1
140
50.0
141
1.0
290
     0
  0
SCALE
  5
BFE
102
{ACAD_REACTORS
330
44D
102
}
330
44D
100
AcDbScale
 70
     0
300
20:1
140
20.0
141
1.0
290
     0
  0
SCALE
  5
BFF
102
{ACAD_REACTORS
330
44D
102
}
330
44D
100
AcDbScale
 70
     0
300
10:1
140
10.0
141
1.0
290
     0
  0
SCALE
  5
C00
102
{ACAD_REACTORS
330
44D
102
}
330
44D
100
AcDbScale
 70
     0
300
5:1
140
5.0
141
1.0
290
     0
  0
SCALE
  5
C01
102
{ACAD_REACTORS
330
44D
102
}
330
44D
100
AcDbScale
 70
     0
300
2:1
140
2.0
141
1.0
290
     0
  0
SCALE
  5
44E
102
{ACAD_REACTORS
330
44D
102
}
330
44D
100
AcDbScale
 70
     0
300
1:1
140
1.0
141
1.0
290
     1
  0
SCALE
  5
C02
102
{ACAD_REACTORS
330
44D
102
}
330
44D
100
AcDbScale
 70
     0
300
1:2
140
1.0
141
2.0
290
     0
  0
SCALE
  5
C03
102
{ACAD_REACTORS
330
44D
102
}
330
44D
100
AcDbScale
 70
     0
300
1:5
140
1.0
141
5.0
290
     0
  0
SCALE
  5
C04
102
{ACAD_REACTORS
330
44D
102
}
330
44D
100
AcDbScale
 70
     0
300
1:10
140
1.0
141
10.0
290
     0
  0
SCALE
  5
C05
102
{ACAD_REACTORS
330
44D
102
}
330
44D
100
AcDbScale
 70
     0
300
1:20
140
1.0
141
20.0
290
     0
  0
SCALE
  5
C06
102
{ACAD_REACTORS
330
44D
102
}
330
44D
100
AcDbScale
 70
     0
300
1:50
140
1.0
141
50.0
290
     0
  0
SCALE
  5
C07
102
{ACAD_REACTORS
330
44D
102
}
330
44D
100
AcDbScale
 70
     0
300
1:100
140
1.0
141
100.0
290
     0
  0
ACDBSECTIONVIEWSTYLE
  5
CEE
102
{ACAD_XDICTIONARY
360
28C8
102
}
102
{ACAD_REACTORS
330
CED
102
}
330
CED
100
AcDbModelDocViewStyle
 70
     0
  3
Metric50
290
     0
100
AcDbSectionViewStyle
 70
     0
 71
     0
 90
      102
 71
     1
340
10
 40
5.0
340
0
340
0
 40
5.0
300
I, O, Q, S, X, Z
 40
10.0
 90
        0
 40
2.5
 90
        0
 71
     2
340
14
 90
       25
340
14
 90
       50
 40
5.0
 40
2.5
 40
5.0
 71
     3
340
10
 40
5.0
 90
        0
 40
15.0
 90
        1
300
%<\AcVar ViewSectionStartId>%-%<\AcVar ViewSectionEndId>% (%<\AcVar ViewScale \f "%sn">%)
 71
     4
300
ANSI31
 40
1.0
 90
        0
290
     0
290
     0
 90
        6
 40
0.0
 40
1.570796326794896
 40
0.2617993877991494
 40
1.308996938995747
 40
-0.2617993877991494
 40
1.832595714594044
  0
TABLESTYLE
  5
389
102
{ACAD_XDICTIONARY
360
24E3
102
}
102
{ACAD_REACTORS
330
388
102
}
330
388
100
AcDbTableStyle
  3
Standard
 70
     0
 71
     0
 40
1.5
 41
1.5
280
     0
281
     0
  7
STANDARD
140
4.5
170
     2
 62
     0
 63
     7
283
     0
274
    -2
284
     1
 64
     0
275
    -2
285
     1
 65
     0
276
    -2
286
     1
 66
     0
277
    -2
287
     1
 67
     0
278
    -2
288
     1
 68
     0
279
    -2
289
     1
 69
     0
  7
STANDARD 5 mm
140
6.0
170
     5
 62
     0
 63
     7
283
     0
274
    -2
284
     1
 64
     0
275
    -2
285
     1
 65
     0
276
    -2
286
     1
 66
     0
277
    -2
287
     1
 67
     0
278
    -2
288
     1
 68
     0
279
    -2
289
     1
 69
     0
  7
STANDARD
140
4.5
170
     5
 62
     0
 63
     7
283
     0
274
    -2
284
     1
 64
     0
275
    -2
285
     1
 65
     0
276
    -2
286
     1
 66
     0
277
    -2
287
     1
 67
     0
278
    -2
288
     1
 68
     0
279
    -2
289
     1
 69
     0
  0
VISUALSTYLE
  5
3F8
102
{ACAD_XDICTIONARY
360
2894
102
}
102
{ACAD_REACTORS
330
3F2
102
}
330
3F2
100
AcDbVisualStyle
  2

 70
     4
 71
     0
 72
     2
 73
     0
 90
        0
 40
-0.6
 41
-30.0
 62
     5
 63
     7
 74
     1
 91
        4
 64
     7
 65
   257
 75
     1
175
     1
 42
1.0
 92
        0
 66
   257
 43
1.0
 76
     1
 77
     6
 78
     2
 67
     7
 79
     5
170
     0
171
     0
290
     0
174
     0
 93
        1
 44
0.0
173
     0
291
     0
 45
0.0
1001
ACAD
1000
AcDbSavedByObjectVersion
1070
     0
  0
VISUALSTYLE
  5
3FA
102
{ACAD_XDICTIONARY
360
2898
102
}
102
{ACAD_REACTORS
330
3F2
102
}
330
3F2
100
AcDbVisualStyle
  2

 70
     6
 71
     1
 72
     2
 73
     2
 90
        0
 40
-0.6
 41
-30.0
 62
     5
 63
     7
 74
     2
 91
        2
 64
     7
 65
   257
 75
     2
175
     1
 42
40.0
 92
        0
 66
   257
 43
1.0
 76
     1
 77
     6
 78
     2
 67
     7
 79
     3
170
     0
171
     0
290
     0
174
     0
 93
        1
 44
0.0
173
     0
291
     0
 45
0.0
1001
ACAD
1000
AcDbSavedByObjectVersion
1070
     0
  0
VISUALSTYLE
  5
3F9
102
{ACAD_XDICTIONARY
360
2896
102
}
102
{ACAD_REACTORS
330
3F2
102
}
330
3F2
100
AcDbVisualStyle
  2

 70
     5
 71
     0
 72
     2
 73
     0
 90
        0
 40
-0.6
 41
-30.0
 62
     5
 63
     7
 74
     1
 91
        4
 64
     7
 65
   257
 75
     1
175
     1
 42
1.0
 92
        0
 66
   257
 43
1.0
 76
     1
 77
     6
 78
     2
 67
     7
 79
     5
170
     0
171
     0
290
     0
174
     0
 93
        1
 44
0.0
173
     0
291
     0
 45
0.0
1001
ACAD
1000
AcDbSavedByObjectVersion
1070
     0
  0
VISUALSTYLE
  5
3F7
102
{ACAD_XDICTIONARY
360
2892
102
}
102
{ACAD_REACTORS
330
3F2
102
}
330
3F2
100
AcDbVisualStyle
  2

 70
     7
 71
     1
 72
     0
 73
     1
 90
        0
 40
-0.6
 41
-30.0
 62
     5
 63
     7
 74
     0
 91
        4
 64
     7
 65
   257
 75
     1
175
     1
 42
1.0
 92
        8
 66
     7
 43
1.0
 76
     1
 77
     6
 78
     2
 67
     7
 79
     5
170
     0
171
     0
290
     0
174
     0
 93
        1
 44
0.0
173
     0
291
     1
 45
0.0
1001
ACAD
1000
AcDbSavedByObjectVersion
1070
     0
  0
VISUALSTYLE
  5
3FE
102
{ACAD_XDICTIONARY
360
28A0
102
}
102
{ACAD_REACTORS
330
3F2
102
}
330
3F2
100
AcDbVisualStyle
  2

 70
    12
 71
     2
 72
     2
 73
     0
 90
        0
 40
-0.6
 41
-30.0
 62
     5
 63
     7
 74
     1
 91
        4
 64
     7
 65
   257
 75
     1
175
     1
 42
1.0
 92
        8
 66
     7
 43
1.0
 76
     1
 77
     6
 78
     2
 67
     7
 79
     5
170
     0
171
     0
290
     0
174
     0
 93
        1
 44
50.0
173
     0
291
     1
 45
0.0
1001
ACAD
1000
AcDbSavedByObjectVersion
1070
     0
  0
VISUALSTYLE
  5
402
102
{ACAD_XDICTIONARY
360
28A8
102
}
102
{ACAD_REACTORS
330
3F2
102
}
330
3F2
100
AcDbVisualStyle
  2

 70
    16
 71
     2
 72
     2
 73
     3
 90
        0
 40
-0.6
 41
-30.0
 62
     5
 63
     8
 74
     1
 91
        4
 64
     7
 65
   257
 75
     1
175
     1
 42
1.0
 92
        8
 66
     8
 43
1.0
 76
     1
 77
     6
 78
     2
 67
     7
 79
     5
170
     0
171
     0
290
     0
174
     0
 93
        1
 44
0.0
173
     0
291
     1
 45
0.0
1001
ACAD
1000
AcDbSavedByObjectVersion
1070
     0
  0
VISUALSTYLE
  5
3FB
102
{ACAD_XDICTIONARY
360
289A
102
}
102
{ACAD_REACTORS
330
3F2
102
}
330
3F2
100
AcDbVisualStyle
  2

 70
     9
 71
     3
 72
     2
 73
     0
 90
        0
 40
-0.6
 41
-30.0
 62
     5
 63
     7
 74
     2
 91
        2
 64
     7
 65
   257
 75
     1
175
     1
 42
40.0
 92
        8
 66
     7
 43
1.0
 76
     1
 77
     6
 78
     2
 67
     7
 79
     3
170
     0
171
     0
290
     0
174
     0
 93
        1
 44
0.0
173
     0
291
     0
 45
0.0
1001
ACAD
1000
AcDbSavedByObjectVersion
1070
     0
  0
VISUALSTYLE
  5
3FD
102
{ACAD_XDICTIONARY
360
289E
102
}
102
{ACAD_REACTORS
330
3F2
102
}
330
3F2
100
AcDbVisualStyle
  2

 70
    11
 71
     2
 72
     2
 73
     0
 90
        0
 40
-0.6
 41
-30.0
 62
     5
 63
     7
 74
     1
 91
        4
 64
     7
 65
   257
 75
     1
175
     1
 42
1.0
 92
        8
 66
     7
 43
1.0
 76
     1
 77
     6
 78
     2
 67
     7
 79
     5
170
     0
171
     0
290
     0
174
     0
 93
        1
 44
-50.0
173
     0
291
     1
 45
0.0
1001
ACAD
1000
AcDbSavedByObjectVersion
1070
     0
  0
VISUALSTYLE
  5
BDF
102
{ACAD_XDICTIONARY
360
28B8
102
}
102
{ACAD_REACTORS
330
3F2
102
}
330
3F2
100
AcDbVisualStyle
  2

 70
    22
 71
     2
 72
     2
 73
     0
 90
        0
 40
-0.6
 41
-30.0
 62
     5
 63
     7
 74
     1
 91
        4
 64
     7
 65
   257
 75
     1
175
     1
 42
1.0
 92
        8
 66
     7
 43
1.0
 76
     1
 77
     6
 78
     2
 67
     7
 79
     5
170
     0
171
     0
290
     0
174
     0
 93
        1
 44
0.0
173
     0
291
     1
 45
0.0
1001
ACAD
1000
AcDbSavedByObjectVersion
1070
     0
  0
VISUALSTYLE
  5
401
102
{ACAD_XDICTIONARY
360
28A6
102
}
102
{ACAD_REACTORS
330
3F2
102
}
330
3F2
100
AcDbVisualStyle
  2

 70
    15
 71
     2
 72
     2
 73
     0
 90
        0
 40
-0.6
 41
-30.0
 62
     5
 63
     7
 74
     1
 91
        4
 64
     7
 65
   257
 75
     1
175
     1
 42
1.0
 92
        8
 66
     7
 43
1.0
 76
     1
 77
     6
 78
     2
 67
     7
 79
     5
170
     0
171
     0
290
     0
174
     0
 93
        1
 44
0.0
173
     0
291
     1
 45
0.0
1001
ACAD
1000
AcDbSavedByObjectVersion
1070
     0
  0
VISUALSTYLE
  5
3F3
102
{ACAD_XDICTIONARY
360
288A
102
}
102
{ACAD_REACTORS
330
3F2
102
}
330
3F2
100
AcDbVisualStyle
  2

 70
     0
 71
     2
 72
     1
 73
     1
 90
        2
 40
-0.6
 41
30.0
 62
     5
 63
     7
 74
     0
 91
        4
 64
     7
 65
   257
 75
     1
175
     1
 42
1.0
 92
        8
 66
     7
 43
1.0
 76
     1
 77
     6
 78
     2
 67
     7
 79
     5
170
     0
171
     0
290
     0
174
     0
 93
       13
 44
0.0
173
     0
291
     1
 45
0.0
1001
ACAD
1000
AcDbSavedByObjectVersion
1070
     0
  0
VISUALSTYLE
  5
3F4
102
{ACAD_XDICTIONARY
360
288C
102
}
102
{ACAD_REACTORS
330
3F2
102
}
330
3F2
100
AcDbVisualStyle
  2

 70
     1
 71
     2
 72
     1
 73
     1
 90
        2
 40
-0.6
 41
30.0
 62
     5
 63
     7
 74
     1
 91
        4
 64
     7
 65
   257
 75
     1
175
     1
 42
1.0
 92
        0
 66
   257
 43
1.0
 76
     1
 77
     6
 78
     2
 67
     7
 79
     5
170
     0
171
     0
290
     0
174
     0
 93
       13
 44
0.0
173
     0
291
     1
 45
0.0
1001
ACAD
1000
AcDbSavedByObjectVersion
1070
     0
  0
VISUALSTYLE
  5
3F5
102
{ACAD_XDICTIONARY
360
288E
102
}
102
{ACAD_REACTORS
330
3F2
102
}
330
3F2
100
AcDbVisualStyle
  2

 70
     2
 71
     2
 72
     2
 73
     1
 90
        2
 40
-0.6
 41
30.0
 62
     5
 63
     7
 74
     0
 91
        4
 64
     7
 65
   257
 75
     1
175
     1
 42
1.0
 92
        0
 66
     7
 43
1.0
 76
     1
 77
     6
 78
     2
 67
     7
 79
     5
170
     0
171
     0
290
     0
174
     0
 93
       13
 44
0.0
173
     0
291
     1
 45
0.0
1001
ACAD
1000
AcDbSavedByObjectVersion
1070
     0
  0
VISUALSTYLE
  5
3F6
102
{ACAD_XDICTIONARY
360
2890
102
}
102
{ACAD_REACTORS
330
3F2
102
}
330
3F2
100
AcDbVisualStyle
  2

 70
     3
 71
     2
 72
     2
 73
     1
 90
        2
 40
-0.6
 41
30.0
 62
     5
 63
     7
 74
     1
 91
        4
 64
     7
 65
   257
 75
     1
175
     1
 42
1.0
 92
        0
 66
   257
 43
1.0
 76
     1
 77
     6
 78
     2
 67
     7
 79
     5
170
     0
171
     0
290
     0
174
     0
 93
       13
 44
0.0
173
     0
291
     1
 45
0.0
1001
ACAD
1000
AcDbSavedByObjectVersion
1070
     0
  0
VISUALSTYLE
  5
CE7
102
{ACAD_XDICTIONARY
360
28BC
102
}
102
{ACAD_REACTORS
330
3F2
102
}
330
3F2
100
AcDbVisualStyle
  2

 70
     6
 71
     1
 72
     2
 73
     2
 90
        0
 40
-0.6
 41
-30.0
 62
     5
 63
     7
 74
     2
 91
        2
 64
     7
 65
   257
 75
     2
175
     1
 42
40.0
 92
        0
 66
   257
 43
1.0
 76
     1
 77
     6
 78
     2
 67
     7
 79
     3
170
     0
171
     0
290
     0
174
     0
 93
        1
 44
0.0
173
     0
291
     0
 45
0.0
1001
ACAD
1000
AcDbSavedByObjectVersion
1070
     0
  0
VISUALSTYLE
  5
BDD
102
{ACAD_XDICTIONARY
360
28B4
102
}
102
{ACAD_REACTORS
330
3F2
102
}
330
3F2
100
AcDbVisualStyle
  2

 70
    20
 71
     2
 72
     2
 73
     0
 90
        0
 40
-0.6
 41
-30.0
 62
     5
 63
     7
 74
     1
 91
        4
 64
     7
 65
   257
 75
     1
175
     1
 42
1.0
 92
       10
 66
     7
 43
1.0
 76
     1
 77
     6
 78
     2
 67
     7
 79
     5
170
     0
171
     0
290
     0
174
     0
 93
        1
 44
0.0
173
     0
291
     1
 45
0.0
1001
ACAD
1000
AcDbSavedByObjectVersion
1070
     0
  0
VISUALSTYLE
  5
400
102
{ACAD_XDICTIONARY
360
28A4
102
}
102
{ACAD_REACTORS
330
3F2
102
}
330
3F2
100
AcDbVisualStyle
  2

 70
    14
 71
     2
 72
     2
 73
     0
 90
        0
 40
-0.6
 41
-30.0
 62
     5
 63
     7
 74
     1
 91
        4
 64
     7
 65
   257
 75
     7
175
     7
 42
1.0
 92
        8
 66
     7
 43
1.0
 76
     1
 77
     6
 78
     2
 67
     7
 79
     5
170
     0
171
     0
290
     0
174
     0
 93
        1
 44
0.0
173
     0
291
     1
 45
0.0
1001
ACAD
1000
AcDbSavedByObjectVersion
1070
     0
  0
VISUALSTYLE
  5
BDE
102
{ACAD_XDICTIONARY
360
28B6
102
}
102
{ACAD_REACTORS
330
3F2
102
}
330
3F2
100
AcDbVisualStyle
  2

 70
    21
 71
     2
 72
     2
 73
     0
 90
        0
 40
-0.6
 41
-30.0
 62
     5
 63
     7
 74
     1
 91
        4
 64
     7
 65
   257
 75
     1
175
     1
 42
1.0
 92
        9
 66
     7
 43
1.0
 76
     1
 77
     6
 78
     2
 67
     7
 79
     5
170
     0
171
     0
290
     0
174
     0
 93
        1
 44
0.0
173
     0
291
     1
 45
0.0
1001
ACAD
1000
AcDbSavedByObjectVersion
1070
     0
  0
VISUALSTYLE
  5
3FC
102
{ACAD_XDICTIONARY
360
289C
102
}
102
{ACAD_REACTORS
330
3F2
102
}
330
3F2
100
AcDbVisualStyle
  2

 70
     8
 71
     2
 72
     2
 73
     0
 90
        0
 40
-0.6
 41
-30.0
 62
     5
 63
     7
 74
     1
 91
        0
 64
     7
 65
   257
 75
     1
175
     1
 42
1.0
 92
        8
 66
     8
 43
1.0
 76
     1
 77
     6
 78
     2
 67
     7
 79
     5
170
     0
171
     0
290
     0
174
     0
 93
       13
 44
0.0
173
     0
291
     0
 45
0.0
1001
ACAD
1000
AcDbSavedByObjectVersion
1070
     0
  0
VISUALSTYLE
  5
CEC
102
{ACAD_XDICTIONARY
360
28C6
102
}
102
{ACAD_REACTORS
330
3F2
102
}
330
3F2
100
AcDbVisualStyle
  2

 70
    27
 71
     2
 72
     2
 73
     1
 90
        2
 40
-0.6
 41
30.0
 62
     5
 63
     7
 74
     0
 91
        4
 64
     7
 65
   257
 75
     1
175
     1
 42
1.0
 92
        8
 66
   257
 43
1.0
 76
     1
 77
     6
 78
     2
 67
     8
 79
     3
170
     0
171
     0
290
     0
174
     0
 93
        5
 44
0.0
173
     0
291
     0
 45
0.0
1001
ACAD
1000
AcDbSavedByObjectVersion
1070
     0
  0
VISUALSTYLE
  5
CEB
102
{ACAD_XDICTIONARY
360
28C4
102
}
102
{ACAD_REACTORS
330
3F2
102
}
330
3F2
100
AcDbVisualStyle
  2

 70
    26
 71
     2
 72
     2
 73
     1
 90
        2
 40
-0.6
 41
30.0
 62
     5
 63
     7
 74
     1
 91
        2
 64
     7
 65
   257
 75
     2
175
     1
 42
1.0
 92
        8
 66
   257
 43
1.0
 76
     1
 77
     6
 78
     2
 67
     7
 79
     3
170
     0
171
     0
290
     0
174
     0
 93
        5
 44
0.0
173
     0
291
     0
 45
0.0
1001
ACAD
1000
AcDbSavedByObjectVersion
1070
     0
  0
VISUALSTYLE
  5
CE8
102
{ACAD_XDICTIONARY
360
28BE
102
}
102
{ACAD_REACTORS
330
3F2
102
}
330
3F2
100
AcDbVisualStyle
  2

 70
    23
 71
     2
 72
     2
 73
     3
 90
        0
 40
-0.6
 41
-30.0
 62
     5
 63
     7
 74
     2
 91
        2
 64
     7
 65
     7
 75
     1
175
     1
 42
40.0
 92
        8
 66
     7
 43
1.0
 76
     1
 77
     6
 78
     2
 67
     7
 79
     3
170
     0
171
     0
290
     0
174
     0
 93
        1
 44
0.0
173
     0
291
     0
 45
0.0
1001
ACAD
1000
AcDbSavedByObjectVersion
1070
     0
  0
VISUALSTYLE
  5
CE9
102
{ACAD_XDICTIONARY
360
28C0
102
}
102
{ACAD_REACTORS
330
3F2
102
}
330
3F2
100
AcDbVisualStyle
  2

 70
    24
 71
     1
 72
     2
 73
     2
 90
        0
 40
-0.6
 41
-30.0
 62
     5
 63
     7
 74
     2
 91
        2
 64
     7
 65
     7
 75
     1
175
     1
 42
40.0
 92
       11
 66
     7
 43
1.0
 76
     1
 77
     6
 78
     2
 67
     7
 79
     6
170
     0
171
     0
290
     0
174
     0
 93
        1
 44
0.0
173
     0
291
     0
 45
0.0
1001
ACAD
1000
AcDbSavedByObjectVersion
1070
     0
  0
VISUALSTYLE
  5
3FF
102
{ACAD_XDICTIONARY
360
28A2
102
}
102
{ACAD_REACTORS
330
3F2
102
}
330
3F2
100
AcDbVisualStyle
  2

 70
    13
 71
     2
 72
     2
 73
     0
 90
        0
 40
-0.6
 41
-30.0
 62
     5
 63
     7
 74
     1
 91
        4
 64
     7
 65
   257
 75
     1
175
     1
 42
1.0
 92
       12
 66
     7
 43
1.0
 76
     1
 77
     6
 78
     2
 67
     7
 79
     5
170
     0
171
     0
290
     0
174
     0
 93
        1
 44
0.0
173
     0
291
     1
 45
0.0
1001
ACAD
1000
AcDbSavedByObjectVersion
1070
     0
  0
VISUALSTYLE
  5
CE6
102
{ACAD_XDICTIONARY
360
28BA
102
}
102
{ACAD_REACTORS
330
3F2
102
}
330
3F2
100
AcDbVisualStyle
  2

 70
     5
 71
     0
 72
     2
 73
     0
 90
        0
 40
-0.6
 41
-30.0
 62
     5
 63
     7
 74
     1
 91
        4
 64
     7
 65
   257
 75
     1
175
     1
 42
1.0
 92
        0
 66
   257
 43
1.0
 76
     1
 77
     6
 78
     2
 67
     7
 79
     3
170
     0
171
     0
290
     0
174
     0
 93
        1
 44
0.0
173
     0
291
     0
 45
0.0
1001
ACAD
1000
AcDbSavedByObjectVersion
1070
     0
  0
VISUALSTYLE
  5
CEA
102
{ACAD_XDICTIONARY
360
28C2
102
}
102
{ACAD_REACTORS
330
3F2
102
}
330
3F2
100
AcDbVisualStyle
  2

 70
    25
 71
     2
 72
     2
 73
     1
 90
        1
 40
0.5
 41
-30.0
 62
     5
 63
     7
 74
     1
 91
        0
 64
     7
 65
   257
 75
     1
175
     1
 42
1.0
 92
        8
 66
     7
 43
1.0
 76
     1
 77
     6
 78
     2
 67
     7
 79
     3
170
     0
171
     0
290
     0
174
     0
 93
       13
 44
0.0
173
     0
291
     0
 45
0.0
1001
ACAD
1000
AcDbSavedByObjectVersion
1070
     0
  0
DICTIONARYVAR
  5
57C
102
{ACAD_REACTORS
330
357
102
}
330
357
100
DictionaryVariables
280
     0
  1
1:1
  0
DICTIONARYVAR
  5
57A
102
{ACAD_REACTORS
330
357
102
}
330
357
100
DictionaryVariables
280
     0
  1
STANDARD
  0
DICTIONARYVAR
  5
38E
102
{ACAD_REACTORS
330
357
102
}
330
357
100
DictionaryVariables
280
     0
  1
STANDARD
  0
DICTIONARYVAR
  5
D2C
102
{ACAD_REACTORS
330
357
102
}
330
357
100
DictionaryVariables
280
     0
  1
Metric50
  0
DICTIONARYVAR
  5
D2D
102
{ACAD_REACTORS
330
357
102
}
330
357
100
DictionaryVariables
280
     0
  1
Metric50
  0
DICTIONARYVAR
  5
359
102
{ACAD_REACTORS
330
357
102
}
330
357
100
DictionaryVariables
280
     0
  1
2
  0
DICTIONARYVAR
  5
358
102
{ACAD_REACTORS
330
357
102
}
330
357
100
DictionaryVariables
280
     0
  1
1
  0
DICTIONARYVAR
  5
ACC
102
{ACAD_REACTORS
330
357
102
}
330
357
100
DictionaryVariables
280
     0
  1
0
  0
DICTIONARYVAR
  5
BF1
102
{ACAD_REACTORS
330
357
102
}
330
357
100
DictionaryVariables
280
     0
  1
1
  0
DICTIONARYVAR
  5
BF2
102
{ACAD_REACTORS
330
357
102
}
330
357
100
DictionaryVariables
280
     0
  1
15
  0
DICTIONARYVAR
  5
57D
102
{ACAD_REACTORS
330
357
102
}
330
357
100
DictionaryVariables
280
     0
  1
0
  0
DICTIONARYVAR
  5
57B
102
{ACAD_REACTORS
330
357
102
}
330
357
100
DictionaryVariables
280
     0
  1
0
  0
DICTIONARYVAR
  5
24E2
102
{ACAD_REACTORS
330
357
102
}
330
357
100
DictionaryVariables
280
     0
  1
1
  0
DICTIONARYVAR
  5
ACB
102
{ACAD_REACTORS
330
357
102
}
330
357
100
DictionaryVariables
280
     0
  1
127
  0
DICTIONARYVAR
  5
287D
102
{ACAD_REACTORS
330
357
102
}
330
357
100
DictionaryVariables
280
     0
  1
2
  0
DICTIONARY
  5
4DC
102
{ACAD_REACTORS
330
4D1
102
}
330
4D1
100
AcDbDictionary
281
     1
  0
XRECORD
  5
4F3
102
{ACAD_REACTORS
330
4D1
102
}
330
4D1
100
AcDbXrecord
280
     1
 90
-1023410169
  0
XRECORD
  5
8E9
102
{ACAD_REACTORS
330
567
102
}
330
567
100
AcDbXrecord
280
     1
 91
     1023
301

290
     0
302
1
  8
200
 90
        8
 62
     2
370
    50
331
14
  1
Color_2
  8
160
 90
        8
 62
     1
370
    35
331
14
  1
Color_1
  8
150
 90
        8
 62
    96
370
    50
331
14
  1
Color_96
 92
-1040154880
  8
140
 90
        8
 62
     5
370
    35
331
14
  1
Color_5
  8
130
 90
        8
 62
     6
370
    35
331
14
  1
Color_6
  8
120
 90
        8
 62
     3
370
    50
331
14
  1
Color_3
  8
110
 90
        8
 62
     7
370
    25
331
14
  1
Color_7
  8
100
 90
        8
 62
     4
370
    50
331
14
  1
Color_4
  8
INFTEXT69
 90
        8
 62
     5
370
    -3
331
14
  1
Color_5
  8
INFTEXT68
 90
        8
 62
     5
370
    -3
331
14
  1
Color_5
  8
INFTEXT67
 90
        8
 62
     5
370
    -3
331
14
  1
Color_5
  8
INFTEXT66
 90
        8
 62
     5
370
    -3
331
14
  1
Color_5
  8
INFTEXT65
 90
        8
 62
     5
370
    -3
331
14
  1
Color_5
  8
INFTEXT64
 90
        8
 62
     5
370
    -3
331
14
  1
Color_5
  8
INFTEXT63
 90
        8
 62
     5
370
    -3
331
14
  1
Color_5
  8
INFTEXT62
 90
        8
 62
     5
370
    -3
331
14
  1
Color_5
  8
RECON69
 90
        8
 62
     5
370
    35
331
14
  1
Color_5
  8
RECON68
 90
        8
 62
     5
370
    35
331
14
  1
Color_5
  8
RECON67
 90
        8
 62
     5
370
    35
331
14
  1
Color_5
  8
RECON66
 90
        8
 62
     5
370
    35
331
14
  1
Color_5
  8
RECON65
 90
        8
 62
     5
370
    35
331
14
  1
Color_5
  8
RECON64
 90
        8
 62
     5
370
    35
331
14
  1
Color_5
  8
RECON63
 90
        8
 62
     5
370
    35
331
14
  1
Color_5
  8
RECON62
 90
        8
 62
     5
370
    35
331
14
  1
Color_5
  8
RECON61
 90
        8
 62
     5
370
    35
331
14
  1
Color_5
  8
SK69
 90
        8
 62
     5
370
    35
331
14
  1
Color_5
  8
SK68
 90
        8
 62
     5
370
    35
331
14
  1
Color_5
  8
SK67
 90
        8
 62
     5
370
    35
331
14
  1
Color_5
  8
SK66
 90
        8
 62
     5
370
    35
331
14
  1
Color_5
  8
SK65
 90
        8
 62
     5
370
    35
331
14
  1
Color_5
  8
SK64
 90
        8
 62
     5
370
    35
331
14
  1
Color_5
  8
SK63
 90
        8
 62
     5
370
    35
331
14
  1
Color_5
  8
SK62
 90
        8
 62
     5
370
    35
331
14
  1
Color_5
  8
SK61
 90
        8
 62
     5
370
    35
331
14
  1
Color_5
  8
SKVIEW69
 90
        8
 62
     5
370
    35
331
14
  1
Color_5
  8
SKVIEW68
 90
        8
 62
     5
370
    35
331
14
  1
Color_5
  8
SKVIEW67
 90
        8
 62
     5
370
    35
331
14
  1
Color_5
  8
SKVIEW66
 90
        8
 62
     5
370
    35
331
14
  1
Color_5
  8
SKVIEW65
 90
        8
 62
     5
370
    35
331
14
  1
Color_5
  8
SKVIEW64
 90
        8
 62
     5
370
    35
331
14
  1
Color_5
  8
SKVIEW63
 90
        8
 62
     5
370
    35
331
14
  1
Color_5
  8
SKVIEW62
 90
        8
 62
     5
370
    35
331
14
  1
Color_5
  8
SKVIEW61
 90
        8
 62
     5
370
    35
331
14
  1
Color_5
  8
69
 90
        8
 62
     5
370
    35
331
14
  1
Color_5
  8
68
 90
        8
 62
     5
370
    35
331
14
  1
Color_5
  8
67
 90
        8
 62
     5
370
    35
331
14
  1
Color_5
  8
66
 90
        8
 62
     5
370
    35
331
14
  1
Color_5
  8
65
 90
        8
 62
     5
370
    35
331
14
  1
Color_5
  8
64
 90
        8
 62
     5
370
    35
331
14
  1
Color_5
  8
63
 90
        8
 62
     5
370
    35
331
14
  1
Color_5
  8
62
 90
        8
 62
     5
370
    35
331
14
  1
Color_5
  8
61
 90
        8
 62
     5
370
    35
331
14
  1
Color_5
  8
59
 90
        8
 62
     5
370
    -3
331
14
  1
Color_5
  8
58
 90
        8
 62
     5
370
    -3
331
14
  1
Color_5
  8
57
 90
        8
 62
     5
370
    -3
331
14
  1
Color_5
  8
56
 90
        8
 62
     5
370
    -3
331
14
  1
Color_5
  8
55
 90
        8
 62
     5
370
    -3
331
14
  1
Color_5
  8
54
 90
        8
 62
     5
370
    -3
331
14
  1
Color_5
  8
53
 90
        8
 62
     5
370
    -3
331
14
  1
Color_5
  8
52
 90
        8
 62
     5
370
    -3
331
14
  1
Color_5
  8
51
 90
        8
 62
     5
370
    -3
331
14
  1
Color_5
  8
FRAME59
 90
        8
 62
     7
370
    -3
331
14
  1
Color_7
  8
FRAME58
 90
        8
 62
     7
370
    -3
331
14
  1
Color_7
  8
FRAME57
 90
        8
 62
     7
370
    -3
331
14
  1
Color_7
  8
FRAME56
 90
        8
 62
     7
370
    -3
331
14
  1
Color_7
  8
FRAME55
 90
        8
 62
     7
370
    -3
331
14
  1
Color_7
  8
FRAME54
 90
        8
 62
     7
370
    -3
331
14
  1
Color_7
  8
FRAME53
 90
        8
 62
     7
370
    -3
331
14
  1
Color_7
  8
FRAME52
 90
        8
 62
     7
370
    -3
331
14
  1
Color_7
  8
RECON7
 90
        8
 62
     5
370
    25
331
14
  1
Color_5
  8
RECON6
 90
        8
 62
     5
370
    35
331
14
  1
Color_5
  8
RECON4
 90
        8
 62
     2
370
    25
331
14
  1
Color_2
  8
RECON3
 90
        8
 62
     1
370
    35
331
14
  1
Color_1
  8
RECON2
 90
        8
 62
     7
370
    25
331
14
  1
Color_7
  8
RECON1
 90
        8
 62
     4
370
    50
331
14
  1
Color_4
  8
SKVIEW7
 90
        8
 62
     5
370
    25
331
14
  1
Color_5
  8
SK7
 90
        8
 62
     5
370
    25
331
14
  1
Color_5
  8
7
 90
        8
 62
     5
370
    25
331
14
  1
Color_5
  8
INFMAINVIEW
 90
        8
 62
     9
370
    18
331
14
  1
Color_9
  8
INFTOTAL
 90
        8
 62
     9
370
    18
331
14
  1
Color_9
  8
INFTEXT61
 90
        8
 62
     5
370
    -3
331
14
  1
Color_5
  8
INFWKP
 90
        8
 62
    30
370
    25
331
14
  1
Color_30
  8
SKVIEW6
 90
        8
 62
     5
370
    35
331
14
  1
Color_5
  8
SKVIEW4
 90
        8
 62
     2
370
    25
331
14
  1
Color_2
  8
SKVIEW3
 90
        8
 62
     1
370
    35
331
14
  1
Color_1
  8
SKVIEW2
 90
        8
 62
     7
370
    25
331
14
  1
Color_7
  8
SKVIEW1
 90
        8
 62
     4
370
    50
331
14
  1
Color_4
  8
NOCUT
 90
        8
 62
     7
370
    25
331
14
  1
Color_7
  8
CUT
 90
        8
 62
     1
370
    25
331
14
  1
Color_1
  8
DEFPOINTS
 90
        0
 62
     7
370
    -3
331
14
  1
Color_7
  8
SK6
 90
        8
 62
     5
370
    35
331
14
  1
Color_5
  8
6
 90
        8
 62
     5
370
    35
331
14
  1
Color_5
  8
FRAME51
 90
        8
 62
     7
370
    -3
331
14
  1
Color_7
  8
SK4
 90
        8
 62
     2
370
    25
331
14
  1
Color_2
  8
4
 90
        8
 62
     2
370
    25
331
14
  1
Color_2
  8
SK3
 90
        8
 62
     1
370
    35
331
14
  1
Color_1
  8
3
 90
        8
 62
     1
370
    35
331
14
  1
Color_1
  8
SK2
 90
        8
 62
     7
370
    25
331
14
  1
Color_7
  8
2
 90
        8
 62
     7
370
    25
331
14
  1
Color_7
  8
SK1
 90
        8
 62
     4
370
    50
331
14
  1
Color_4
  8
1
 90
        8
 62
     4
370
    50
331
14
  1
Color_4
  8
0
 90
        0
 62
     7
370
    -3
331
14
  1
Color_7
  0
XRECORD
  5
EAE
102
{ACAD_REACTORS
330
EA6
102
}
330
EA6
100
AcDbXrecord
280
     1
290
     1
  0
XRECORD
  5
EAF
102
{ACAD_REACTORS
330
EA6
102
}
330
EA6
100
AcDbXrecord
280
     1
290
     1
  0
DICTIONARY
  5
28CA
330
CF0
100
AcDbDictionary
280
     1
281
     1
  3
ACAD_XREC_ROUNDTRIP
360
28CB
  0
DICTIONARY
  5
28B0
330
B57
100
AcDbDictionary
280
     1
281
     1
  3
ACAD_XREC_ROUNDTRIP
360
28B1
  0
DICTIONARY
  5
2887
330
303
100
AcDbDictionary
280
     1
281
     1
  3
ACAD_XREC_ROUNDTRIP
360
2888
  0
DICTIONARY
  5
24F8
330
3F0
100
AcDbDictionary
280
     1
281
     1
  3
ACAD_XREC_ROUNDTRIP
360
24F9
  0
DICTIONARY
  5
24F6
330
3EF
100
AcDbDictionary
280
     1
281
     1
  3
ACAD_XREC_ROUNDTRIP
360
24F7
  0
DICTIONARY
  5
24FA
330
3F1
100
AcDbDictionary
280
     1
281
     1
  3
ACAD_XREC_ROUNDTRIP
360
24FB
  0
DICTIONARY
  5
28AA
330
470
100
AcDbDictionary
280
     1
281
     1
  3
ACAD_XREC_ROUNDTRIP
360
28AB
  0
DICTIONARY
  5
28AC
330
7EF
100
AcDbDictionary
280
     1
281
     1
  3
ACAD_XREC_ROUNDTRIP
360
28AD
  0
DICTIONARY
  5
28AE
330
7F8
100
AcDbDictionary
280
     1
281
     1
  3
ACAD_XREC_ROUNDTRIP
360
28AF
  0
XRECORD
  5
253E
102
{ACAD_REACTORS
330
253D
102
}
330
253D
100
AcDbXrecord
280
     1
 70
     2
 71
     3
 72
     0
  0
DICTIONARY
  5
28C8
330
CEE
100
AcDbDictionary
280
     1
281
     1
  3
ACAD_XREC_ROUNDTRIP
360
28C9
  0
DICTIONARY
  5
24E3
330
389
100
AcDbDictionary
280
     1
281
     1
  3
ACAD_ROUNDTRIP_2008_TABLESTYLE_CELLSTYLEMAP
360
287E
  3
ACAD_XREC_ROUNDTRIP
360
2889
  0
DICTIONARY
  5
2894
330
3F8
100
AcDbDictionary
280
     1
281
     1
  3
ACAD_XREC_ROUNDTRIP
360
2895
  0
DICTIONARY
  5
2898
330
3FA
100
AcDbDictionary
280
     1
281
     1
  3
ACAD_XREC_ROUNDTRIP
360
2899
  0
DICTIONARY
  5
2896
330
3F9
100
AcDbDictionary
280
     1
281
     1
  3
ACAD_XREC_ROUNDTRIP
360
2897
  0
DICTIONARY
  5
2892
330
3F7
100
AcDbDictionary
280
     1
281
     1
  3
ACAD_XREC_ROUNDTRIP
360
2893
  0
DICTIONARY
  5
28A0
330
3FE
100
AcDbDictionary
280
     1
281
     1
  3
ACAD_XREC_ROUNDTRIP
360
28A1
  0
DICTIONARY
  5
28A8
330
402
100
AcDbDictionary
280
     1
281
     1
  3
ACAD_XREC_ROUNDTRIP
360
28A9
  0
DICTIONARY
  5
289A
330
3FB
100
AcDbDictionary
280
     1
281
     1
  3
ACAD_XREC_ROUNDTRIP
360
289B
  0
DICTIONARY
  5
289E
330
3FD
100
AcDbDictionary
280
     1
281
     1
  3
ACAD_XREC_ROUNDTRIP
360
289F
  0
DICTIONARY
  5
28B8
330
BDF
100
AcDbDictionary
280
     1
281
     1
  3
ACAD_XREC_ROUNDTRIP
360
28B9
  0
DICTIONARY
  5
28A6
330
401
100
AcDbDictionary
280
     1
281
     1
  3
ACAD_XREC_ROUNDTRIP
360
28A7
  0
DICTIONARY
  5
288A
330
3F3
100
AcDbDictionary
280
     1
281
     1
  3
ACAD_XREC_ROUNDTRIP
360
288B
  0
DICTIONARY
  5
288C
330
3F4
100
AcDbDictionary
280
     1
281
     1
  3
ACAD_XREC_ROUNDTRIP
360
288D
  0
DICTIONARY
  5
288E
330
3F5
100
AcDbDictionary
280
     1
281
     1
  3
ACAD_XREC_ROUNDTRIP
360
288F
  0
DICTIONARY
  5
2890
330
3F6
100
AcDbDictionary
280
     1
281
     1
  3
ACAD_XREC_ROUNDTRIP
360
2891
  0
DICTIONARY
  5
28BC
330
CE7
100
AcDbDictionary
280
     1
281
     1
  3
ACAD_XREC_ROUNDTRIP
360
28BD
  0
DICTIONARY
  5
28B4
330
BDD
100
AcDbDictionary
280
     1
281
     1
  3
ACAD_XREC_ROUNDTRIP
360
28B5
  0
DICTIONARY
  5
28A4
330
400
100
AcDbDictionary
280
     1
281
     1
  3
ACAD_XREC_ROUNDTRIP
360
28A5
  0
DICTIONARY
  5
28B6
330
BDE
100
AcDbDictionary
280
     1
281
     1
  3
ACAD_XREC_ROUNDTRIP
360
28B7
  0
DICTIONARY
  5
289C
330
3FC
100
AcDbDictionary
280
     1
281
     1
  3
ACAD_XREC_ROUNDTRIP
360
289D
  0
DICTIONARY
  5
28C6
330
CEC
100
AcDbDictionary
280
     1
281
     1
  3
ACAD_XREC_ROUNDTRIP
360
28C7
  0
DICTIONARY
  5
28C4
330
CEB
100
AcDbDictionary
280
     1
281
     1
  3
ACAD_XREC_ROUNDTRIP
360
28C5
  0
DICTIONARY
  5
28BE
330
CE8
100
AcDbDictionary
280
     1
281
     1
  3
ACAD_XREC_ROUNDTRIP
360
28BF
  0
DICTIONARY
  5
28C0
330
CE9
100
AcDbDictionary
280
     1
281
     1
  3
ACAD_XREC_ROUNDTRIP
360
28C1
  0
DICTIONARY
  5
28A2
330
3FF
100
AcDbDictionary
280
     1
281
     1
  3
ACAD_XREC_ROUNDTRIP
360
28A3
  0
DICTIONARY
  5
28BA
330
CE6
100
AcDbDictionary
280
     1
281
     1
  3
ACAD_XREC_ROUNDTRIP
360
28BB
  0
DICTIONARY
  5
28C2
330
CEA
100
AcDbDictionary
280
     1
281
     1
  3
ACAD_XREC_ROUNDTRIP
360
28C3
  0
XRECORD
  5
28CB
102
{ACAD_REACTORS
330
28CA
102
}
330
28CA
100
AcDbXrecord
280
     1
102
DISPLAYNAME
  1
Metric50
102
FLAGS
 90
        0
  0
XRECORD
  5
28B1
102
{ACAD_REACTORS
330
28B0
102
}
330
28B0
100
AcDbXrecord
280
     1
102
SHADEPLOT
 70
     0
102
SHADEPLOTRESLEVEL
 70
     2
102
SHADEPLOTCUSTOMDPI
 70
   300
  0
XRECORD
  5
2888
102
{ACAD_REACTORS
330
2887
102
}
330
2887
100
AcDbXrecord
280
     1
102
SHADEPLOT
 70
     0
102
SHADEPLOTRESLEVEL
 70
     2
102
SHADEPLOTCUSTOMDPI
 70
   300
  0
XRECORD
  5
24F9
102
{ACAD_REACTORS
330
24F8
102
}
330
24F8
100
AcDbXrecord
280
     1
102
MATERIAL
148
0.0
149
0.0
149
0.0
 93
        0
 94
      127
282
     0
 72
     1
 77
     1
171
     1
175
     1
179
     1
273
     0
  0
XRECORD
  5
24F7
102
{ACAD_REACTORS
330
24F6
102
}
330
24F6
100
AcDbXrecord
280
     1
102
MATERIAL
148
0.0
149
0.0
149
0.0
 93
        0
 94
      127
282
     0
 72
     1
 77
     1
171
     1
175
     1
179
     1
273
     0
  0
XRECORD
  5
24FB
102
{ACAD_REACTORS
330
24FA
102
}
330
24FA
100
AcDbXrecord
280
     1
102
MATERIAL
148
0.0
149
0.0
149
0.0
 93
        0
 94
      127
282
     0
 72
     1
 77
     1
171
     1
175
     1
179
     1
273
     0
  0
XRECORD
  5
28AB
102
{ACAD_REACTORS
330
28AA
102
}
330
28AA
100
AcDbXrecord
280
     1
102
ACAD_ROUNDTRIP_2012_MLEADER_STYLE
298
     1
  0
XRECORD
  5
28AD
102
{ACAD_REACTORS
330
28AC
102
}
330
28AC
100
AcDbXrecord
280
     1
102
SHADEPLOT
 70
     0
102
SHADEPLOTRESLEVEL
 70
     2
102
SHADEPLOTCUSTOMDPI
 70
   300
  0
XRECORD
  5
28AF
102
{ACAD_REACTORS
330
28AE
102
}
330
28AE
100
AcDbXrecord
280
     1
102
SHADEPLOT
 70
     0
102
SHADEPLOTRESLEVEL
 70
     2
102
SHADEPLOTCUSTOMDPI
 70
   300
  0
XRECORD
  5
28C9
102
{ACAD_REACTORS
330
28C8
102
}
330
28C8
100
AcDbXrecord
280
     1
102
DISPLAYNAME
  1
Metric50
102
FLAGS
 90
        0
  0
CELLSTYLEMAP
  5
287E
102
{ACAD_REACTORS
330
24E3
102
}
330
24E3
100
AcDbCellStyleMap
 90
        3
300
CELLSTYLE
  1
TABLEFORMAT_BEGIN
 90
        5
170
     1
 91
        0
 92
    32768
 62
   257
 93
        1
300
CONTENTFORMAT
  1
CONTENTFORMAT_BEGIN
 90
        0
 91
        0
 92
        4
 93
        0
300

 40
0.0
140
1.0
 94
        5
 62
     0
340
1E
144
6.0
309
CONTENTFORMAT_END
171
     1
301
MARGIN
  1
CELLMARGIN_BEGIN
 40
1.5
 40
1.5
 40
1.5
 40
1.5
 40
0.18
 40
0.18
309
CELLMARGIN_END
 94
        6
 95
        1
302
GRIDFORMAT
  1
GRIDFORMAT_BEGIN
 90
        0
 91
        1
 62
     0
 92
       -2
340
0
 93
        0
 40
0.045
309
GRIDFORMAT_END
 95
        2
302
GRIDFORMAT
  1
GRIDFORMAT_BEGIN
 90
        0
 91
        1
 62
     0
 92
       -2
340
0
 93
        0
 40
0.045
309
GRIDFORMAT_END
 95
        4
302
GRIDFORMAT
  1
GRIDFORMAT_BEGIN
 90
        0
 91
        1
 62
     0
 92
       -2
340
0
 93
        0
 40
0.045
309
GRIDFORMAT_END
 95
        8
302
GRIDFORMAT
  1
GRIDFORMAT_BEGIN
 90
        0
 91
        1
 62
     0
 92
       -2
340
0
 93
        0
 40
0.045
309
GRIDFORMAT_END
 95
       16
302
GRIDFORMAT
  1
GRIDFORMAT_BEGIN
 90
        0
 91
        1
 62
     0
 92
       -2
340
0
 93
        0
 40
0.045
309
GRIDFORMAT_END
 95
       32
302
GRIDFORMAT
  1
GRIDFORMAT_BEGIN
 90
        0
 91
        1
 62
     0
 92
       -2
340
0
 93
        0
 40
0.045
309
GRIDFORMAT_END
309
TABLEFORMAT_END
  1
CELLSTYLE_BEGIN
 90
        1
 91
        1
300
_TITLE
309
CELLSTYLE_END
300
CELLSTYLE
  1
TABLEFORMAT_BEGIN
 90
        5
170
     1
 91
        0
 92
        0
 62
   257
 93
        1
300
CONTENTFORMAT
  1
CONTENTFORMAT_BEGIN
 90
        0
 91
        0
 92
        4
 93
        0
300

 40
0.0
140
1.0
 94
        5
 62
     0
340
10
144
4.5
309
CONTENTFORMAT_END
171
     1
301
MARGIN
  1
CELLMARGIN_BEGIN
 40
1.5
 40
1.5
 40
1.5
 40
1.5
 40
0.18
 40
0.18
309
CELLMARGIN_END
 94
        6
 95
        1
302
GRIDFORMAT
  1
GRIDFORMAT_BEGIN
 90
        0
 91
        1
 62
     0
 92
       -2
340
0
 93
        0
 40
0.045
309
GRIDFORMAT_END
 95
        2
302
GRIDFORMAT
  1
GRIDFORMAT_BEGIN
 90
        0
 91
        1
 62
     0
 92
       -2
340
0
 93
        0
 40
0.045
309
GRIDFORMAT_END
 95
        4
302
GRIDFORMAT
  1
GRIDFORMAT_BEGIN
 90
        0
 91
        1
 62
     0
 92
       -2
340
0
 93
        0
 40
0.045
309
GRIDFORMAT_END
 95
        8
302
GRIDFORMAT
  1
GRIDFORMAT_BEGIN
 90
        0
 91
        1
 62
     0
 92
       -2
340
0
 93
        0
 40
0.045
309
GRIDFORMAT_END
 95
       16
302
GRIDFORMAT
  1
GRIDFORMAT_BEGIN
 90
        0
 91
        1
 62
     0
 92
       -2
340
0
 93
        0
 40
0.045
309
GRIDFORMAT_END
 95
       32
302
GRIDFORMAT
  1
GRIDFORMAT_BEGIN
 90
        0
 91
        1
 62
     0
 92
       -2
340
0
 93
        0
 40
0.045
309
GRIDFORMAT_END
309
TABLEFORMAT_END
  1
CELLSTYLE_BEGIN
 90
        2
 91
        1
300
_HEADER
309
CELLSTYLE_END
300
CELLSTYLE
  1
TABLEFORMAT_BEGIN
 90
        5
170
     1
 91
        0
 92
        0
 62
   257
 93
        1
300
CONTENTFORMAT
  1
CONTENTFORMAT_BEGIN
 90
        0
 91
        0
 92
        4
 93
        0
300

 40
0.0
140
1.0
 94
        2
 62
     0
340
10
144
4.5
309
CONTENTFORMAT_END
171
     1
301
MARGIN
  1
CELLMARGIN_BEGIN
 40
1.5
 40
1.5
 40
1.5
 40
1.5
 40
0.18
 40
0.18
309
CELLMARGIN_END
 94
        6
 95
        1
302
GRIDFORMAT
  1
GRIDFORMAT_BEGIN
 90
        0
 91
        1
 62
     0
 92
       -2
340
0
 93
        0
 40
0.045
309
GRIDFORMAT_END
 95
        2
302
GRIDFORMAT
  1
GRIDFORMAT_BEGIN
 90
        0
 91
        1
 62
     0
 92
       -2
340
0
 93
        0
 40
0.045
309
GRIDFORMAT_END
 95
        4
302
GRIDFORMAT
  1
GRIDFORMAT_BEGIN
 90
        0
 91
        1
 62
     0
 92
       -2
340
0
 93
        0
 40
0.045
309
GRIDFORMAT_END
 95
        8
302
GRIDFORMAT
  1
GRIDFORMAT_BEGIN
 90
        0
 91
        1
 62
     0
 92
       -2
340
0
 93
        0
 40
0.045
309
GRIDFORMAT_END
 95
       16
302
GRIDFORMAT
  1
GRIDFORMAT_BEGIN
 90
        0
 91
        1
 62
     0
 92
       -2
340
0
 93
        0
 40
0.045
309
GRIDFORMAT_END
 95
       32
302
GRIDFORMAT
  1
GRIDFORMAT_BEGIN
 90
        0
 91
        1
 62
     0
 92
       -2
340
0
 93
        0
 40
0.045
309
GRIDFORMAT_END
309
TABLEFORMAT_END
  1
CELLSTYLE_BEGIN
 90
        3
 91
        2
300
_DATA
309
CELLSTYLE_END
  0
XRECORD
  5
2889
102
{ACAD_REACTORS
330
24E3
102
}
330
24E3
100
AcDbXrecord
280
     1
102
ACAD_ROUNDTRIP_PRE2007_TABLESTYLE
 90
        4
 91
        0
  1

 92
        4
 93
        0
  2

 94
        4
 95
        0
  3

  0
XRECORD
  5
2895
102
{ACAD_REACTORS
330
2894
102
}
330
2894
100
AcDbXrecord
280
     1
102
RTVSPost2010Prop28
280
     1
102
RTVSPost2010PropOp28
 70
     1
102
RTVSPost2010Prop29
280
     1
102
RTVSPost2010PropOp29
 70
     1
102
RTVSPost2010Prop30
280
     0
102
RTVSPost2010PropOp30
 70
     1
102
RTVSPost2010Prop31
280
     0
102
RTVSPost2010PropOp31
 70
     1
102
RTVSPost2010Prop32
280
     0
102
RTVSPost2010PropOp32
 70
     1
102
RTVSPost2010Prop33
280
     0
102
RTVSPost2010PropOp33
 70
     1
102
RTVSPost2010Prop34
280
     0
102
RTVSPost2010PropOp34
 70
     1
102
RTVSPost2010Prop35
280
     0
102
RTVSPost2010PropOp35
 70
     1
102
RTVSPost2010Prop36
280
     0
102
RTVSPost2010PropOp36
 70
     1
102
RTVSPost2010Prop37
 90
       50
102
RTVSPost2010PropOp37
 70
     1
102
RTVSPost2010Prop38
140
0.0
102
RTVSPost2010PropOp38
 70
     1
102
RTVSPost2010Prop39
140
1.0
102
RTVSPost2010PropOp39
 70
     1
102
RTVSPost2010Prop40
 90
        0
102
RTVSPost2010PropOp40
 70
     1
102
RTVSPost2010Prop41ColorIndex
 90
       18
102
RTVSPost2010Prop41ColorRGB
 90
        0
102
RTVSPost2010PropOp41
 70
     1
102
RTVSPost2010Prop42
 90
       50
102
RTVSPost2010PropOp42
 70
     1
102
RTVSPost2010Prop43
 90
        3
102
RTVSPost2010PropOp43
 70
     1
102
RTVSPost2010Prop44ColorIndex
 90
        5
102
RTVSPost2010Prop44ColorRGB
 90
      255
102
RTVSPost2010PropOp44
 70
     1
102
RTVSPost2010Prop45
280
     0
102
RTVSPost2010PropOp45
 70
     1
102
RTVSPost2010Prop46
 90
       50
102
RTVSPost2010PropOp46
 70
     1
102
RTVSPost2010Prop47
 90
       50
102
RTVSPost2010PropOp47
 70
     1
102
RTVSPost2010Prop48
 90
       50
102
RTVSPost2010PropOp48
 70
     1
102
RTVSPost2010Prop49
280
     0
102
RTVSPost2010PropOp49
 70
     1
102
RTVSPost2010Prop50
 90
       50
102
RTVSPost2010PropOp50
 70
     1
102
RTVSPost2010Prop51ColorIndex
 90
      256
102
RTVSPost2010Prop51ColorRGB
 90
-16777216
102
RTVSPost2010PropOp51
 70
     0
102
RTVSPost2010Prop52
140
1.0
102
RTVSPost2010PropOp52
 70
     0
102
RTVSPost2010Prop53
 90
        2
102
RTVSPost2010PropOp53
 70
     1
102
RTVSPost2010Prop54
  1
strokes_ogs.tif
102
RTVSPost2010PropOp54
 70
     1
102
RTVSPost2010Prop55
280
     0
102
RTVSPost2010PropOp55
 70
     1
102
RTVSPost2010Prop56
140
1.0
102
RTVSPost2010PropOp56
 70
     1
102
RTVSPost2010Prop57
140
1.0
102
RTVSPost2010PropOp57
 70
     1
102
RTVSPropertyOp0
 70
     1
102
RTVSPropertyOp1
 70
     1
102
RTVSPropertyOp2
 70
     1
102
RTVSPropertyOp3
 70
     1
102
RTVSPropertyOp4
 70
     1
102
RTVSPropertyOp5
 70
     1
102
RTVSPropertyOp6
 70
     1
102
RTVSPropertyOp7
 70
     1
102
RTVSPropertyOp8
 70
     1
102
RTVSPropertyOp9
 70
     1
102
RTVSPropertyOp10
 70
     1
102
RTVSPropertyOp11
 70
     1
102
RTVSPropertyOp12
 70
     1
102
RTVSPropertyOp13
 70
     1
102
RTVSPropertyOp14
 70
     1
102
RTVSPropertyOp15
 70
     1
102
RTVSPropertyOp16
 70
     1
102
RTVSPropertyOp17
 70
     1
102
RTVSPropertyOp18
 70
     1
102
RTVSPropertyOp19
 70
     1
102
RTVSPropertyOp20
 70
     1
102
RTVSPropertyOp21
 70
     1
102
RTVSPropertyOp22
 70
     1
102
RTVSPropertyOp23
 70
     1
102
RTVSPropertyOp24
 70
     1
102
RTVSPropertyOp25
 70
     1
102
RTVSPropertyOp26
 70
     1
102
RTVSPropertyOp27
 70
     1
102
RTVSPropertyOp28
 70
     1
102
RTVSPropertyOp29
 70
     1
102
RTVSPropertyOp30
 70
     1
102
RTVSPropertyOp31
 70
     1
102
RTVSPropertyOp32
 70
     1
102
RTVSPropertyOp33
 70
     1
102
RTVSPropertyOp34
 70
     1
102
RTVSPropertyOp35
 70
     1
102
RTVSPropertyOp36
 70
     1
102
RTVSPropertyOp37
 70
     1
102
RTVSPropertyOp38
 70
     1
102
RTVSPropertyOp39
 70
     1
102
RTVSPropertyOp40
 70
     1
102
RTVSPropertyOp41
 70
     1
102
RTVSPropertyOp42
 70
     1
102
RTVSPropertyOp43
 70
     1
102
RTVSPropertyOp44
 70
     1
102
RTVSPropertyOp45
 70
     1
102
RTVSPropertyOp46
 70
     1
102
RTVSPropertyOp47
 70
     1
102
RTVSPropertyOp48
 70
     1
102
RTVSPropertyOp49
 70
     1
102
RTVSPropertyOp50
 70
     1
102
RTVSPropertyOp51
 70
     0
102
RTVSPropertyOp52
 70
     0
102
RTVSPropertyOp53
 70
     1
102
RTVSPropertyOp54
 70
     1
102
RTVSPropertyOp55
 70
     1
102
RTVSPropertyOp56
 70
     1
102
RTVSPropertyOp57
 70
     1
102
RTVSPropertyOp58
 70
     1
102
RTVSPropertyOp59
 70
     1
102
RTVSPropertyOp60
 70
     1
102
RTVSPropertyOp61
 70
     1
102
RTVSPropertyOp62
 70
     1
  0
XRECORD
  5
2899
102
{ACAD_REACTORS
330
2898
102
}
330
2898
100
AcDbXrecord
280
     1
102
RTVSPost2010Prop28
280
     0
102
RTVSPost2010PropOp28
 70
     1
102
RTVSPost2010Prop29
280
     1
102
RTVSPost2010PropOp29
 70
     1
102
RTVSPost2010Prop30
280
     1
102
RTVSPost2010PropOp30
 70
     1
102
RTVSPost2010Prop31
280
     0
102
RTVSPost2010PropOp31
 70
     1
102
RTVSPost2010Prop32
280
     0
102
RTVSPost2010PropOp32
 70
     1
102
RTVSPost2010Prop33
280
     0
102
RTVSPost2010PropOp33
 70
     1
102
RTVSPost2010Prop34
280
     0
102
RTVSPost2010PropOp34
 70
     1
102
RTVSPost2010Prop35
280
     0
102
RTVSPost2010PropOp35
 70
     1
102
RTVSPost2010Prop36
280
     0
102
RTVSPost2010PropOp36
 70
     1
102
RTVSPost2010Prop37
 90
       50
102
RTVSPost2010PropOp37
 70
     1
102
RTVSPost2010Prop38
140
0.0
102
RTVSPost2010PropOp38
 70
     1
102
RTVSPost2010Prop39
140
1.0
102
RTVSPost2010PropOp39
 70
     1
102
RTVSPost2010Prop40
 90
        0
102
RTVSPost2010PropOp40
 70
     1
102
RTVSPost2010Prop41ColorIndex
 90
       18
102
RTVSPost2010Prop41ColorRGB
 90
        0
102
RTVSPost2010PropOp41
 70
     1
102
RTVSPost2010Prop42
 90
       50
102
RTVSPost2010PropOp42
 70
     1
102
RTVSPost2010Prop43
 90
        3
102
RTVSPost2010PropOp43
 70
     1
102
RTVSPost2010Prop44ColorIndex
 90
        5
102
RTVSPost2010Prop44ColorRGB
 90
      255
102
RTVSPost2010PropOp44
 70
     1
102
RTVSPost2010Prop45
280
     0
102
RTVSPost2010PropOp45
 70
     1
102
RTVSPost2010Prop46
 90
       50
102
RTVSPost2010PropOp46
 70
     1
102
RTVSPost2010Prop47
 90
       50
102
RTVSPost2010PropOp47
 70
     1
102
RTVSPost2010Prop48
 90
       50
102
RTVSPost2010PropOp48
 70
     1
102
RTVSPost2010Prop49
280
     0
102
RTVSPost2010PropOp49
 70
     1
102
RTVSPost2010Prop50
 90
       50
102
RTVSPost2010PropOp50
 70
     1
102
RTVSPost2010Prop51ColorIndex
 90
      256
102
RTVSPost2010Prop51ColorRGB
 90
-16777216
102
RTVSPost2010PropOp51
 70
     0
102
RTVSPost2010Prop52
140
1.0
102
RTVSPost2010PropOp52
 70
     0
102
RTVSPost2010Prop53
 90
        2
102
RTVSPost2010PropOp53
 70
     1
102
RTVSPost2010Prop54
  1
strokes_ogs.tif
102
RTVSPost2010PropOp54
 70
     1
102
RTVSPost2010Prop55
280
     0
102
RTVSPost2010PropOp55
 70
     1
102
RTVSPost2010Prop56
140
1.0
102
RTVSPost2010PropOp56
 70
     1
102
RTVSPost2010Prop57
140
1.0
102
RTVSPost2010PropOp57
 70
     1
102
RTVSPropertyOp0
 70
     1
102
RTVSPropertyOp1
 70
     1
102
RTVSPropertyOp2
 70
     1
102
RTVSPropertyOp3
 70
     1
102
RTVSPropertyOp4
 70
     1
102
RTVSPropertyOp5
 70
     1
102
RTVSPropertyOp6
 70
     1
102
RTVSPropertyOp7
 70
     1
102
RTVSPropertyOp8
 70
     1
102
RTVSPropertyOp9
 70
     1
102
RTVSPropertyOp10
 70
     1
102
RTVSPropertyOp11
 70
     1
102
RTVSPropertyOp12
 70
     1
102
RTVSPropertyOp13
 70
     1
102
RTVSPropertyOp14
 70
     1
102
RTVSPropertyOp15
 70
     1
102
RTVSPropertyOp16
 70
     1
102
RTVSPropertyOp17
 70
     1
102
RTVSPropertyOp18
 70
     1
102
RTVSPropertyOp19
 70
     1
102
RTVSPropertyOp20
 70
     1
102
RTVSPropertyOp21
 70
     1
102
RTVSPropertyOp22
 70
     1
102
RTVSPropertyOp23
 70
     1
102
RTVSPropertyOp24
 70
     1
102
RTVSPropertyOp25
 70
     1
102
RTVSPropertyOp26
 70
     1
102
RTVSPropertyOp27
 70
     1
102
RTVSPropertyOp28
 70
     1
102
RTVSPropertyOp29
 70
     1
102
RTVSPropertyOp30
 70
     1
102
RTVSPropertyOp31
 70
     1
102
RTVSPropertyOp32
 70
     1
102
RTVSPropertyOp33
 70
     1
102
RTVSPropertyOp34
 70
     1
102
RTVSPropertyOp35
 70
     1
102
RTVSPropertyOp36
 70
     1
102
RTVSPropertyOp37
 70
     1
102
RTVSPropertyOp38
 70
     1
102
RTVSPropertyOp39
 70
     1
102
RTVSPropertyOp40
 70
     1
102
RTVSPropertyOp41
 70
     1
102
RTVSPropertyOp42
 70
     1
102
RTVSPropertyOp43
 70
     1
102
RTVSPropertyOp44
 70
     1
102
RTVSPropertyOp45
 70
     1
102
RTVSPropertyOp46
 70
     1
102
RTVSPropertyOp47
 70
     1
102
RTVSPropertyOp48
 70
     1
102
RTVSPropertyOp49
 70
     1
102
RTVSPropertyOp50
 70
     1
102
RTVSPropertyOp51
 70
     0
102
RTVSPropertyOp52
 70
     0
102
RTVSPropertyOp53
 70
     1
102
RTVSPropertyOp54
 70
     1
102
RTVSPropertyOp55
 70
     1
102
RTVSPropertyOp56
 70
     1
102
RTVSPropertyOp57
 70
     1
102
RTVSPropertyOp58
 70
     1
102
RTVSPropertyOp59
 70
     1
102
RTVSPropertyOp60
 70
     1
102
RTVSPropertyOp61
 70
     1
102
RTVSPropertyOp62
 70
     1
  0
XRECORD
  5
2897
102
{ACAD_REACTORS
330
2896
102
}
330
2896
100
AcDbXrecord
280
     1
102
RTVSPost2010Prop28
280
     0
102
RTVSPost2010PropOp28
 70
     1
102
RTVSPost2010Prop29
280
     1
102
RTVSPost2010PropOp29
 70
     1
102
RTVSPost2010Prop30
280
     1
102
RTVSPost2010PropOp30
 70
     1
102
RTVSPost2010Prop31
280
     0
102
RTVSPost2010PropOp31
 70
     1
102
RTVSPost2010Prop32
280
     0
102
RTVSPost2010PropOp32
 70
     1
102
RTVSPost2010Prop33
280
     0
102
RTVSPost2010PropOp33
 70
     1
102
RTVSPost2010Prop34
280
     0
102
RTVSPost2010PropOp34
 70
     1
102
RTVSPost2010Prop35
280
     0
102
RTVSPost2010PropOp35
 70
     1
102
RTVSPost2010Prop36
280
     0
102
RTVSPost2010PropOp36
 70
     1
102
RTVSPost2010Prop37
 90
       50
102
RTVSPost2010PropOp37
 70
     1
102
RTVSPost2010Prop38
140
0.0
102
RTVSPost2010PropOp38
 70
     1
102
RTVSPost2010Prop39
140
1.0
102
RTVSPost2010PropOp39
 70
     1
102
RTVSPost2010Prop40
 90
        0
102
RTVSPost2010PropOp40
 70
     1
102
RTVSPost2010Prop41ColorIndex
 90
       18
102
RTVSPost2010Prop41ColorRGB
 90
        0
102
RTVSPost2010PropOp41
 70
     1
102
RTVSPost2010Prop42
 90
       50
102
RTVSPost2010PropOp42
 70
     1
102
RTVSPost2010Prop43
 90
        3
102
RTVSPost2010PropOp43
 70
     1
102
RTVSPost2010Prop44ColorIndex
 90
        5
102
RTVSPost2010Prop44ColorRGB
 90
      255
102
RTVSPost2010PropOp44
 70
     1
102
RTVSPost2010Prop45
280
     0
102
RTVSPost2010PropOp45
 70
     1
102
RTVSPost2010Prop46
 90
       50
102
RTVSPost2010PropOp46
 70
     1
102
RTVSPost2010Prop47
 90
       50
102
RTVSPost2010PropOp47
 70
     1
102
RTVSPost2010Prop48
 90
       50
102
RTVSPost2010PropOp48
 70
     1
102
RTVSPost2010Prop49
280
     0
102
RTVSPost2010PropOp49
 70
     1
102
RTVSPost2010Prop50
 90
       50
102
RTVSPost2010PropOp50
 70
     1
102
RTVSPost2010Prop51ColorIndex
 90
      256
102
RTVSPost2010Prop51ColorRGB
 90
-16777216
102
RTVSPost2010PropOp51
 70
     0
102
RTVSPost2010Prop52
140
1.0
102
RTVSPost2010PropOp52
 70
     0
102
RTVSPost2010Prop53
 90
        2
102
RTVSPost2010PropOp53
 70
     1
102
RTVSPost2010Prop54
  1
strokes_ogs.tif
102
RTVSPost2010PropOp54
 70
     1
102
RTVSPost2010Prop55
280
     0
102
RTVSPost2010PropOp55
 70
     1
102
RTVSPost2010Prop56
140
1.0
102
RTVSPost2010PropOp56
 70
     1
102
RTVSPost2010Prop57
140
1.0
102
RTVSPost2010PropOp57
 70
     1
102
RTVSPropertyOp0
 70
     1
102
RTVSPropertyOp1
 70
     1
102
RTVSPropertyOp2
 70
     1
102
RTVSPropertyOp3
 70
     1
102
RTVSPropertyOp4
 70
     1
102
RTVSPropertyOp5
 70
     1
102
RTVSPropertyOp6
 70
     1
102
RTVSPropertyOp7
 70
     1
102
RTVSPropertyOp8
 70
     1
102
RTVSPropertyOp9
 70
     1
102
RTVSPropertyOp10
 70
     1
102
RTVSPropertyOp11
 70
     1
102
RTVSPropertyOp12
 70
     1
102
RTVSPropertyOp13
 70
     1
102
RTVSPropertyOp14
 70
     1
102
RTVSPropertyOp15
 70
     1
102
RTVSPropertyOp16
 70
     1
102
RTVSPropertyOp17
 70
     1
102
RTVSPropertyOp18
 70
     1
102
RTVSPropertyOp19
 70
     1
102
RTVSPropertyOp20
 70
     1
102
RTVSPropertyOp21
 70
     1
102
RTVSPropertyOp22
 70
     1
102
RTVSPropertyOp23
 70
     1
102
RTVSPropertyOp24
 70
     1
102
RTVSPropertyOp25
 70
     1
102
RTVSPropertyOp26
 70
     1
102
RTVSPropertyOp27
 70
     1
102
RTVSPropertyOp28
 70
     1
102
RTVSPropertyOp29
 70
     1
102
RTVSPropertyOp30
 70
     1
102
RTVSPropertyOp31
 70
     1
102
RTVSPropertyOp32
 70
     1
102
RTVSPropertyOp33
 70
     1
102
RTVSPropertyOp34
 70
     1
102
RTVSPropertyOp35
 70
     1
102
RTVSPropertyOp36
 70
     1
102
RTVSPropertyOp37
 70
     1
102
RTVSPropertyOp38
 70
     1
102
RTVSPropertyOp39
 70
     1
102
RTVSPropertyOp40
 70
     1
102
RTVSPropertyOp41
 70
     1
102
RTVSPropertyOp42
 70
     1
102
RTVSPropertyOp43
 70
     1
102
RTVSPropertyOp44
 70
     1
102
RTVSPropertyOp45
 70
     1
102
RTVSPropertyOp46
 70
     1
102
RTVSPropertyOp47
 70
     1
102
RTVSPropertyOp48
 70
     1
102
RTVSPropertyOp49
 70
     1
102
RTVSPropertyOp50
 70
     1
102
RTVSPropertyOp51
 70
     0
102
RTVSPropertyOp52
 70
     0
102
RTVSPropertyOp53
 70
     1
102
RTVSPropertyOp54
 70
     1
102
RTVSPropertyOp55
 70
     1
102
RTVSPropertyOp56
 70
     1
102
RTVSPropertyOp57
 70
     1
102
RTVSPropertyOp58
 70
     1
102
RTVSPropertyOp59
 70
     1
102
RTVSPropertyOp60
 70
     1
102
RTVSPropertyOp61
 70
     1
102
RTVSPropertyOp62
 70
     1
  0
XRECORD
  5
2893
102
{ACAD_REACTORS
330
2892
102
}
330
2892
100
AcDbXrecord
280
     1
102
RTVSPost2010Prop28
280
     0
102
RTVSPost2010PropOp28
 70
     1
102
RTVSPost2010Prop29
280
     1
102
RTVSPost2010PropOp29
 70
     1
102
RTVSPost2010Prop30
280
     1
102
RTVSPost2010PropOp30
 70
     1
102
RTVSPost2010Prop31
280
     0
102
RTVSPost2010PropOp31
 70
     1
102
RTVSPost2010Prop32
280
     0
102
RTVSPost2010PropOp32
 70
     1
102
RTVSPost2010Prop33
280
     0
102
RTVSPost2010PropOp33
 70
     1
102
RTVSPost2010Prop34
280
     0
102
RTVSPost2010PropOp34
 70
     1
102
RTVSPost2010Prop35
280
     0
102
RTVSPost2010PropOp35
 70
     1
102
RTVSPost2010Prop36
280
     0
102
RTVSPost2010PropOp36
 70
     1
102
RTVSPost2010Prop37
 90
       50
102
RTVSPost2010PropOp37
 70
     1
102
RTVSPost2010Prop38
140
0.0
102
RTVSPost2010PropOp38
 70
     1
102
RTVSPost2010Prop39
140
1.0
102
RTVSPost2010PropOp39
 70
     1
102
RTVSPost2010Prop40
 90
        0
102
RTVSPost2010PropOp40
 70
     1
102
RTVSPost2010Prop41ColorIndex
 90
       18
102
RTVSPost2010Prop41ColorRGB
 90
        0
102
RTVSPost2010PropOp41
 70
     1
102
RTVSPost2010Prop42
 90
       50
102
RTVSPost2010PropOp42
 70
     1
102
RTVSPost2010Prop43
 90
        3
102
RTVSPost2010PropOp43
 70
     1
102
RTVSPost2010Prop44ColorIndex
 90
        5
102
RTVSPost2010Prop44ColorRGB
 90
      255
102
RTVSPost2010PropOp44
 70
     1
102
RTVSPost2010Prop45
280
     0
102
RTVSPost2010PropOp45
 70
     1
102
RTVSPost2010Prop46
 90
       50
102
RTVSPost2010PropOp46
 70
     1
102
RTVSPost2010Prop47
 90
       50
102
RTVSPost2010PropOp47
 70
     1
102
RTVSPost2010Prop48
 90
       50
102
RTVSPost2010PropOp48
 70
     1
102
RTVSPost2010Prop49
280
     0
102
RTVSPost2010PropOp49
 70
     1
102
RTVSPost2010Prop50
 90
       50
102
RTVSPost2010PropOp50
 70
     1
102
RTVSPost2010Prop51ColorIndex
 90
      256
102
RTVSPost2010Prop51ColorRGB
 90
-16777216
102
RTVSPost2010PropOp51
 70
     0
102
RTVSPost2010Prop52
140
1.0
102
RTVSPost2010PropOp52
 70
     0
102
RTVSPost2010Prop53
 90
        2
102
RTVSPost2010PropOp53
 70
     1
102
RTVSPost2010Prop54
  1
strokes_ogs.tif
102
RTVSPost2010PropOp54
 70
     1
102
RTVSPost2010Prop55
280
     0
102
RTVSPost2010PropOp55
 70
     1
102
RTVSPost2010Prop56
140
1.0
102
RTVSPost2010PropOp56
 70
     1
102
RTVSPost2010Prop57
140
1.0
102
RTVSPost2010PropOp57
 70
     1
102
RTVSPropertyOp0
 70
     1
102
RTVSPropertyOp1
 70
     1
102
RTVSPropertyOp2
 70
     1
102
RTVSPropertyOp3
 70
     1
102
RTVSPropertyOp4
 70
     1
102
RTVSPropertyOp5
 70
     1
102
RTVSPropertyOp6
 70
     1
102
RTVSPropertyOp7
 70
     1
102
RTVSPropertyOp8
 70
     1
102
RTVSPropertyOp9
 70
     1
102
RTVSPropertyOp10
 70
     1
102
RTVSPropertyOp11
 70
     1
102
RTVSPropertyOp12
 70
     1
102
RTVSPropertyOp13
 70
     1
102
RTVSPropertyOp14
 70
     1
102
RTVSPropertyOp15
 70
     1
102
RTVSPropertyOp16
 70
     1
102
RTVSPropertyOp17
 70
     1
102
RTVSPropertyOp18
 70
     1
102
RTVSPropertyOp19
 70
     1
102
RTVSPropertyOp20
 70
     1
102
RTVSPropertyOp21
 70
     1
102
RTVSPropertyOp22
 70
     1
102
RTVSPropertyOp23
 70
     1
102
RTVSPropertyOp24
 70
     1
102
RTVSPropertyOp25
 70
     1
102
RTVSPropertyOp26
 70
     1
102
RTVSPropertyOp27
 70
     1
102
RTVSPropertyOp28
 70
     1
102
RTVSPropertyOp29
 70
     1
102
RTVSPropertyOp30
 70
     1
102
RTVSPropertyOp31
 70
     1
102
RTVSPropertyOp32
 70
     1
102
RTVSPropertyOp33
 70
     1
102
RTVSPropertyOp34
 70
     1
102
RTVSPropertyOp35
 70
     1
102
RTVSPropertyOp36
 70
     1
102
RTVSPropertyOp37
 70
     1
102
RTVSPropertyOp38
 70
     1
102
RTVSPropertyOp39
 70
     1
102
RTVSPropertyOp40
 70
     1
102
RTVSPropertyOp41
 70
     1
102
RTVSPropertyOp42
 70
     1
102
RTVSPropertyOp43
 70
     1
102
RTVSPropertyOp44
 70
     1
102
RTVSPropertyOp45
 70
     1
102
RTVSPropertyOp46
 70
     1
102
RTVSPropertyOp47
 70
     1
102
RTVSPropertyOp48
 70
     1
102
RTVSPropertyOp49
 70
     1
102
RTVSPropertyOp50
 70
     1
102
RTVSPropertyOp51
 70
     0
102
RTVSPropertyOp52
 70
     0
102
RTVSPropertyOp53
 70
     1
102
RTVSPropertyOp54
 70
     1
102
RTVSPropertyOp55
 70
     1
102
RTVSPropertyOp56
 70
     1
102
RTVSPropertyOp57
 70
     1
102
RTVSPropertyOp58
 70
     1
102
RTVSPropertyOp59
 70
     1
102
RTVSPropertyOp60
 70
     1
102
RTVSPropertyOp61
 70
     1
102
RTVSPropertyOp62
 70
     1
  0
XRECORD
  5
28A1
102
{ACAD_REACTORS
330
28A0
102
}
330
28A0
100
AcDbXrecord
280
     1
102
RTVSPost2010Prop28
280
     0
102
RTVSPost2010PropOp28
 70
     1
102
RTVSPost2010Prop29
280
     1
102
RTVSPost2010PropOp29
 70
     1
102
RTVSPost2010Prop30
280
     1
102
RTVSPost2010PropOp30
 70
     1
102
RTVSPost2010Prop31
280
     0
102
RTVSPost2010PropOp31
 70
     1
102
RTVSPost2010Prop32
280
     0
102
RTVSPost2010PropOp32
 70
     1
102
RTVSPost2010Prop33
280
     0
102
RTVSPost2010PropOp33
 70
     1
102
RTVSPost2010Prop34
280
     0
102
RTVSPost2010PropOp34
 70
     1
102
RTVSPost2010Prop35
280
     0
102
RTVSPost2010PropOp35
 70
     1
102
RTVSPost2010Prop36
280
     0
102
RTVSPost2010PropOp36
 70
     1
102
RTVSPost2010Prop37
 90
       50
102
RTVSPost2010PropOp37
 70
     1
102
RTVSPost2010Prop38
140
0.0
102
RTVSPost2010PropOp38
 70
     1
102
RTVSPost2010Prop39
140
1.0
102
RTVSPost2010PropOp39
 70
     1
102
RTVSPost2010Prop40
 90
        0
102
RTVSPost2010PropOp40
 70
     1
102
RTVSPost2010Prop41ColorIndex
 90
       18
102
RTVSPost2010Prop41ColorRGB
 90
        0
102
RTVSPost2010PropOp41
 70
     1
102
RTVSPost2010Prop42
 90
       50
102
RTVSPost2010PropOp42
 70
     1
102
RTVSPost2010Prop43
 90
        3
102
RTVSPost2010PropOp43
 70
     1
102
RTVSPost2010Prop44ColorIndex
 90
        5
102
RTVSPost2010Prop44ColorRGB
 90
      255
102
RTVSPost2010PropOp44
 70
     1
102
RTVSPost2010Prop45
280
     0
102
RTVSPost2010PropOp45
 70
     1
102
RTVSPost2010Prop46
 90
       50
102
RTVSPost2010PropOp46
 70
     1
102
RTVSPost2010Prop47
 90
       50
102
RTVSPost2010PropOp47
 70
     1
102
RTVSPost2010Prop48
 90
       50
102
RTVSPost2010PropOp48
 70
     1
102
RTVSPost2010Prop49
280
     0
102
RTVSPost2010PropOp49
 70
     1
102
RTVSPost2010Prop50
 90
       50
102
RTVSPost2010PropOp50
 70
     1
102
RTVSPost2010Prop51ColorIndex
 90
      256
102
RTVSPost2010Prop51ColorRGB
 90
-16777216
102
RTVSPost2010PropOp51
 70
     0
102
RTVSPost2010Prop52
140
1.0
102
RTVSPost2010PropOp52
 70
     0
102
RTVSPost2010Prop53
 90
        2
102
RTVSPost2010PropOp53
 70
     1
102
RTVSPost2010Prop54
  1
strokes_ogs.tif
102
RTVSPost2010PropOp54
 70
     1
102
RTVSPost2010Prop55
280
     0
102
RTVSPost2010PropOp55
 70
     1
102
RTVSPost2010Prop56
140
1.0
102
RTVSPost2010PropOp56
 70
     1
102
RTVSPost2010Prop57
140
1.0
102
RTVSPost2010PropOp57
 70
     1
102
RTVSPropertyOp0
 70
     1
102
RTVSPropertyOp1
 70
     1
102
RTVSPropertyOp2
 70
     1
102
RTVSPropertyOp3
 70
     1
102
RTVSPropertyOp4
 70
     1
102
RTVSPropertyOp5
 70
     1
102
RTVSPropertyOp6
 70
     1
102
RTVSPropertyOp7
 70
     1
102
RTVSPropertyOp8
 70
     1
102
RTVSPropertyOp9
 70
     1
102
RTVSPropertyOp10
 70
     1
102
RTVSPropertyOp11
 70
     1
102
RTVSPropertyOp12
 70
     1
102
RTVSPropertyOp13
 70
     1
102
RTVSPropertyOp14
 70
     1
102
RTVSPropertyOp15
 70
     1
102
RTVSPropertyOp16
 70
     1
102
RTVSPropertyOp17
 70
     1
102
RTVSPropertyOp18
 70
     1
102
RTVSPropertyOp19
 70
     1
102
RTVSPropertyOp20
 70
     1
102
RTVSPropertyOp21
 70
     1
102
RTVSPropertyOp22
 70
     1
102
RTVSPropertyOp23
 70
     1
102
RTVSPropertyOp24
 70
     1
102
RTVSPropertyOp25
 70
     1
102
RTVSPropertyOp26
 70
     1
102
RTVSPropertyOp27
 70
     1
102
RTVSPropertyOp28
 70
     1
102
RTVSPropertyOp29
 70
     1
102
RTVSPropertyOp30
 70
     1
102
RTVSPropertyOp31
 70
     1
102
RTVSPropertyOp32
 70
     1
102
RTVSPropertyOp33
 70
     1
102
RTVSPropertyOp34
 70
     1
102
RTVSPropertyOp35
 70
     1
102
RTVSPropertyOp36
 70
     1
102
RTVSPropertyOp37
 70
     1
102
RTVSPropertyOp38
 70
     1
102
RTVSPropertyOp39
 70
     1
102
RTVSPropertyOp40
 70
     1
102
RTVSPropertyOp41
 70
     1
102
RTVSPropertyOp42
 70
     1
102
RTVSPropertyOp43
 70
     1
102
RTVSPropertyOp44
 70
     1
102
RTVSPropertyOp45
 70
     1
102
RTVSPropertyOp46
 70
     1
102
RTVSPropertyOp47
 70
     1
102
RTVSPropertyOp48
 70
     1
102
RTVSPropertyOp49
 70
     1
102
RTVSPropertyOp50
 70
     1
102
RTVSPropertyOp51
 70
     0
102
RTVSPropertyOp52
 70
     0
102
RTVSPropertyOp53
 70
     1
102
RTVSPropertyOp54
 70
     1
102
RTVSPropertyOp55
 70
     1
102
RTVSPropertyOp56
 70
     1
102
RTVSPropertyOp57
 70
     1
102
RTVSPropertyOp58
 70
     1
102
RTVSPropertyOp59
 70
     1
102
RTVSPropertyOp60
 70
     1
102
RTVSPropertyOp61
 70
     1
102
RTVSPropertyOp62
 70
     1
  0
XRECORD
  5
28A9
102
{ACAD_REACTORS
330
28A8
102
}
330
28A8
100
AcDbXrecord
280
     1
102
RTVSPost2010Prop28
280
     0
102
RTVSPost2010PropOp28
 70
     1
102
RTVSPost2010Prop29
280
     1
102
RTVSPost2010PropOp29
 70
     1
102
RTVSPost2010Prop30
280
     1
102
RTVSPost2010PropOp30
 70
     1
102
RTVSPost2010Prop31
280
     0
102
RTVSPost2010PropOp31
 70
     1
102
RTVSPost2010Prop32
280
     0
102
RTVSPost2010PropOp32
 70
     1
102
RTVSPost2010Prop33
280
     0
102
RTVSPost2010PropOp33
 70
     1
102
RTVSPost2010Prop34
280
     0
102
RTVSPost2010PropOp34
 70
     1
102
RTVSPost2010Prop35
280
     0
102
RTVSPost2010PropOp35
 70
     1
102
RTVSPost2010Prop36
280
     0
102
RTVSPost2010PropOp36
 70
     1
102
RTVSPost2010Prop37
 90
       50
102
RTVSPost2010PropOp37
 70
     1
102
RTVSPost2010Prop38
140
0.0
102
RTVSPost2010PropOp38
 70
     1
102
RTVSPost2010Prop39
140
1.0
102
RTVSPost2010PropOp39
 70
     1
102
RTVSPost2010Prop40
 90
        0
102
RTVSPost2010PropOp40
 70
     1
102
RTVSPost2010Prop41ColorIndex
 90
       18
102
RTVSPost2010Prop41ColorRGB
 90
        0
102
RTVSPost2010PropOp41
 70
     1
102
RTVSPost2010Prop42
 90
       50
102
RTVSPost2010PropOp42
 70
     1
102
RTVSPost2010Prop43
 90
        3
102
RTVSPost2010PropOp43
 70
     1
102
RTVSPost2010Prop44ColorIndex
 90
        5
102
RTVSPost2010Prop44ColorRGB
 90
      255
102
RTVSPost2010PropOp44
 70
     1
102
RTVSPost2010Prop45
280
     0
102
RTVSPost2010PropOp45
 70
     1
102
RTVSPost2010Prop46
 90
       50
102
RTVSPost2010PropOp46
 70
     1
102
RTVSPost2010Prop47
 90
       50
102
RTVSPost2010PropOp47
 70
     1
102
RTVSPost2010Prop48
 90
       50
102
RTVSPost2010PropOp48
 70
     1
102
RTVSPost2010Prop49
280
     0
102
RTVSPost2010PropOp49
 70
     1
102
RTVSPost2010Prop50
 90
       50
102
RTVSPost2010PropOp50
 70
     1
102
RTVSPost2010Prop51ColorIndex
 90
      256
102
RTVSPost2010Prop51ColorRGB
 90
-16777216
102
RTVSPost2010PropOp51
 70
     0
102
RTVSPost2010Prop52
140
1.0
102
RTVSPost2010PropOp52
 70
     0
102
RTVSPost2010Prop53
 90
        2
102
RTVSPost2010PropOp53
 70
     1
102
RTVSPost2010Prop54
  1
strokes_ogs.tif
102
RTVSPost2010PropOp54
 70
     1
102
RTVSPost2010Prop55
280
     0
102
RTVSPost2010PropOp55
 70
     1
102
RTVSPost2010Prop56
140
1.0
102
RTVSPost2010PropOp56
 70
     1
102
RTVSPost2010Prop57
140
1.0
102
RTVSPost2010PropOp57
 70
     1
102
RTVSPropertyOp0
 70
     1
102
RTVSPropertyOp1
 70
     1
102
RTVSPropertyOp2
 70
     1
102
RTVSPropertyOp3
 70
     1
102
RTVSPropertyOp4
 70
     1
102
RTVSPropertyOp5
 70
     1
102
RTVSPropertyOp6
 70
     1
102
RTVSPropertyOp7
 70
     1
102
RTVSPropertyOp8
 70
     1
102
RTVSPropertyOp9
 70
     1
102
RTVSPropertyOp10
 70
     1
102
RTVSPropertyOp11
 70
     1
102
RTVSPropertyOp12
 70
     1
102
RTVSPropertyOp13
 70
     1
102
RTVSPropertyOp14
 70
     1
102
RTVSPropertyOp15
 70
     1
102
RTVSPropertyOp16
 70
     1
102
RTVSPropertyOp17
 70
     1
102
RTVSPropertyOp18
 70
     1
102
RTVSPropertyOp19
 70
     1
102
RTVSPropertyOp20
 70
     1
102
RTVSPropertyOp21
 70
     1
102
RTVSPropertyOp22
 70
     1
102
RTVSPropertyOp23
 70
     1
102
RTVSPropertyOp24
 70
     1
102
RTVSPropertyOp25
 70
     1
102
RTVSPropertyOp26
 70
     1
102
RTVSPropertyOp27
 70
     1
102
RTVSPropertyOp28
 70
     1
102
RTVSPropertyOp29
 70
     1
102
RTVSPropertyOp30
 70
     1
102
RTVSPropertyOp31
 70
     1
102
RTVSPropertyOp32
 70
     1
102
RTVSPropertyOp33
 70
     1
102
RTVSPropertyOp34
 70
     1
102
RTVSPropertyOp35
 70
     1
102
RTVSPropertyOp36
 70
     1
102
RTVSPropertyOp37
 70
     1
102
RTVSPropertyOp38
 70
     1
102
RTVSPropertyOp39
 70
     1
102
RTVSPropertyOp40
 70
     1
102
RTVSPropertyOp41
 70
     1
102
RTVSPropertyOp42
 70
     1
102
RTVSPropertyOp43
 70
     1
102
RTVSPropertyOp44
 70
     1
102
RTVSPropertyOp45
 70
     1
102
RTVSPropertyOp46
 70
     1
102
RTVSPropertyOp47
 70
     1
102
RTVSPropertyOp48
 70
     1
102
RTVSPropertyOp49
 70
     1
102
RTVSPropertyOp50
 70
     1
102
RTVSPropertyOp51
 70
     0
102
RTVSPropertyOp52
 70
     0
102
RTVSPropertyOp53
 70
     1
102
RTVSPropertyOp54
 70
     1
102
RTVSPropertyOp55
 70
     1
102
RTVSPropertyOp56
 70
     1
102
RTVSPropertyOp57
 70
     1
102
RTVSPropertyOp58
 70
     1
102
RTVSPropertyOp59
 70
     1
102
RTVSPropertyOp60
 70
     1
102
RTVSPropertyOp61
 70
     1
102
RTVSPropertyOp62
 70
     1
  0
XRECORD
  5
289B
102
{ACAD_REACTORS
330
289A
102
}
330
289A
100
AcDbXrecord
280
     1
102
RTVSPost2010Prop28
280
     0
102
RTVSPost2010PropOp28
 70
     1
102
RTVSPost2010Prop29
280
     1
102
RTVSPost2010PropOp29
 70
     1
102
RTVSPost2010Prop30
280
     1
102
RTVSPost2010PropOp30
 70
     1
102
RTVSPost2010Prop31
280
     0
102
RTVSPost2010PropOp31
 70
     1
102
RTVSPost2010Prop32
280
     0
102
RTVSPost2010PropOp32
 70
     1
102
RTVSPost2010Prop33
280
     0
102
RTVSPost2010PropOp33
 70
     1
102
RTVSPost2010Prop34
280
     0
102
RTVSPost2010PropOp34
 70
     1
102
RTVSPost2010Prop35
280
     0
102
RTVSPost2010PropOp35
 70
     1
102
RTVSPost2010Prop36
280
     0
102
RTVSPost2010PropOp36
 70
     1
102
RTVSPost2010Prop37
 90
       50
102
RTVSPost2010PropOp37
 70
     1
102
RTVSPost2010Prop38
140
0.0
102
RTVSPost2010PropOp38
 70
     1
102
RTVSPost2010Prop39
140
1.0
102
RTVSPost2010PropOp39
 70
     1
102
RTVSPost2010Prop40
 90
        0
102
RTVSPost2010PropOp40
 70
     1
102
RTVSPost2010Prop41ColorIndex
 90
       18
102
RTVSPost2010Prop41ColorRGB
 90
        0
102
RTVSPost2010PropOp41
 70
     1
102
RTVSPost2010Prop42
 90
       50
102
RTVSPost2010PropOp42
 70
     1
102
RTVSPost2010Prop43
 90
        3
102
RTVSPost2010PropOp43
 70
     1
102
RTVSPost2010Prop44ColorIndex
 90
        5
102
RTVSPost2010Prop44ColorRGB
 90
      255
102
RTVSPost2010PropOp44
 70
     1
102
RTVSPost2010Prop45
280
     0
102
RTVSPost2010PropOp45
 70
     1
102
RTVSPost2010Prop46
 90
       50
102
RTVSPost2010PropOp46
 70
     1
102
RTVSPost2010Prop47
 90
       50
102
RTVSPost2010PropOp47
 70
     1
102
RTVSPost2010Prop48
 90
       50
102
RTVSPost2010PropOp48
 70
     1
102
RTVSPost2010Prop49
280
     0
102
RTVSPost2010PropOp49
 70
     1
102
RTVSPost2010Prop50
 90
       50
102
RTVSPost2010PropOp50
 70
     1
102
RTVSPost2010Prop51ColorIndex
 90
      256
102
RTVSPost2010Prop51ColorRGB
 90
-16777216
102
RTVSPost2010PropOp51
 70
     0
102
RTVSPost2010Prop52
140
1.0
102
RTVSPost2010PropOp52
 70
     0
102
RTVSPost2010Prop53
 90
        2
102
RTVSPost2010PropOp53
 70
     1
102
RTVSPost2010Prop54
  1
strokes_ogs.tif
102
RTVSPost2010PropOp54
 70
     1
102
RTVSPost2010Prop55
280
     0
102
RTVSPost2010PropOp55
 70
     1
102
RTVSPost2010Prop56
140
1.0
102
RTVSPost2010PropOp56
 70
     1
102
RTVSPost2010Prop57
140
1.0
102
RTVSPost2010PropOp57
 70
     1
102
RTVSPropertyOp0
 70
     1
102
RTVSPropertyOp1
 70
     1
102
RTVSPropertyOp2
 70
     1
102
RTVSPropertyOp3
 70
     1
102
RTVSPropertyOp4
 70
     1
102
RTVSPropertyOp5
 70
     1
102
RTVSPropertyOp6
 70
     1
102
RTVSPropertyOp7
 70
     1
102
RTVSPropertyOp8
 70
     1
102
RTVSPropertyOp9
 70
     1
102
RTVSPropertyOp10
 70
     1
102
RTVSPropertyOp11
 70
     1
102
RTVSPropertyOp12
 70
     1
102
RTVSPropertyOp13
 70
     1
102
RTVSPropertyOp14
 70
     1
102
RTVSPropertyOp15
 70
     1
102
RTVSPropertyOp16
 70
     1
102
RTVSPropertyOp17
 70
     1
102
RTVSPropertyOp18
 70
     1
102
RTVSPropertyOp19
 70
     1
102
RTVSPropertyOp20
 70
     1
102
RTVSPropertyOp21
 70
     1
102
RTVSPropertyOp22
 70
     1
102
RTVSPropertyOp23
 70
     1
102
RTVSPropertyOp24
 70
     1
102
RTVSPropertyOp25
 70
     1
102
RTVSPropertyOp26
 70
     1
102
RTVSPropertyOp27
 70
     1
102
RTVSPropertyOp28
 70
     1
102
RTVSPropertyOp29
 70
     1
102
RTVSPropertyOp30
 70
     1
102
RTVSPropertyOp31
 70
     1
102
RTVSPropertyOp32
 70
     1
102
RTVSPropertyOp33
 70
     1
102
RTVSPropertyOp34
 70
     1
102
RTVSPropertyOp35
 70
     1
102
RTVSPropertyOp36
 70
     1
102
RTVSPropertyOp37
 70
     1
102
RTVSPropertyOp38
 70
     1
102
RTVSPropertyOp39
 70
     1
102
RTVSPropertyOp40
 70
     1
102
RTVSPropertyOp41
 70
     1
102
RTVSPropertyOp42
 70
     1
102
RTVSPropertyOp43
 70
     1
102
RTVSPropertyOp44
 70
     1
102
RTVSPropertyOp45
 70
     1
102
RTVSPropertyOp46
 70
     1
102
RTVSPropertyOp47
 70
     1
102
RTVSPropertyOp48
 70
     1
102
RTVSPropertyOp49
 70
     1
102
RTVSPropertyOp50
 70
     1
102
RTVSPropertyOp51
 70
     0
102
RTVSPropertyOp52
 70
     0
102
RTVSPropertyOp53
 70
     1
102
RTVSPropertyOp54
 70
     1
102
RTVSPropertyOp55
 70
     1
102
RTVSPropertyOp56
 70
     1
102
RTVSPropertyOp57
 70
     1
102
RTVSPropertyOp58
 70
     1
102
RTVSPropertyOp59
 70
     1
102
RTVSPropertyOp60
 70
     1
102
RTVSPropertyOp61
 70
     1
102
RTVSPropertyOp62
 70
     1
  0
XRECORD
  5
289F
102
{ACAD_REACTORS
330
289E
102
}
330
289E
100
AcDbXrecord
280
     1
102
RTVSPost2010Prop28
280
     0
102
RTVSPost2010PropOp28
 70
     1
102
RTVSPost2010Prop29
280
     1
102
RTVSPost2010PropOp29
 70
     1
102
RTVSPost2010Prop30
280
     1
102
RTVSPost2010PropOp30
 70
     1
102
RTVSPost2010Prop31
280
     0
102
RTVSPost2010PropOp31
 70
     1
102
RTVSPost2010Prop32
280
     0
102
RTVSPost2010PropOp32
 70
     1
102
RTVSPost2010Prop33
280
     0
102
RTVSPost2010PropOp33
 70
     1
102
RTVSPost2010Prop34
280
     0
102
RTVSPost2010PropOp34
 70
     1
102
RTVSPost2010Prop35
280
     0
102
RTVSPost2010PropOp35
 70
     1
102
RTVSPost2010Prop36
280
     0
102
RTVSPost2010PropOp36
 70
     1
102
RTVSPost2010Prop37
 90
       50
102
RTVSPost2010PropOp37
 70
     1
102
RTVSPost2010Prop38
140
0.0
102
RTVSPost2010PropOp38
 70
     1
102
RTVSPost2010Prop39
140
1.0
102
RTVSPost2010PropOp39
 70
     1
102
RTVSPost2010Prop40
 90
        0
102
RTVSPost2010PropOp40
 70
     1
102
RTVSPost2010Prop41ColorIndex
 90
       18
102
RTVSPost2010Prop41ColorRGB
 90
        0
102
RTVSPost2010PropOp41
 70
     1
102
RTVSPost2010Prop42
 90
       50
102
RTVSPost2010PropOp42
 70
     1
102
RTVSPost2010Prop43
 90
        3
102
RTVSPost2010PropOp43
 70
     1
102
RTVSPost2010Prop44ColorIndex
 90
        5
102
RTVSPost2010Prop44ColorRGB
 90
      255
102
RTVSPost2010PropOp44
 70
     1
102
RTVSPost2010Prop45
280
     0
102
RTVSPost2010PropOp45
 70
     1
102
RTVSPost2010Prop46
 90
       50
102
RTVSPost2010PropOp46
 70
     1
102
RTVSPost2010Prop47
 90
       50
102
RTVSPost2010PropOp47
 70
     1
102
RTVSPost2010Prop48
 90
       50
102
RTVSPost2010PropOp48
 70
     1
102
RTVSPost2010Prop49
280
     0
102
RTVSPost2010PropOp49
 70
     1
102
RTVSPost2010Prop50
 90
       50
102
RTVSPost2010PropOp50
 70
     1
102
RTVSPost2010Prop51ColorIndex
 90
      256
102
RTVSPost2010Prop51ColorRGB
 90
-16777216
102
RTVSPost2010PropOp51
 70
     0
102
RTVSPost2010Prop52
140
1.0
102
RTVSPost2010PropOp52
 70
     0
102
RTVSPost2010Prop53
 90
        2
102
RTVSPost2010PropOp53
 70
     1
102
RTVSPost2010Prop54
  1
strokes_ogs.tif
102
RTVSPost2010PropOp54
 70
     1
102
RTVSPost2010Prop55
280
     0
102
RTVSPost2010PropOp55
 70
     1
102
RTVSPost2010Prop56
140
1.0
102
RTVSPost2010PropOp56
 70
     1
102
RTVSPost2010Prop57
140
1.0
102
RTVSPost2010PropOp57
 70
     1
102
RTVSPropertyOp0
 70
     1
102
RTVSPropertyOp1
 70
     1
102
RTVSPropertyOp2
 70
     1
102
RTVSPropertyOp3
 70
     1
102
RTVSPropertyOp4
 70
     1
102
RTVSPropertyOp5
 70
     1
102
RTVSPropertyOp6
 70
     1
102
RTVSPropertyOp7
 70
     1
102
RTVSPropertyOp8
 70
     1
102
RTVSPropertyOp9
 70
     1
102
RTVSPropertyOp10
 70
     1
102
RTVSPropertyOp11
 70
     1
102
RTVSPropertyOp12
 70
     1
102
RTVSPropertyOp13
 70
     1
102
RTVSPropertyOp14
 70
     1
102
RTVSPropertyOp15
 70
     1
102
RTVSPropertyOp16
 70
     1
102
RTVSPropertyOp17
 70
     1
102
RTVSPropertyOp18
 70
     1
102
RTVSPropertyOp19
 70
     1
102
RTVSPropertyOp20
 70
     1
102
RTVSPropertyOp21
 70
     1
102
RTVSPropertyOp22
 70
     1
102
RTVSPropertyOp23
 70
     1
102
RTVSPropertyOp24
 70
     1
102
RTVSPropertyOp25
 70
     1
102
RTVSPropertyOp26
 70
     1
102
RTVSPropertyOp27
 70
     1
102
RTVSPropertyOp28
 70
     1
102
RTVSPropertyOp29
 70
     1
102
RTVSPropertyOp30
 70
     1
102
RTVSPropertyOp31
 70
     1
102
RTVSPropertyOp32
 70
     1
102
RTVSPropertyOp33
 70
     1
102
RTVSPropertyOp34
 70
     1
102
RTVSPropertyOp35
 70
     1
102
RTVSPropertyOp36
 70
     1
102
RTVSPropertyOp37
 70
     1
102
RTVSPropertyOp38
 70
     1
102
RTVSPropertyOp39
 70
     1
102
RTVSPropertyOp40
 70
     1
102
RTVSPropertyOp41
 70
     1
102
RTVSPropertyOp42
 70
     1
102
RTVSPropertyOp43
 70
     1
102
RTVSPropertyOp44
 70
     1
102
RTVSPropertyOp45
 70
     1
102
RTVSPropertyOp46
 70
     1
102
RTVSPropertyOp47
 70
     1
102
RTVSPropertyOp48
 70
     1
102
RTVSPropertyOp49
 70
     1
102
RTVSPropertyOp50
 70
     1
102
RTVSPropertyOp51
 70
     0
102
RTVSPropertyOp52
 70
     0
102
RTVSPropertyOp53
 70
     1
102
RTVSPropertyOp54
 70
     1
102
RTVSPropertyOp55
 70
     1
102
RTVSPropertyOp56
 70
     1
102
RTVSPropertyOp57
 70
     1
102
RTVSPropertyOp58
 70
     1
102
RTVSPropertyOp59
 70
     1
102
RTVSPropertyOp60
 70
     1
102
RTVSPropertyOp61
 70
     1
102
RTVSPropertyOp62
 70
     1
  0
XRECORD
  5
28B9
102
{ACAD_REACTORS
330
28B8
102
}
330
28B8
100
AcDbXrecord
280
     1
102
RTVSPost2010Prop28
280
     0
102
RTVSPost2010PropOp28
 70
     1
102
RTVSPost2010Prop29
280
     1
102
RTVSPost2010PropOp29
 70
     1
102
RTVSPost2010Prop30
280
     1
102
RTVSPost2010PropOp30
 70
     1
102
RTVSPost2010Prop31
280
     0
102
RTVSPost2010PropOp31
 70
     1
102
RTVSPost2010Prop32
280
     0
102
RTVSPost2010PropOp32
 70
     1
102
RTVSPost2010Prop33
280
     0
102
RTVSPost2010PropOp33
 70
     1
102
RTVSPost2010Prop34
280
     0
102
RTVSPost2010PropOp34
 70
     1
102
RTVSPost2010Prop35
280
     0
102
RTVSPost2010PropOp35
 70
     1
102
RTVSPost2010Prop36
280
     0
102
RTVSPost2010PropOp36
 70
     1
102
RTVSPost2010Prop37
 90
       50
102
RTVSPost2010PropOp37
 70
     1
102
RTVSPost2010Prop38
140
0.0
102
RTVSPost2010PropOp38
 70
     1
102
RTVSPost2010Prop39
140
1.0
102
RTVSPost2010PropOp39
 70
     1
102
RTVSPost2010Prop40
 90
        0
102
RTVSPost2010PropOp40
 70
     1
102
RTVSPost2010Prop41ColorIndex
 90
       18
102
RTVSPost2010Prop41ColorRGB
 90
        0
102
RTVSPost2010PropOp41
 70
     1
102
RTVSPost2010Prop42
 90
       50
102
RTVSPost2010PropOp42
 70
     1
102
RTVSPost2010Prop43
 90
        3
102
RTVSPost2010PropOp43
 70
     1
102
RTVSPost2010Prop44ColorIndex
 90
        5
102
RTVSPost2010Prop44ColorRGB
 90
      255
102
RTVSPost2010PropOp44
 70
     1
102
RTVSPost2010Prop45
280
     0
102
RTVSPost2010PropOp45
 70
     1
102
RTVSPost2010Prop46
 90
       50
102
RTVSPost2010PropOp46
 70
     1
102
RTVSPost2010Prop47
 90
       50
102
RTVSPost2010PropOp47
 70
     1
102
RTVSPost2010Prop48
 90
       50
102
RTVSPost2010PropOp48
 70
     1
102
RTVSPost2010Prop49
280
     0
102
RTVSPost2010PropOp49
 70
     1
102
RTVSPost2010Prop50
 90
       50
102
RTVSPost2010PropOp50
 70
     1
102
RTVSPost2010Prop51ColorIndex
 90
      256
102
RTVSPost2010Prop51ColorRGB
 90
-16777216
102
RTVSPost2010PropOp51
 70
     0
102
RTVSPost2010Prop52
140
1.0
102
RTVSPost2010PropOp52
 70
     0
102
RTVSPost2010Prop53
 90
        2
102
RTVSPost2010PropOp53
 70
     1
102
RTVSPost2010Prop54
  1
strokes_ogs.tif
102
RTVSPost2010PropOp54
 70
     1
102
RTVSPost2010Prop55
280
     0
102
RTVSPost2010PropOp55
 70
     1
102
RTVSPost2010Prop56
140
1.0
102
RTVSPost2010PropOp56
 70
     1
102
RTVSPost2010Prop57
140
1.0
102
RTVSPost2010PropOp57
 70
     1
102
RTVSPropertyOp0
 70
     0
102
RTVSPropertyOp1
 70
     0
102
RTVSPropertyOp2
 70
     0
102
RTVSPropertyOp3
 70
     0
102
RTVSPropertyOp4
 70
     0
102
RTVSPropertyOp5
 70
     0
102
RTVSPropertyOp6
 70
     0
102
RTVSPropertyOp7
 70
     0
102
RTVSPropertyOp8
 70
     0
102
RTVSPropertyOp9
 70
     0
102
RTVSPropertyOp10
 70
     0
102
RTVSPropertyOp11
 70
     0
102
RTVSPropertyOp12
 70
     0
102
RTVSPropertyOp13
 70
     0
102
RTVSPropertyOp14
 70
     2
102
RTVSPropertyOp15
 70
     0
102
RTVSPropertyOp16
 70
     0
102
RTVSPropertyOp17
 70
     0
102
RTVSPropertyOp18
 70
     0
102
RTVSPropertyOp19
 70
     0
102
RTVSPropertyOp20
 70
     0
102
RTVSPropertyOp21
 70
     0
102
RTVSPropertyOp22
 70
     0
102
RTVSPropertyOp23
 70
     0
102
RTVSPropertyOp24
 70
     0
102
RTVSPropertyOp25
 70
     0
102
RTVSPropertyOp26
 70
     0
102
RTVSPropertyOp27
 70
     0
102
RTVSPropertyOp28
 70
     1
102
RTVSPropertyOp29
 70
     1
102
RTVSPropertyOp30
 70
     1
102
RTVSPropertyOp31
 70
     1
102
RTVSPropertyOp32
 70
     1
102
RTVSPropertyOp33
 70
     1
102
RTVSPropertyOp34
 70
     1
102
RTVSPropertyOp35
 70
     1
102
RTVSPropertyOp36
 70
     1
102
RTVSPropertyOp37
 70
     1
102
RTVSPropertyOp38
 70
     1
102
RTVSPropertyOp39
 70
     1
102
RTVSPropertyOp40
 70
     1
102
RTVSPropertyOp41
 70
     1
102
RTVSPropertyOp42
 70
     1
102
RTVSPropertyOp43
 70
     1
102
RTVSPropertyOp44
 70
     1
102
RTVSPropertyOp45
 70
     1
102
RTVSPropertyOp46
 70
     1
102
RTVSPropertyOp47
 70
     1
102
RTVSPropertyOp48
 70
     1
102
RTVSPropertyOp49
 70
     1
102
RTVSPropertyOp50
 70
     1
102
RTVSPropertyOp51
 70
     0
102
RTVSPropertyOp52
 70
     0
102
RTVSPropertyOp53
 70
     1
102
RTVSPropertyOp54
 70
     1
102
RTVSPropertyOp55
 70
     1
102
RTVSPropertyOp56
 70
     1
102
RTVSPropertyOp57
 70
     1
102
RTVSPropertyOp58
 70
     1
102
RTVSPropertyOp59
 70
     1
102
RTVSPropertyOp60
 70
     1
102
RTVSPropertyOp61
 70
     1
102
RTVSPropertyOp62
 70
     1
  0
XRECORD
  5
28A7
102
{ACAD_REACTORS
330
28A6
102
}
330
28A6
100
AcDbXrecord
280
     1
102
RTVSPost2010Prop28
280
     0
102
RTVSPost2010PropOp28
 70
     1
102
RTVSPost2010Prop29
280
     1
102
RTVSPost2010PropOp29
 70
     1
102
RTVSPost2010Prop30
280
     1
102
RTVSPost2010PropOp30
 70
     1
102
RTVSPost2010Prop31
280
     0
102
RTVSPost2010PropOp31
 70
     1
102
RTVSPost2010Prop32
280
     0
102
RTVSPost2010PropOp32
 70
     1
102
RTVSPost2010Prop33
280
     0
102
RTVSPost2010PropOp33
 70
     1
102
RTVSPost2010Prop34
280
     0
102
RTVSPost2010PropOp34
 70
     1
102
RTVSPost2010Prop35
280
     0
102
RTVSPost2010PropOp35
 70
     1
102
RTVSPost2010Prop36
280
     0
102
RTVSPost2010PropOp36
 70
     1
102
RTVSPost2010Prop37
 90
       50
102
RTVSPost2010PropOp37
 70
     1
102
RTVSPost2010Prop38
140
0.0
102
RTVSPost2010PropOp38
 70
     1
102
RTVSPost2010Prop39
140
1.0
102
RTVSPost2010PropOp39
 70
     1
102
RTVSPost2010Prop40
 90
        0
102
RTVSPost2010PropOp40
 70
     1
102
RTVSPost2010Prop41ColorIndex
 90
       18
102
RTVSPost2010Prop41ColorRGB
 90
        0
102
RTVSPost2010PropOp41
 70
     1
102
RTVSPost2010Prop42
 90
       50
102
RTVSPost2010PropOp42
 70
     1
102
RTVSPost2010Prop43
 90
        3
102
RTVSPost2010PropOp43
 70
     1
102
RTVSPost2010Prop44ColorIndex
 90
        5
102
RTVSPost2010Prop44ColorRGB
 90
      255
102
RTVSPost2010PropOp44
 70
     1
102
RTVSPost2010Prop45
280
     0
102
RTVSPost2010PropOp45
 70
     1
102
RTVSPost2010Prop46
 90
       50
102
RTVSPost2010PropOp46
 70
     1
102
RTVSPost2010Prop47
 90
       50
102
RTVSPost2010PropOp47
 70
     1
102
RTVSPost2010Prop48
 90
       50
102
RTVSPost2010PropOp48
 70
     1
102
RTVSPost2010Prop49
280
     0
102
RTVSPost2010PropOp49
 70
     1
102
RTVSPost2010Prop50
 90
       50
102
RTVSPost2010PropOp50
 70
     1
102
RTVSPost2010Prop51ColorIndex
 90
      256
102
RTVSPost2010Prop51ColorRGB
 90
-16777216
102
RTVSPost2010PropOp51
 70
     0
102
RTVSPost2010Prop52
140
1.0
102
RTVSPost2010PropOp52
 70
     0
102
RTVSPost2010Prop53
 90
        2
102
RTVSPost2010PropOp53
 70
     1
102
RTVSPost2010Prop54
  1
strokes_ogs.tif
102
RTVSPost2010PropOp54
 70
     1
102
RTVSPost2010Prop55
280
     0
102
RTVSPost2010PropOp55
 70
     1
102
RTVSPost2010Prop56
140
1.0
102
RTVSPost2010PropOp56
 70
     1
102
RTVSPost2010Prop57
140
1.0
102
RTVSPost2010PropOp57
 70
     1
102
RTVSPropertyOp0
 70
     1
102
RTVSPropertyOp1
 70
     1
102
RTVSPropertyOp2
 70
     1
102
RTVSPropertyOp3
 70
     1
102
RTVSPropertyOp4
 70
     1
102
RTVSPropertyOp5
 70
     1
102
RTVSPropertyOp6
 70
     1
102
RTVSPropertyOp7
 70
     1
102
RTVSPropertyOp8
 70
     1
102
RTVSPropertyOp9
 70
     1
102
RTVSPropertyOp10
 70
     1
102
RTVSPropertyOp11
 70
     1
102
RTVSPropertyOp12
 70
     1
102
RTVSPropertyOp13
 70
     1
102
RTVSPropertyOp14
 70
     1
102
RTVSPropertyOp15
 70
     1
102
RTVSPropertyOp16
 70
     1
102
RTVSPropertyOp17
 70
     1
102
RTVSPropertyOp18
 70
     1
102
RTVSPropertyOp19
 70
     1
102
RTVSPropertyOp20
 70
     1
102
RTVSPropertyOp21
 70
     1
102
RTVSPropertyOp22
 70
     1
102
RTVSPropertyOp23
 70
     1
102
RTVSPropertyOp24
 70
     1
102
RTVSPropertyOp25
 70
     1
102
RTVSPropertyOp26
 70
     1
102
RTVSPropertyOp27
 70
     1
102
RTVSPropertyOp28
 70
     1
102
RTVSPropertyOp29
 70
     1
102
RTVSPropertyOp30
 70
     1
102
RTVSPropertyOp31
 70
     1
102
RTVSPropertyOp32
 70
     1
102
RTVSPropertyOp33
 70
     1
102
RTVSPropertyOp34
 70
     1
102
RTVSPropertyOp35
 70
     1
102
RTVSPropertyOp36
 70
     1
102
RTVSPropertyOp37
 70
     1
102
RTVSPropertyOp38
 70
     1
102
RTVSPropertyOp39
 70
     1
102
RTVSPropertyOp40
 70
     1
102
RTVSPropertyOp41
 70
     1
102
RTVSPropertyOp42
 70
     1
102
RTVSPropertyOp43
 70
     1
102
RTVSPropertyOp44
 70
     1
102
RTVSPropertyOp45
 70
     1
102
RTVSPropertyOp46
 70
     1
102
RTVSPropertyOp47
 70
     1
102
RTVSPropertyOp48
 70
     1
102
RTVSPropertyOp49
 70
     1
102
RTVSPropertyOp50
 70
     1
102
RTVSPropertyOp51
 70
     0
102
RTVSPropertyOp52
 70
     0
102
RTVSPropertyOp53
 70
     1
102
RTVSPropertyOp54
 70
     1
102
RTVSPropertyOp55
 70
     1
102
RTVSPropertyOp56
 70
     1
102
RTVSPropertyOp57
 70
     1
102
RTVSPropertyOp58
 70
     1
102
RTVSPropertyOp59
 70
     1
102
RTVSPropertyOp60
 70
     1
102
RTVSPropertyOp61
 70
     1
102
RTVSPropertyOp62
 70
     1
  0
XRECORD
  5
288B
102
{ACAD_REACTORS
330
288A
102
}
330
288A
100
AcDbXrecord
280
     1
102
RTVSPost2010Prop28
280
     0
102
RTVSPost2010PropOp28
 70
     1
102
RTVSPost2010Prop29
280
     1
102
RTVSPost2010PropOp29
 70
     1
102
RTVSPost2010Prop30
280
     1
102
RTVSPost2010PropOp30
 70
     1
102
RTVSPost2010Prop31
280
     0
102
RTVSPost2010PropOp31
 70
     1
102
RTVSPost2010Prop32
280
     0
102
RTVSPost2010PropOp32
 70
     1
102
RTVSPost2010Prop33
280
     0
102
RTVSPost2010PropOp33
 70
     1
102
RTVSPost2010Prop34
280
     0
102
RTVSPost2010PropOp34
 70
     1
102
RTVSPost2010Prop35
280
     0
102
RTVSPost2010PropOp35
 70
     1
102
RTVSPost2010Prop36
280
     0
102
RTVSPost2010PropOp36
 70
     1
102
RTVSPost2010Prop37
 90
       50
102
RTVSPost2010PropOp37
 70
     1
102
RTVSPost2010Prop38
140
0.0
102
RTVSPost2010PropOp38
 70
     1
102
RTVSPost2010Prop39
140
1.0
102
RTVSPost2010PropOp39
 70
     1
102
RTVSPost2010Prop40
 90
        0
102
RTVSPost2010PropOp40
 70
     1
102
RTVSPost2010Prop41ColorIndex
 90
       18
102
RTVSPost2010Prop41ColorRGB
 90
        0
102
RTVSPost2010PropOp41
 70
     1
102
RTVSPost2010Prop42
 90
       50
102
RTVSPost2010PropOp42
 70
     1
102
RTVSPost2010Prop43
 90
        3
102
RTVSPost2010PropOp43
 70
     1
102
RTVSPost2010Prop44ColorIndex
 90
        5
102
RTVSPost2010Prop44ColorRGB
 90
      255
102
RTVSPost2010PropOp44
 70
     1
102
RTVSPost2010Prop45
280
     0
102
RTVSPost2010PropOp45
 70
     1
102
RTVSPost2010Prop46
 90
       50
102
RTVSPost2010PropOp46
 70
     1
102
RTVSPost2010Prop47
 90
       50
102
RTVSPost2010PropOp47
 70
     1
102
RTVSPost2010Prop48
 90
       50
102
RTVSPost2010PropOp48
 70
     1
102
RTVSPost2010Prop49
280
     0
102
RTVSPost2010PropOp49
 70
     1
102
RTVSPost2010Prop50
 90
       50
102
RTVSPost2010PropOp50
 70
     1
102
RTVSPost2010Prop51ColorIndex
 90
      256
102
RTVSPost2010Prop51ColorRGB
 90
-16777216
102
RTVSPost2010PropOp51
 70
     0
102
RTVSPost2010Prop52
140
1.0
102
RTVSPost2010PropOp52
 70
     0
102
RTVSPost2010Prop53
 90
        2
102
RTVSPost2010PropOp53
 70
     1
102
RTVSPost2010Prop54
  1
strokes_ogs.tif
102
RTVSPost2010PropOp54
 70
     1
102
RTVSPost2010Prop55
280
     0
102
RTVSPost2010PropOp55
 70
     1
102
RTVSPost2010Prop56
140
1.0
102
RTVSPost2010PropOp56
 70
     1
102
RTVSPost2010Prop57
140
1.0
102
RTVSPost2010PropOp57
 70
     1
102
RTVSPropertyOp0
 70
     1
102
RTVSPropertyOp1
 70
     1
102
RTVSPropertyOp2
 70
     1
102
RTVSPropertyOp3
 70
     1
102
RTVSPropertyOp4
 70
     1
102
RTVSPropertyOp5
 70
     1
102
RTVSPropertyOp6
 70
     1
102
RTVSPropertyOp7
 70
     1
102
RTVSPropertyOp8
 70
     1
102
RTVSPropertyOp9
 70
     1
102
RTVSPropertyOp10
 70
     1
102
RTVSPropertyOp11
 70
     1
102
RTVSPropertyOp12
 70
     1
102
RTVSPropertyOp13
 70
     1
102
RTVSPropertyOp14
 70
     1
102
RTVSPropertyOp15
 70
     1
102
RTVSPropertyOp16
 70
     1
102
RTVSPropertyOp17
 70
     1
102
RTVSPropertyOp18
 70
     1
102
RTVSPropertyOp19
 70
     1
102
RTVSPropertyOp20
 70
     1
102
RTVSPropertyOp21
 70
     1
102
RTVSPropertyOp22
 70
     1
102
RTVSPropertyOp23
 70
     1
102
RTVSPropertyOp24
 70
     1
102
RTVSPropertyOp25
 70
     1
102
RTVSPropertyOp26
 70
     1
102
RTVSPropertyOp27
 70
     1
102
RTVSPropertyOp28
 70
     1
102
RTVSPropertyOp29
 70
     1
102
RTVSPropertyOp30
 70
     1
102
RTVSPropertyOp31
 70
     1
102
RTVSPropertyOp32
 70
     1
102
RTVSPropertyOp33
 70
     1
102
RTVSPropertyOp34
 70
     1
102
RTVSPropertyOp35
 70
     1
102
RTVSPropertyOp36
 70
     1
102
RTVSPropertyOp37
 70
     1
102
RTVSPropertyOp38
 70
     1
102
RTVSPropertyOp39
 70
     1
102
RTVSPropertyOp40
 70
     1
102
RTVSPropertyOp41
 70
     1
102
RTVSPropertyOp42
 70
     1
102
RTVSPropertyOp43
 70
     1
102
RTVSPropertyOp44
 70
     1
102
RTVSPropertyOp45
 70
     1
102
RTVSPropertyOp46
 70
     1
102
RTVSPropertyOp47
 70
     1
102
RTVSPropertyOp48
 70
     1
102
RTVSPropertyOp49
 70
     1
102
RTVSPropertyOp50
 70
     1
102
RTVSPropertyOp51
 70
     0
102
RTVSPropertyOp52
 70
     0
102
RTVSPropertyOp53
 70
     1
102
RTVSPropertyOp54
 70
     1
102
RTVSPropertyOp55
 70
     1
102
RTVSPropertyOp56
 70
     1
102
RTVSPropertyOp57
 70
     1
102
RTVSPropertyOp58
 70
     1
102
RTVSPropertyOp59
 70
     1
102
RTVSPropertyOp60
 70
     1
102
RTVSPropertyOp61
 70
     1
102
RTVSPropertyOp62
 70
     1
  0
XRECORD
  5
288D
102
{ACAD_REACTORS
330
288C
102
}
330
288C
100
AcDbXrecord
280
     1
102
RTVSPost2010Prop28
280
     0
102
RTVSPost2010PropOp28
 70
     1
102
RTVSPost2010Prop29
280
     1
102
RTVSPost2010PropOp29
 70
     1
102
RTVSPost2010Prop30
280
     1
102
RTVSPost2010PropOp30
 70
     1
102
RTVSPost2010Prop31
280
     0
102
RTVSPost2010PropOp31
 70
     1
102
RTVSPost2010Prop32
280
     0
102
RTVSPost2010PropOp32
 70
     1
102
RTVSPost2010Prop33
280
     0
102
RTVSPost2010PropOp33
 70
     1
102
RTVSPost2010Prop34
280
     0
102
RTVSPost2010PropOp34
 70
     1
102
RTVSPost2010Prop35
280
     0
102
RTVSPost2010PropOp35
 70
     1
102
RTVSPost2010Prop36
280
     0
102
RTVSPost2010PropOp36
 70
     1
102
RTVSPost2010Prop37
 90
       50
102
RTVSPost2010PropOp37
 70
     1
102
RTVSPost2010Prop38
140
0.0
102
RTVSPost2010PropOp38
 70
     1
102
RTVSPost2010Prop39
140
1.0
102
RTVSPost2010PropOp39
 70
     1
102
RTVSPost2010Prop40
 90
        0
102
RTVSPost2010PropOp40
 70
     1
102
RTVSPost2010Prop41ColorIndex
 90
       18
102
RTVSPost2010Prop41ColorRGB
 90
        0
102
RTVSPost2010PropOp41
 70
     1
102
RTVSPost2010Prop42
 90
       50
102
RTVSPost2010PropOp42
 70
     1
102
RTVSPost2010Prop43
 90
        3
102
RTVSPost2010PropOp43
 70
     1
102
RTVSPost2010Prop44ColorIndex
 90
        5
102
RTVSPost2010Prop44ColorRGB
 90
      255
102
RTVSPost2010PropOp44
 70
     1
102
RTVSPost2010Prop45
280
     0
102
RTVSPost2010PropOp45
 70
     1
102
RTVSPost2010Prop46
 90
       50
102
RTVSPost2010PropOp46
 70
     1
102
RTVSPost2010Prop47
 90
       50
102
RTVSPost2010PropOp47
 70
     1
102
RTVSPost2010Prop48
 90
       50
102
RTVSPost2010PropOp48
 70
     1
102
RTVSPost2010Prop49
280
     0
102
RTVSPost2010PropOp49
 70
     1
102
RTVSPost2010Prop50
 90
       50
102
RTVSPost2010PropOp50
 70
     1
102
RTVSPost2010Prop51ColorIndex
 90
      256
102
RTVSPost2010Prop51ColorRGB
 90
-16777216
102
RTVSPost2010PropOp51
 70
     0
102
RTVSPost2010Prop52
140
1.0
102
RTVSPost2010PropOp52
 70
     0
102
RTVSPost2010Prop53
 90
        2
102
RTVSPost2010PropOp53
 70
     1
102
RTVSPost2010Prop54
  1
strokes_ogs.tif
102
RTVSPost2010PropOp54
 70
     1
102
RTVSPost2010Prop55
280
     0
102
RTVSPost2010PropOp55
 70
     1
102
RTVSPost2010Prop56
140
1.0
102
RTVSPost2010PropOp56
 70
     1
102
RTVSPost2010Prop57
140
1.0
102
RTVSPost2010PropOp57
 70
     1
102
RTVSPropertyOp0
 70
     1
102
RTVSPropertyOp1
 70
     1
102
RTVSPropertyOp2
 70
     1
102
RTVSPropertyOp3
 70
     1
102
RTVSPropertyOp4
 70
     1
102
RTVSPropertyOp5
 70
     1
102
RTVSPropertyOp6
 70
     1
102
RTVSPropertyOp7
 70
     1
102
RTVSPropertyOp8
 70
     1
102
RTVSPropertyOp9
 70
     1
102
RTVSPropertyOp10
 70
     1
102
RTVSPropertyOp11
 70
     1
102
RTVSPropertyOp12
 70
     1
102
RTVSPropertyOp13
 70
     1
102
RTVSPropertyOp14
 70
     1
102
RTVSPropertyOp15
 70
     1
102
RTVSPropertyOp16
 70
     1
102
RTVSPropertyOp17
 70
     1
102
RTVSPropertyOp18
 70
     1
102
RTVSPropertyOp19
 70
     1
102
RTVSPropertyOp20
 70
     1
102
RTVSPropertyOp21
 70
     1
102
RTVSPropertyOp22
 70
     1
102
RTVSPropertyOp23
 70
     1
102
RTVSPropertyOp24
 70
     1
102
RTVSPropertyOp25
 70
     1
102
RTVSPropertyOp26
 70
     1
102
RTVSPropertyOp27
 70
     1
102
RTVSPropertyOp28
 70
     1
102
RTVSPropertyOp29
 70
     1
102
RTVSPropertyOp30
 70
     1
102
RTVSPropertyOp31
 70
     1
102
RTVSPropertyOp32
 70
     1
102
RTVSPropertyOp33
 70
     1
102
RTVSPropertyOp34
 70
     1
102
RTVSPropertyOp35
 70
     1
102
RTVSPropertyOp36
 70
     1
102
RTVSPropertyOp37
 70
     1
102
RTVSPropertyOp38
 70
     1
102
RTVSPropertyOp39
 70
     1
102
RTVSPropertyOp40
 70
     1
102
RTVSPropertyOp41
 70
     1
102
RTVSPropertyOp42
 70
     1
102
RTVSPropertyOp43
 70
     1
102
RTVSPropertyOp44
 70
     1
102
RTVSPropertyOp45
 70
     1
102
RTVSPropertyOp46
 70
     1
102
RTVSPropertyOp47
 70
     1
102
RTVSPropertyOp48
 70
     1
102
RTVSPropertyOp49
 70
     1
102
RTVSPropertyOp50
 70
     1
102
RTVSPropertyOp51
 70
     0
102
RTVSPropertyOp52
 70
     0
102
RTVSPropertyOp53
 70
     1
102
RTVSPropertyOp54
 70
     1
102
RTVSPropertyOp55
 70
     1
102
RTVSPropertyOp56
 70
     1
102
RTVSPropertyOp57
 70
     1
102
RTVSPropertyOp58
 70
     1
102
RTVSPropertyOp59
 70
     1
102
RTVSPropertyOp60
 70
     1
102
RTVSPropertyOp61
 70
     1
102
RTVSPropertyOp62
 70
     1
  0
XRECORD
  5
288F
102
{ACAD_REACTORS
330
288E
102
}
330
288E
100
AcDbXrecord
280
     1
102
RTVSPost2010Prop28
280
     0
102
RTVSPost2010PropOp28
 70
     1
102
RTVSPost2010Prop29
280
     1
102
RTVSPost2010PropOp29
 70
     1
102
RTVSPost2010Prop30
280
     1
102
RTVSPost2010PropOp30
 70
     1
102
RTVSPost2010Prop31
280
     0
102
RTVSPost2010PropOp31
 70
     1
102
RTVSPost2010Prop32
280
     0
102
RTVSPost2010PropOp32
 70
     1
102
RTVSPost2010Prop33
280
     0
102
RTVSPost2010PropOp33
 70
     1
102
RTVSPost2010Prop34
280
     0
102
RTVSPost2010PropOp34
 70
     1
102
RTVSPost2010Prop35
280
     0
102
RTVSPost2010PropOp35
 70
     1
102
RTVSPost2010Prop36
280
     0
102
RTVSPost2010PropOp36
 70
     1
102
RTVSPost2010Prop37
 90
       50
102
RTVSPost2010PropOp37
 70
     1
102
RTVSPost2010Prop38
140
0.0
102
RTVSPost2010PropOp38
 70
     1
102
RTVSPost2010Prop39
140
1.0
102
RTVSPost2010PropOp39
 70
     1
102
RTVSPost2010Prop40
 90
        0
102
RTVSPost2010PropOp40
 70
     1
102
RTVSPost2010Prop41ColorIndex
 90
       18
102
RTVSPost2010Prop41ColorRGB
 90
        0
102
RTVSPost2010PropOp41
 70
     1
102
RTVSPost2010Prop42
 90
       50
102
RTVSPost2010PropOp42
 70
     1
102
RTVSPost2010Prop43
 90
        3
102
RTVSPost2010PropOp43
 70
     1
102
RTVSPost2010Prop44ColorIndex
 90
        5
102
RTVSPost2010Prop44ColorRGB
 90
      255
102
RTVSPost2010PropOp44
 70
     1
102
RTVSPost2010Prop45
280
     0
102
RTVSPost2010PropOp45
 70
     1
102
RTVSPost2010Prop46
 90
       50
102
RTVSPost2010PropOp46
 70
     1
102
RTVSPost2010Prop47
 90
       50
102
RTVSPost2010PropOp47
 70
     1
102
RTVSPost2010Prop48
 90
       50
102
RTVSPost2010PropOp48
 70
     1
102
RTVSPost2010Prop49
280
     0
102
RTVSPost2010PropOp49
 70
     1
102
RTVSPost2010Prop50
 90
       50
102
RTVSPost2010PropOp50
 70
     1
102
RTVSPost2010Prop51ColorIndex
 90
      256
102
RTVSPost2010Prop51ColorRGB
 90
-16777216
102
RTVSPost2010PropOp51
 70
     0
102
RTVSPost2010Prop52
140
1.0
102
RTVSPost2010PropOp52
 70
     0
102
RTVSPost2010Prop53
 90
        2
102
RTVSPost2010PropOp53
 70
     1
102
RTVSPost2010Prop54
  1
strokes_ogs.tif
102
RTVSPost2010PropOp54
 70
     1
102
RTVSPost2010Prop55
280
     0
102
RTVSPost2010PropOp55
 70
     1
102
RTVSPost2010Prop56
140
1.0
102
RTVSPost2010PropOp56
 70
     1
102
RTVSPost2010Prop57
140
1.0
102
RTVSPost2010PropOp57
 70
     1
102
RTVSPropertyOp0
 70
     1
102
RTVSPropertyOp1
 70
     1
102
RTVSPropertyOp2
 70
     1
102
RTVSPropertyOp3
 70
     1
102
RTVSPropertyOp4
 70
     1
102
RTVSPropertyOp5
 70
     1
102
RTVSPropertyOp6
 70
     1
102
RTVSPropertyOp7
 70
     1
102
RTVSPropertyOp8
 70
     1
102
RTVSPropertyOp9
 70
     1
102
RTVSPropertyOp10
 70
     1
102
RTVSPropertyOp11
 70
     1
102
RTVSPropertyOp12
 70
     1
102
RTVSPropertyOp13
 70
     1
102
RTVSPropertyOp14
 70
     1
102
RTVSPropertyOp15
 70
     1
102
RTVSPropertyOp16
 70
     1
102
RTVSPropertyOp17
 70
     1
102
RTVSPropertyOp18
 70
     1
102
RTVSPropertyOp19
 70
     1
102
RTVSPropertyOp20
 70
     1
102
RTVSPropertyOp21
 70
     1
102
RTVSPropertyOp22
 70
     1
102
RTVSPropertyOp23
 70
     1
102
RTVSPropertyOp24
 70
     1
102
RTVSPropertyOp25
 70
     1
102
RTVSPropertyOp26
 70
     1
102
RTVSPropertyOp27
 70
     1
102
RTVSPropertyOp28
 70
     1
102
RTVSPropertyOp29
 70
     1
102
RTVSPropertyOp30
 70
     1
102
RTVSPropertyOp31
 70
     1
102
RTVSPropertyOp32
 70
     1
102
RTVSPropertyOp33
 70
     1
102
RTVSPropertyOp34
 70
     1
102
RTVSPropertyOp35
 70
     1
102
RTVSPropertyOp36
 70
     1
102
RTVSPropertyOp37
 70
     1
102
RTVSPropertyOp38
 70
     1
102
RTVSPropertyOp39
 70
     1
102
RTVSPropertyOp40
 70
     1
102
RTVSPropertyOp41
 70
     1
102
RTVSPropertyOp42
 70
     1
102
RTVSPropertyOp43
 70
     1
102
RTVSPropertyOp44
 70
     1
102
RTVSPropertyOp45
 70
     1
102
RTVSPropertyOp46
 70
     1
102
RTVSPropertyOp47
 70
     1
102
RTVSPropertyOp48
 70
     1
102
RTVSPropertyOp49
 70
     1
102
RTVSPropertyOp50
 70
     1
102
RTVSPropertyOp51
 70
     0
102
RTVSPropertyOp52
 70
     0
102
RTVSPropertyOp53
 70
     1
102
RTVSPropertyOp54
 70
     1
102
RTVSPropertyOp55
 70
     1
102
RTVSPropertyOp56
 70
     1
102
RTVSPropertyOp57
 70
     1
102
RTVSPropertyOp58
 70
     1
102
RTVSPropertyOp59
 70
     1
102
RTVSPropertyOp60
 70
     1
102
RTVSPropertyOp61
 70
     1
102
RTVSPropertyOp62
 70
     1
  0
XRECORD
  5
2891
102
{ACAD_REACTORS
330
2890
102
}
330
2890
100
AcDbXrecord
280
     1
102
RTVSPost2010Prop28
280
     0
102
RTVSPost2010PropOp28
 70
     1
102
RTVSPost2010Prop29
280
     1
102
RTVSPost2010PropOp29
 70
     1
102
RTVSPost2010Prop30
280
     1
102
RTVSPost2010PropOp30
 70
     1
102
RTVSPost2010Prop31
280
     0
102
RTVSPost2010PropOp31
 70
     1
102
RTVSPost2010Prop32
280
     0
102
RTVSPost2010PropOp32
 70
     1
102
RTVSPost2010Prop33
280
     0
102
RTVSPost2010PropOp33
 70
     1
102
RTVSPost2010Prop34
280
     0
102
RTVSPost2010PropOp34
 70
     1
102
RTVSPost2010Prop35
280
     0
102
RTVSPost2010PropOp35
 70
     1
102
RTVSPost2010Prop36
280
     0
102
RTVSPost2010PropOp36
 70
     1
102
RTVSPost2010Prop37
 90
       50
102
RTVSPost2010PropOp37
 70
     1
102
RTVSPost2010Prop38
140
0.0
102
RTVSPost2010PropOp38
 70
     1
102
RTVSPost2010Prop39
140
1.0
102
RTVSPost2010PropOp39
 70
     1
102
RTVSPost2010Prop40
 90
        0
102
RTVSPost2010PropOp40
 70
     1
102
RTVSPost2010Prop41ColorIndex
 90
       18
102
RTVSPost2010Prop41ColorRGB
 90
        0
102
RTVSPost2010PropOp41
 70
     1
102
RTVSPost2010Prop42
 90
       50
102
RTVSPost2010PropOp42
 70
     1
102
RTVSPost2010Prop43
 90
        3
102
RTVSPost2010PropOp43
 70
     1
102
RTVSPost2010Prop44ColorIndex
 90
        5
102
RTVSPost2010Prop44ColorRGB
 90
      255
102
RTVSPost2010PropOp44
 70
     1
102
RTVSPost2010Prop45
280
     0
102
RTVSPost2010PropOp45
 70
     1
102
RTVSPost2010Prop46
 90
       50
102
RTVSPost2010PropOp46
 70
     1
102
RTVSPost2010Prop47
 90
       50
102
RTVSPost2010PropOp47
 70
     1
102
RTVSPost2010Prop48
 90
       50
102
RTVSPost2010PropOp48
 70
     1
102
RTVSPost2010Prop49
280
     0
102
RTVSPost2010PropOp49
 70
     1
102
RTVSPost2010Prop50
 90
       50
102
RTVSPost2010PropOp50
 70
     1
102
RTVSPost2010Prop51ColorIndex
 90
      256
102
RTVSPost2010Prop51ColorRGB
 90
-16777216
102
RTVSPost2010PropOp51
 70
     0
102
RTVSPost2010Prop52
140
1.0
102
RTVSPost2010PropOp52
 70
     0
102
RTVSPost2010Prop53
 90
        2
102
RTVSPost2010PropOp53
 70
     1
102
RTVSPost2010Prop54
  1
strokes_ogs.tif
102
RTVSPost2010PropOp54
 70
     1
102
RTVSPost2010Prop55
280
     0
102
RTVSPost2010PropOp55
 70
     1
102
RTVSPost2010Prop56
140
1.0
102
RTVSPost2010PropOp56
 70
     1
102
RTVSPost2010Prop57
140
1.0
102
RTVSPost2010PropOp57
 70
     1
102
RTVSPropertyOp0
 70
     1
102
RTVSPropertyOp1
 70
     1
102
RTVSPropertyOp2
 70
     1
102
RTVSPropertyOp3
 70
     1
102
RTVSPropertyOp4
 70
     1
102
RTVSPropertyOp5
 70
     1
102
RTVSPropertyOp6
 70
     1
102
RTVSPropertyOp7
 70
     1
102
RTVSPropertyOp8
 70
     1
102
RTVSPropertyOp9
 70
     1
102
RTVSPropertyOp10
 70
     1
102
RTVSPropertyOp11
 70
     1
102
RTVSPropertyOp12
 70
     1
102
RTVSPropertyOp13
 70
     1
102
RTVSPropertyOp14
 70
     1
102
RTVSPropertyOp15
 70
     1
102
RTVSPropertyOp16
 70
     1
102
RTVSPropertyOp17
 70
     1
102
RTVSPropertyOp18
 70
     1
102
RTVSPropertyOp19
 70
     1
102
RTVSPropertyOp20
 70
     1
102
RTVSPropertyOp21
 70
     1
102
RTVSPropertyOp22
 70
     1
102
RTVSPropertyOp23
 70
     1
102
RTVSPropertyOp24
 70
     1
102
RTVSPropertyOp25
 70
     1
102
RTVSPropertyOp26
 70
     1
102
RTVSPropertyOp27
 70
     1
102
RTVSPropertyOp28
 70
     1
102
RTVSPropertyOp29
 70
     1
102
RTVSPropertyOp30
 70
     1
102
RTVSPropertyOp31
 70
     1
102
RTVSPropertyOp32
 70
     1
102
RTVSPropertyOp33
 70
     1
102
RTVSPropertyOp34
 70
     1
102
RTVSPropertyOp35
 70
     1
102
RTVSPropertyOp36
 70
     1
102
RTVSPropertyOp37
 70
     1
102
RTVSPropertyOp38
 70
     1
102
RTVSPropertyOp39
 70
     1
102
RTVSPropertyOp40
 70
     1
102
RTVSPropertyOp41
 70
     1
102
RTVSPropertyOp42
 70
     1
102
RTVSPropertyOp43
 70
     1
102
RTVSPropertyOp44
 70
     1
102
RTVSPropertyOp45
 70
     1
102
RTVSPropertyOp46
 70
     1
102
RTVSPropertyOp47
 70
     1
102
RTVSPropertyOp48
 70
     1
102
RTVSPropertyOp49
 70
     1
102
RTVSPropertyOp50
 70
     1
102
RTVSPropertyOp51
 70
     0
102
RTVSPropertyOp52
 70
     0
102
RTVSPropertyOp53
 70
     1
102
RTVSPropertyOp54
 70
     1
102
RTVSPropertyOp55
 70
     1
102
RTVSPropertyOp56
 70
     1
102
RTVSPropertyOp57
 70
     1
102
RTVSPropertyOp58
 70
     1
102
RTVSPropertyOp59
 70
     1
102
RTVSPropertyOp60
 70
     1
102
RTVSPropertyOp61
 70
     1
102
RTVSPropertyOp62
 70
     1
  0
XRECORD
  5
28BD
102
{ACAD_REACTORS
330
28BC
102
}
330
28BC
100
AcDbXrecord
280
     1
102
RTVSPost2010Prop28
280
     0
102
RTVSPost2010PropOp28
 70
     1
102
RTVSPost2010Prop29
280
     1
102
RTVSPost2010PropOp29
 70
     1
102
RTVSPost2010Prop30
280
     1
102
RTVSPost2010PropOp30
 70
     1
102
RTVSPost2010Prop31
280
     0
102
RTVSPost2010PropOp31
 70
     1
102
RTVSPost2010Prop32
280
     0
102
RTVSPost2010PropOp32
 70
     1
102
RTVSPost2010Prop33
280
     0
102
RTVSPost2010PropOp33
 70
     1
102
RTVSPost2010Prop34
280
     0
102
RTVSPost2010PropOp34
 70
     1
102
RTVSPost2010Prop35
280
     0
102
RTVSPost2010PropOp35
 70
     1
102
RTVSPost2010Prop36
280
     0
102
RTVSPost2010PropOp36
 70
     1
102
RTVSPost2010Prop37
 90
       50
102
RTVSPost2010PropOp37
 70
     1
102
RTVSPost2010Prop38
140
0.0
102
RTVSPost2010PropOp38
 70
     1
102
RTVSPost2010Prop39
140
1.0
102
RTVSPost2010PropOp39
 70
     1
102
RTVSPost2010Prop40
 90
        0
102
RTVSPost2010PropOp40
 70
     1
102
RTVSPost2010Prop41ColorIndex
 90
       18
102
RTVSPost2010Prop41ColorRGB
 90
        0
102
RTVSPost2010PropOp41
 70
     1
102
RTVSPost2010Prop42
 90
       50
102
RTVSPost2010PropOp42
 70
     1
102
RTVSPost2010Prop43
 90
        3
102
RTVSPost2010PropOp43
 70
     1
102
RTVSPost2010Prop44ColorIndex
 90
        5
102
RTVSPost2010Prop44ColorRGB
 90
      255
102
RTVSPost2010PropOp44
 70
     1
102
RTVSPost2010Prop45
280
     0
102
RTVSPost2010PropOp45
 70
     1
102
RTVSPost2010Prop46
 90
       50
102
RTVSPost2010PropOp46
 70
     1
102
RTVSPost2010Prop47
 90
       50
102
RTVSPost2010PropOp47
 70
     1
102
RTVSPost2010Prop48
 90
       50
102
RTVSPost2010PropOp48
 70
     1
102
RTVSPost2010Prop49
280
     0
102
RTVSPost2010PropOp49
 70
     1
102
RTVSPost2010Prop50
 90
       50
102
RTVSPost2010PropOp50
 70
     1
102
RTVSPost2010Prop51ColorIndex
 90
      256
102
RTVSPost2010Prop51ColorRGB
 90
-16777216
102
RTVSPost2010PropOp51
 70
     0
102
RTVSPost2010Prop52
140
1.0
102
RTVSPost2010PropOp52
 70
     0
102
RTVSPost2010Prop53
 90
        2
102
RTVSPost2010PropOp53
 70
     1
102
RTVSPost2010Prop54
  1
strokes_ogs.tif
102
RTVSPost2010PropOp54
 70
     1
102
RTVSPost2010Prop55
280
     0
102
RTVSPost2010PropOp55
 70
     1
102
RTVSPost2010Prop56
140
1.0
102
RTVSPost2010PropOp56
 70
     1
102
RTVSPost2010Prop57
140
1.0
102
RTVSPost2010PropOp57
 70
     1
102
RTVSPropertyOp0
 70
     1
102
RTVSPropertyOp1
 70
     1
102
RTVSPropertyOp2
 70
     1
102
RTVSPropertyOp3
 70
     1
102
RTVSPropertyOp4
 70
     1
102
RTVSPropertyOp5
 70
     1
102
RTVSPropertyOp6
 70
     1
102
RTVSPropertyOp7
 70
     1
102
RTVSPropertyOp8
 70
     1
102
RTVSPropertyOp9
 70
     1
102
RTVSPropertyOp10
 70
     1
102
RTVSPropertyOp11
 70
     1
102
RTVSPropertyOp12
 70
     1
102
RTVSPropertyOp13
 70
     1
102
RTVSPropertyOp14
 70
     1
102
RTVSPropertyOp15
 70
     1
102
RTVSPropertyOp16
 70
     1
102
RTVSPropertyOp17
 70
     1
102
RTVSPropertyOp18
 70
     1
102
RTVSPropertyOp19
 70
     1
102
RTVSPropertyOp20
 70
     1
102
RTVSPropertyOp21
 70
     1
102
RTVSPropertyOp22
 70
     1
102
RTVSPropertyOp23
 70
     1
102
RTVSPropertyOp24
 70
     1
102
RTVSPropertyOp25
 70
     1
102
RTVSPropertyOp26
 70
     1
102
RTVSPropertyOp27
 70
     1
102
RTVSPropertyOp28
 70
     1
102
RTVSPropertyOp29
 70
     1
102
RTVSPropertyOp30
 70
     1
102
RTVSPropertyOp31
 70
     1
102
RTVSPropertyOp32
 70
     1
102
RTVSPropertyOp33
 70
     1
102
RTVSPropertyOp34
 70
     1
102
RTVSPropertyOp35
 70
     1
102
RTVSPropertyOp36
 70
     1
102
RTVSPropertyOp37
 70
     1
102
RTVSPropertyOp38
 70
     1
102
RTVSPropertyOp39
 70
     1
102
RTVSPropertyOp40
 70
     1
102
RTVSPropertyOp41
 70
     1
102
RTVSPropertyOp42
 70
     1
102
RTVSPropertyOp43
 70
     1
102
RTVSPropertyOp44
 70
     1
102
RTVSPropertyOp45
 70
     1
102
RTVSPropertyOp46
 70
     1
102
RTVSPropertyOp47
 70
     1
102
RTVSPropertyOp48
 70
     1
102
RTVSPropertyOp49
 70
     1
102
RTVSPropertyOp50
 70
     1
102
RTVSPropertyOp51
 70
     0
102
RTVSPropertyOp52
 70
     0
102
RTVSPropertyOp53
 70
     1
102
RTVSPropertyOp54
 70
     1
102
RTVSPropertyOp55
 70
     1
102
RTVSPropertyOp56
 70
     1
102
RTVSPropertyOp57
 70
     1
102
RTVSPropertyOp58
 70
     1
102
RTVSPropertyOp59
 70
     1
102
RTVSPropertyOp60
 70
     1
102
RTVSPropertyOp61
 70
     1
102
RTVSPropertyOp62
 70
     1
  0
XRECORD
  5
28B5
102
{ACAD_REACTORS
330
28B4
102
}
330
28B4
100
AcDbXrecord
280
     1
102
RTVSPost2010Prop28
280
     0
102
RTVSPost2010PropOp28
 70
     1
102
RTVSPost2010Prop29
280
     1
102
RTVSPost2010PropOp29
 70
     1
102
RTVSPost2010Prop30
280
     1
102
RTVSPost2010PropOp30
 70
     1
102
RTVSPost2010Prop31
280
     0
102
RTVSPost2010PropOp31
 70
     1
102
RTVSPost2010Prop32
280
     0
102
RTVSPost2010PropOp32
 70
     1
102
RTVSPost2010Prop33
280
     0
102
RTVSPost2010PropOp33
 70
     1
102
RTVSPost2010Prop34
280
     0
102
RTVSPost2010PropOp34
 70
     1
102
RTVSPost2010Prop35
280
     0
102
RTVSPost2010PropOp35
 70
     1
102
RTVSPost2010Prop36
280
     0
102
RTVSPost2010PropOp36
 70
     1
102
RTVSPost2010Prop37
 90
       50
102
RTVSPost2010PropOp37
 70
     1
102
RTVSPost2010Prop38
140
0.0
102
RTVSPost2010PropOp38
 70
     1
102
RTVSPost2010Prop39
140
1.0
102
RTVSPost2010PropOp39
 70
     1
102
RTVSPost2010Prop40
 90
        0
102
RTVSPost2010PropOp40
 70
     1
102
RTVSPost2010Prop41ColorIndex
 90
       18
102
RTVSPost2010Prop41ColorRGB
 90
        0
102
RTVSPost2010PropOp41
 70
     1
102
RTVSPost2010Prop42
 90
       50
102
RTVSPost2010PropOp42
 70
     1
102
RTVSPost2010Prop43
 90
        3
102
RTVSPost2010PropOp43
 70
     1
102
RTVSPost2010Prop44ColorIndex
 90
        5
102
RTVSPost2010Prop44ColorRGB
 90
      255
102
RTVSPost2010PropOp44
 70
     1
102
RTVSPost2010Prop45
280
     0
102
RTVSPost2010PropOp45
 70
     1
102
RTVSPost2010Prop46
 90
       50
102
RTVSPost2010PropOp46
 70
     1
102
RTVSPost2010Prop47
 90
       50
102
RTVSPost2010PropOp47
 70
     1
102
RTVSPost2010Prop48
 90
       50
102
RTVSPost2010PropOp48
 70
     1
102
RTVSPost2010Prop49
280
     0
102
RTVSPost2010PropOp49
 70
     1
102
RTVSPost2010Prop50
 90
       50
102
RTVSPost2010PropOp50
 70
     1
102
RTVSPost2010Prop51ColorIndex
 90
      256
102
RTVSPost2010Prop51ColorRGB
 90
-16777216
102
RTVSPost2010PropOp51
 70
     0
102
RTVSPost2010Prop52
140
1.0
102
RTVSPost2010PropOp52
 70
     0
102
RTVSPost2010Prop53
 90
        2
102
RTVSPost2010PropOp53
 70
     1
102
RTVSPost2010Prop54
  1
strokes_ogs.tif
102
RTVSPost2010PropOp54
 70
     1
102
RTVSPost2010Prop55
280
     0
102
RTVSPost2010PropOp55
 70
     1
102
RTVSPost2010Prop56
140
1.0
102
RTVSPost2010PropOp56
 70
     1
102
RTVSPost2010Prop57
140
1.0
102
RTVSPost2010PropOp57
 70
     1
102
RTVSPropertyOp0
 70
     0
102
RTVSPropertyOp1
 70
     0
102
RTVSPropertyOp2
 70
     0
102
RTVSPropertyOp3
 70
     0
102
RTVSPropertyOp4
 70
     0
102
RTVSPropertyOp5
 70
     0
102
RTVSPropertyOp6
 70
     0
102
RTVSPropertyOp7
 70
     0
102
RTVSPropertyOp8
 70
     0
102
RTVSPropertyOp9
 70
     0
102
RTVSPropertyOp10
 70
     0
102
RTVSPropertyOp11
 70
     0
102
RTVSPropertyOp12
 70
     0
102
RTVSPropertyOp13
 70
     0
102
RTVSPropertyOp14
 70
     2
102
RTVSPropertyOp15
 70
     0
102
RTVSPropertyOp16
 70
     0
102
RTVSPropertyOp17
 70
     0
102
RTVSPropertyOp18
 70
     0
102
RTVSPropertyOp19
 70
     0
102
RTVSPropertyOp20
 70
     0
102
RTVSPropertyOp21
 70
     0
102
RTVSPropertyOp22
 70
     0
102
RTVSPropertyOp23
 70
     0
102
RTVSPropertyOp24
 70
     0
102
RTVSPropertyOp25
 70
     0
102
RTVSPropertyOp26
 70
     0
102
RTVSPropertyOp27
 70
     0
102
RTVSPropertyOp28
 70
     1
102
RTVSPropertyOp29
 70
     1
102
RTVSPropertyOp30
 70
     1
102
RTVSPropertyOp31
 70
     1
102
RTVSPropertyOp32
 70
     1
102
RTVSPropertyOp33
 70
     1
102
RTVSPropertyOp34
 70
     1
102
RTVSPropertyOp35
 70
     1
102
RTVSPropertyOp36
 70
     1
102
RTVSPropertyOp37
 70
     1
102
RTVSPropertyOp38
 70
     1
102
RTVSPropertyOp39
 70
     1
102
RTVSPropertyOp40
 70
     1
102
RTVSPropertyOp41
 70
     1
102
RTVSPropertyOp42
 70
     1
102
RTVSPropertyOp43
 70
     1
102
RTVSPropertyOp44
 70
     1
102
RTVSPropertyOp45
 70
     1
102
RTVSPropertyOp46
 70
     1
102
RTVSPropertyOp47
 70
     1
102
RTVSPropertyOp48
 70
     1
102
RTVSPropertyOp49
 70
     1
102
RTVSPropertyOp50
 70
     1
102
RTVSPropertyOp51
 70
     0
102
RTVSPropertyOp52
 70
     0
102
RTVSPropertyOp53
 70
     1
102
RTVSPropertyOp54
 70
     1
102
RTVSPropertyOp55
 70
     1
102
RTVSPropertyOp56
 70
     1
102
RTVSPropertyOp57
 70
     1
102
RTVSPropertyOp58
 70
     1
102
RTVSPropertyOp59
 70
     1
102
RTVSPropertyOp60
 70
     1
102
RTVSPropertyOp61
 70
     1
102
RTVSPropertyOp62
 70
     1
  0
XRECORD
  5
28A5
102
{ACAD_REACTORS
330
28A4
102
}
330
28A4
100
AcDbXrecord
280
     1
102
RTVSPost2010Prop28
280
     0
102
RTVSPost2010PropOp28
 70
     1
102
RTVSPost2010Prop29
280
     1
102
RTVSPost2010PropOp29
 70
     1
102
RTVSPost2010Prop30
280
     1
102
RTVSPost2010PropOp30
 70
     1
102
RTVSPost2010Prop31
280
     0
102
RTVSPost2010PropOp31
 70
     1
102
RTVSPost2010Prop32
280
     0
102
RTVSPost2010PropOp32
 70
     1
102
RTVSPost2010Prop33
280
     0
102
RTVSPost2010PropOp33
 70
     1
102
RTVSPost2010Prop34
280
     0
102
RTVSPost2010PropOp34
 70
     1
102
RTVSPost2010Prop35
280
     0
102
RTVSPost2010PropOp35
 70
     1
102
RTVSPost2010Prop36
280
     0
102
RTVSPost2010PropOp36
 70
     1
102
RTVSPost2010Prop37
 90
       50
102
RTVSPost2010PropOp37
 70
     1
102
RTVSPost2010Prop38
140
0.0
102
RTVSPost2010PropOp38
 70
     1
102
RTVSPost2010Prop39
140
1.0
102
RTVSPost2010PropOp39
 70
     1
102
RTVSPost2010Prop40
 90
        0
102
RTVSPost2010PropOp40
 70
     1
102
RTVSPost2010Prop41ColorIndex
 90
       18
102
RTVSPost2010Prop41ColorRGB
 90
        0
102
RTVSPost2010PropOp41
 70
     1
102
RTVSPost2010Prop42
 90
       50
102
RTVSPost2010PropOp42
 70
     1
102
RTVSPost2010Prop43
 90
        3
102
RTVSPost2010PropOp43
 70
     1
102
RTVSPost2010Prop44ColorIndex
 90
        5
102
RTVSPost2010Prop44ColorRGB
 90
      255
102
RTVSPost2010PropOp44
 70
     1
102
RTVSPost2010Prop45
280
     0
102
RTVSPost2010PropOp45
 70
     1
102
RTVSPost2010Prop46
 90
       50
102
RTVSPost2010PropOp46
 70
     1
102
RTVSPost2010Prop47
 90
       50
102
RTVSPost2010PropOp47
 70
     1
102
RTVSPost2010Prop48
 90
       50
102
RTVSPost2010PropOp48
 70
     1
102
RTVSPost2010Prop49
280
     0
102
RTVSPost2010PropOp49
 70
     1
102
RTVSPost2010Prop50
 90
       50
102
RTVSPost2010PropOp50
 70
     1
102
RTVSPost2010Prop51ColorIndex
 90
      256
102
RTVSPost2010Prop51ColorRGB
 90
-16777216
102
RTVSPost2010PropOp51
 70
     0
102
RTVSPost2010Prop52
140
1.0
102
RTVSPost2010PropOp52
 70
     0
102
RTVSPost2010Prop53
 90
        2
102
RTVSPost2010PropOp53
 70
     1
102
RTVSPost2010Prop54
  1
strokes_ogs.tif
102
RTVSPost2010PropOp54
 70
     1
102
RTVSPost2010Prop55
280
     0
102
RTVSPost2010PropOp55
 70
     1
102
RTVSPost2010Prop56
140
1.0
102
RTVSPost2010PropOp56
 70
     1
102
RTVSPost2010Prop57
140
1.0
102
RTVSPost2010PropOp57
 70
     1
102
RTVSPropertyOp0
 70
     1
102
RTVSPropertyOp1
 70
     1
102
RTVSPropertyOp2
 70
     1
102
RTVSPropertyOp3
 70
     1
102
RTVSPropertyOp4
 70
     1
102
RTVSPropertyOp5
 70
     1
102
RTVSPropertyOp6
 70
     1
102
RTVSPropertyOp7
 70
     1
102
RTVSPropertyOp8
 70
     1
102
RTVSPropertyOp9
 70
     1
102
RTVSPropertyOp10
 70
     1
102
RTVSPropertyOp11
 70
     1
102
RTVSPropertyOp12
 70
     1
102
RTVSPropertyOp13
 70
     1
102
RTVSPropertyOp14
 70
     1
102
RTVSPropertyOp15
 70
     1
102
RTVSPropertyOp16
 70
     1
102
RTVSPropertyOp17
 70
     1
102
RTVSPropertyOp18
 70
     1
102
RTVSPropertyOp19
 70
     1
102
RTVSPropertyOp20
 70
     1
102
RTVSPropertyOp21
 70
     1
102
RTVSPropertyOp22
 70
     1
102
RTVSPropertyOp23
 70
     1
102
RTVSPropertyOp24
 70
     1
102
RTVSPropertyOp25
 70
     1
102
RTVSPropertyOp26
 70
     1
102
RTVSPropertyOp27
 70
     1
102
RTVSPropertyOp28
 70
     1
102
RTVSPropertyOp29
 70
     1
102
RTVSPropertyOp30
 70
     1
102
RTVSPropertyOp31
 70
     1
102
RTVSPropertyOp32
 70
     1
102
RTVSPropertyOp33
 70
     1
102
RTVSPropertyOp34
 70
     1
102
RTVSPropertyOp35
 70
     1
102
RTVSPropertyOp36
 70
     1
102
RTVSPropertyOp37
 70
     1
102
RTVSPropertyOp38
 70
     1
102
RTVSPropertyOp39
 70
     1
102
RTVSPropertyOp40
 70
     1
102
RTVSPropertyOp41
 70
     1
102
RTVSPropertyOp42
 70
     1
102
RTVSPropertyOp43
 70
     1
102
RTVSPropertyOp44
 70
     1
102
RTVSPropertyOp45
 70
     1
102
RTVSPropertyOp46
 70
     1
102
RTVSPropertyOp47
 70
     1
102
RTVSPropertyOp48
 70
     1
102
RTVSPropertyOp49
 70
     1
102
RTVSPropertyOp50
 70
     1
102
RTVSPropertyOp51
 70
     0
102
RTVSPropertyOp52
 70
     0
102
RTVSPropertyOp53
 70
     1
102
RTVSPropertyOp54
 70
     1
102
RTVSPropertyOp55
 70
     1
102
RTVSPropertyOp56
 70
     1
102
RTVSPropertyOp57
 70
     1
102
RTVSPropertyOp58
 70
     1
102
RTVSPropertyOp59
 70
     1
102
RTVSPropertyOp60
 70
     1
102
RTVSPropertyOp61
 70
     1
102
RTVSPropertyOp62
 70
     1
  0
XRECORD
  5
28B7
102
{ACAD_REACTORS
330
28B6
102
}
330
28B6
100
AcDbXrecord
280
     1
102
RTVSPost2010Prop28
280
     0
102
RTVSPost2010PropOp28
 70
     1
102
RTVSPost2010Prop29
280
     1
102
RTVSPost2010PropOp29
 70
     1
102
RTVSPost2010Prop30
280
     1
102
RTVSPost2010PropOp30
 70
     1
102
RTVSPost2010Prop31
280
     0
102
RTVSPost2010PropOp31
 70
     1
102
RTVSPost2010Prop32
280
     0
102
RTVSPost2010PropOp32
 70
     1
102
RTVSPost2010Prop33
280
     0
102
RTVSPost2010PropOp33
 70
     1
102
RTVSPost2010Prop34
280
     0
102
RTVSPost2010PropOp34
 70
     1
102
RTVSPost2010Prop35
280
     0
102
RTVSPost2010PropOp35
 70
     1
102
RTVSPost2010Prop36
280
     0
102
RTVSPost2010PropOp36
 70
     1
102
RTVSPost2010Prop37
 90
       50
102
RTVSPost2010PropOp37
 70
     1
102
RTVSPost2010Prop38
140
0.0
102
RTVSPost2010PropOp38
 70
     1
102
RTVSPost2010Prop39
140
1.0
102
RTVSPost2010PropOp39
 70
     1
102
RTVSPost2010Prop40
 90
        0
102
RTVSPost2010PropOp40
 70
     1
102
RTVSPost2010Prop41ColorIndex
 90
       18
102
RTVSPost2010Prop41ColorRGB
 90
        0
102
RTVSPost2010PropOp41
 70
     1
102
RTVSPost2010Prop42
 90
       50
102
RTVSPost2010PropOp42
 70
     1
102
RTVSPost2010Prop43
 90
        3
102
RTVSPost2010PropOp43
 70
     1
102
RTVSPost2010Prop44ColorIndex
 90
        5
102
RTVSPost2010Prop44ColorRGB
 90
      255
102
RTVSPost2010PropOp44
 70
     1
102
RTVSPost2010Prop45
280
     0
102
RTVSPost2010PropOp45
 70
     1
102
RTVSPost2010Prop46
 90
       50
102
RTVSPost2010PropOp46
 70
     1
102
RTVSPost2010Prop47
 90
       50
102
RTVSPost2010PropOp47
 70
     1
102
RTVSPost2010Prop48
 90
       50
102
RTVSPost2010PropOp48
 70
     1
102
RTVSPost2010Prop49
280
     0
102
RTVSPost2010PropOp49
 70
     1
102
RTVSPost2010Prop50
 90
       50
102
RTVSPost2010PropOp50
 70
     1
102
RTVSPost2010Prop51ColorIndex
 90
      256
102
RTVSPost2010Prop51ColorRGB
 90
-16777216
102
RTVSPost2010PropOp51
 70
     0
102
RTVSPost2010Prop52
140
1.0
102
RTVSPost2010PropOp52
 70
     0
102
RTVSPost2010Prop53
 90
        2
102
RTVSPost2010PropOp53
 70
     1
102
RTVSPost2010Prop54
  1
strokes_ogs.tif
102
RTVSPost2010PropOp54
 70
     1
102
RTVSPost2010Prop55
280
     0
102
RTVSPost2010PropOp55
 70
     1
102
RTVSPost2010Prop56
140
1.0
102
RTVSPost2010PropOp56
 70
     1
102
RTVSPost2010Prop57
140
1.0
102
RTVSPost2010PropOp57
 70
     1
102
RTVSPropertyOp0
 70
     0
102
RTVSPropertyOp1
 70
     0
102
RTVSPropertyOp2
 70
     0
102
RTVSPropertyOp3
 70
     0
102
RTVSPropertyOp4
 70
     0
102
RTVSPropertyOp5
 70
     0
102
RTVSPropertyOp6
 70
     0
102
RTVSPropertyOp7
 70
     0
102
RTVSPropertyOp8
 70
     0
102
RTVSPropertyOp9
 70
     0
102
RTVSPropertyOp10
 70
     0
102
RTVSPropertyOp11
 70
     0
102
RTVSPropertyOp12
 70
     0
102
RTVSPropertyOp13
 70
     0
102
RTVSPropertyOp14
 70
     2
102
RTVSPropertyOp15
 70
     0
102
RTVSPropertyOp16
 70
     0
102
RTVSPropertyOp17
 70
     0
102
RTVSPropertyOp18
 70
     0
102
RTVSPropertyOp19
 70
     0
102
RTVSPropertyOp20
 70
     0
102
RTVSPropertyOp21
 70
     0
102
RTVSPropertyOp22
 70
     0
102
RTVSPropertyOp23
 70
     0
102
RTVSPropertyOp24
 70
     0
102
RTVSPropertyOp25
 70
     0
102
RTVSPropertyOp26
 70
     0
102
RTVSPropertyOp27
 70
     0
102
RTVSPropertyOp28
 70
     1
102
RTVSPropertyOp29
 70
     1
102
RTVSPropertyOp30
 70
     1
102
RTVSPropertyOp31
 70
     1
102
RTVSPropertyOp32
 70
     1
102
RTVSPropertyOp33
 70
     1
102
RTVSPropertyOp34
 70
     1
102
RTVSPropertyOp35
 70
     1
102
RTVSPropertyOp36
 70
     1
102
RTVSPropertyOp37
 70
     1
102
RTVSPropertyOp38
 70
     1
102
RTVSPropertyOp39
 70
     1
102
RTVSPropertyOp40
 70
     1
102
RTVSPropertyOp41
 70
     1
102
RTVSPropertyOp42
 70
     1
102
RTVSPropertyOp43
 70
     1
102
RTVSPropertyOp44
 70
     1
102
RTVSPropertyOp45
 70
     1
102
RTVSPropertyOp46
 70
     1
102
RTVSPropertyOp47
 70
     1
102
RTVSPropertyOp48
 70
     1
102
RTVSPropertyOp49
 70
     1
102
RTVSPropertyOp50
 70
     1
102
RTVSPropertyOp51
 70
     0
102
RTVSPropertyOp52
 70
     0
102
RTVSPropertyOp53
 70
     1
102
RTVSPropertyOp54
 70
     1
102
RTVSPropertyOp55
 70
     1
102
RTVSPropertyOp56
 70
     1
102
RTVSPropertyOp57
 70
     1
102
RTVSPropertyOp58
 70
     1
102
RTVSPropertyOp59
 70
     1
102
RTVSPropertyOp60
 70
     1
102
RTVSPropertyOp61
 70
     1
102
RTVSPropertyOp62
 70
     1
  0
XRECORD
  5
289D
102
{ACAD_REACTORS
330
289C
102
}
330
289C
100
AcDbXrecord
280
     1
102
RTVSPost2010Prop28
280
     0
102
RTVSPost2010PropOp28
 70
     1
102
RTVSPost2010Prop29
280
     1
102
RTVSPost2010PropOp29
 70
     1
102
RTVSPost2010Prop30
280
     1
102
RTVSPost2010PropOp30
 70
     1
102
RTVSPost2010Prop31
280
     0
102
RTVSPost2010PropOp31
 70
     1
102
RTVSPost2010Prop32
280
     0
102
RTVSPost2010PropOp32
 70
     1
102
RTVSPost2010Prop33
280
     0
102
RTVSPost2010PropOp33
 70
     1
102
RTVSPost2010Prop34
280
     0
102
RTVSPost2010PropOp34
 70
     1
102
RTVSPost2010Prop35
280
     0
102
RTVSPost2010PropOp35
 70
     1
102
RTVSPost2010Prop36
280
     0
102
RTVSPost2010PropOp36
 70
     1
102
RTVSPost2010Prop37
 90
       50
102
RTVSPost2010PropOp37
 70
     1
102
RTVSPost2010Prop38
140
0.0
102
RTVSPost2010PropOp38
 70
     1
102
RTVSPost2010Prop39
140
1.0
102
RTVSPost2010PropOp39
 70
     1
102
RTVSPost2010Prop40
 90
        0
102
RTVSPost2010PropOp40
 70
     1
102
RTVSPost2010Prop41ColorIndex
 90
       18
102
RTVSPost2010Prop41ColorRGB
 90
        0
102
RTVSPost2010PropOp41
 70
     1
102
RTVSPost2010Prop42
 90
       50
102
RTVSPost2010PropOp42
 70
     1
102
RTVSPost2010Prop43
 90
        3
102
RTVSPost2010PropOp43
 70
     1
102
RTVSPost2010Prop44ColorIndex
 90
        5
102
RTVSPost2010Prop44ColorRGB
 90
      255
102
RTVSPost2010PropOp44
 70
     1
102
RTVSPost2010Prop45
280
     0
102
RTVSPost2010PropOp45
 70
     1
102
RTVSPost2010Prop46
 90
       50
102
RTVSPost2010PropOp46
 70
     1
102
RTVSPost2010Prop47
 90
       50
102
RTVSPost2010PropOp47
 70
     1
102
RTVSPost2010Prop48
 90
       50
102
RTVSPost2010PropOp48
 70
     1
102
RTVSPost2010Prop49
280
     0
102
RTVSPost2010PropOp49
 70
     1
102
RTVSPost2010Prop50
 90
       50
102
RTVSPost2010PropOp50
 70
     1
102
RTVSPost2010Prop51ColorIndex
 90
      256
102
RTVSPost2010Prop51ColorRGB
 90
-16777216
102
RTVSPost2010PropOp51
 70
     0
102
RTVSPost2010Prop52
140
1.0
102
RTVSPost2010PropOp52
 70
     0
102
RTVSPost2010Prop53
 90
        2
102
RTVSPost2010PropOp53
 70
     1
102
RTVSPost2010Prop54
  1
strokes_ogs.tif
102
RTVSPost2010PropOp54
 70
     1
102
RTVSPost2010Prop55
280
     0
102
RTVSPost2010PropOp55
 70
     1
102
RTVSPost2010Prop56
140
1.0
102
RTVSPost2010PropOp56
 70
     1
102
RTVSPost2010Prop57
140
1.0
102
RTVSPost2010PropOp57
 70
     1
102
RTVSPropertyOp0
 70
     1
102
RTVSPropertyOp1
 70
     1
102
RTVSPropertyOp2
 70
     1
102
RTVSPropertyOp3
 70
     1
102
RTVSPropertyOp4
 70
     1
102
RTVSPropertyOp5
 70
     1
102
RTVSPropertyOp6
 70
     1
102
RTVSPropertyOp7
 70
     1
102
RTVSPropertyOp8
 70
     1
102
RTVSPropertyOp9
 70
     1
102
RTVSPropertyOp10
 70
     1
102
RTVSPropertyOp11
 70
     1
102
RTVSPropertyOp12
 70
     1
102
RTVSPropertyOp13
 70
     1
102
RTVSPropertyOp14
 70
     1
102
RTVSPropertyOp15
 70
     1
102
RTVSPropertyOp16
 70
     1
102
RTVSPropertyOp17
 70
     1
102
RTVSPropertyOp18
 70
     1
102
RTVSPropertyOp19
 70
     1
102
RTVSPropertyOp20
 70
     1
102
RTVSPropertyOp21
 70
     1
102
RTVSPropertyOp22
 70
     1
102
RTVSPropertyOp23
 70
     1
102
RTVSPropertyOp24
 70
     1
102
RTVSPropertyOp25
 70
     1
102
RTVSPropertyOp26
 70
     1
102
RTVSPropertyOp27
 70
     1
102
RTVSPropertyOp28
 70
     1
102
RTVSPropertyOp29
 70
     1
102
RTVSPropertyOp30
 70
     1
102
RTVSPropertyOp31
 70
     1
102
RTVSPropertyOp32
 70
     1
102
RTVSPropertyOp33
 70
     1
102
RTVSPropertyOp34
 70
     1
102
RTVSPropertyOp35
 70
     1
102
RTVSPropertyOp36
 70
     1
102
RTVSPropertyOp37
 70
     1
102
RTVSPropertyOp38
 70
     1
102
RTVSPropertyOp39
 70
     1
102
RTVSPropertyOp40
 70
     1
102
RTVSPropertyOp41
 70
     1
102
RTVSPropertyOp42
 70
     1
102
RTVSPropertyOp43
 70
     1
102
RTVSPropertyOp44
 70
     1
102
RTVSPropertyOp45
 70
     1
102
RTVSPropertyOp46
 70
     1
102
RTVSPropertyOp47
 70
     1
102
RTVSPropertyOp48
 70
     1
102
RTVSPropertyOp49
 70
     1
102
RTVSPropertyOp50
 70
     1
102
RTVSPropertyOp51
 70
     0
102
RTVSPropertyOp52
 70
     0
102
RTVSPropertyOp53
 70
     1
102
RTVSPropertyOp54
 70
     1
102
RTVSPropertyOp55
 70
     1
102
RTVSPropertyOp56
 70
     1
102
RTVSPropertyOp57
 70
     1
102
RTVSPropertyOp58
 70
     1
102
RTVSPropertyOp59
 70
     1
102
RTVSPropertyOp60
 70
     1
102
RTVSPropertyOp61
 70
     1
102
RTVSPropertyOp62
 70
     1
  0
XRECORD
  5
28C7
102
{ACAD_REACTORS
330
28C6
102
}
330
28C6
100
AcDbXrecord
280
     1
102
RTVSPost2010Prop28
280
     0
102
RTVSPost2010PropOp28
 70
     1
102
RTVSPost2010Prop29
280
     1
102
RTVSPost2010PropOp29
 70
     1
102
RTVSPost2010Prop30
280
     1
102
RTVSPost2010PropOp30
 70
     1
102
RTVSPost2010Prop31
280
     0
102
RTVSPost2010PropOp31
 70
     1
102
RTVSPost2010Prop32
280
     0
102
RTVSPost2010PropOp32
 70
     1
102
RTVSPost2010Prop33
280
     0
102
RTVSPost2010PropOp33
 70
     1
102
RTVSPost2010Prop34
280
     0
102
RTVSPost2010PropOp34
 70
     1
102
RTVSPost2010Prop35
280
     0
102
RTVSPost2010PropOp35
 70
     1
102
RTVSPost2010Prop36
280
     0
102
RTVSPost2010PropOp36
 70
     1
102
RTVSPost2010Prop37
 90
       50
102
RTVSPost2010PropOp37
 70
     1
102
RTVSPost2010Prop38
140
0.0
102
RTVSPost2010PropOp38
 70
     1
102
RTVSPost2010Prop39
140
1.0
102
RTVSPost2010PropOp39
 70
     1
102
RTVSPost2010Prop40
 90
        0
102
RTVSPost2010PropOp40
 70
     1
102
RTVSPost2010Prop41ColorIndex
 90
       18
102
RTVSPost2010Prop41ColorRGB
 90
        0
102
RTVSPost2010PropOp41
 70
     1
102
RTVSPost2010Prop42
 90
       50
102
RTVSPost2010PropOp42
 70
     1
102
RTVSPost2010Prop43
 90
        3
102
RTVSPost2010PropOp43
 70
     1
102
RTVSPost2010Prop44ColorIndex
 90
        5
102
RTVSPost2010Prop44ColorRGB
 90
      255
102
RTVSPost2010PropOp44
 70
     1
102
RTVSPost2010Prop45
280
     0
102
RTVSPost2010PropOp45
 70
     1
102
RTVSPost2010Prop46
 90
       50
102
RTVSPost2010PropOp46
 70
     1
102
RTVSPost2010Prop47
 90
       50
102
RTVSPost2010PropOp47
 70
     1
102
RTVSPost2010Prop48
 90
       50
102
RTVSPost2010PropOp48
 70
     1
102
RTVSPost2010Prop49
280
     0
102
RTVSPost2010PropOp49
 70
     1
102
RTVSPost2010Prop50
 90
       50
102
RTVSPost2010PropOp50
 70
     1
102
RTVSPost2010Prop51ColorIndex
 90
      256
102
RTVSPost2010Prop51ColorRGB
 90
-16777216
102
RTVSPost2010PropOp51
 70
     0
102
RTVSPost2010Prop52
140
1.0
102
RTVSPost2010PropOp52
 70
     0
102
RTVSPost2010Prop53
 90
        2
102
RTVSPost2010PropOp53
 70
     1
102
RTVSPost2010Prop54
  1
strokes_ogs.tif
102
RTVSPost2010PropOp54
 70
     1
102
RTVSPost2010Prop55
280
     0
102
RTVSPost2010PropOp55
 70
     1
102
RTVSPost2010Prop56
140
1.0
102
RTVSPost2010PropOp56
 70
     1
102
RTVSPost2010Prop57
140
1.0
102
RTVSPost2010PropOp57
 70
     1
102
RTVSPropertyOp0
 70
     1
102
RTVSPropertyOp1
 70
     1
102
RTVSPropertyOp2
 70
     1
102
RTVSPropertyOp3
 70
     1
102
RTVSPropertyOp4
 70
     1
102
RTVSPropertyOp5
 70
     1
102
RTVSPropertyOp6
 70
     1
102
RTVSPropertyOp7
 70
     1
102
RTVSPropertyOp8
 70
     1
102
RTVSPropertyOp9
 70
     1
102
RTVSPropertyOp10
 70
     1
102
RTVSPropertyOp11
 70
     1
102
RTVSPropertyOp12
 70
     1
102
RTVSPropertyOp13
 70
     1
102
RTVSPropertyOp14
 70
     1
102
RTVSPropertyOp15
 70
     1
102
RTVSPropertyOp16
 70
     1
102
RTVSPropertyOp17
 70
     1
102
RTVSPropertyOp18
 70
     1
102
RTVSPropertyOp19
 70
     1
102
RTVSPropertyOp20
 70
     1
102
RTVSPropertyOp21
 70
     1
102
RTVSPropertyOp22
 70
     1
102
RTVSPropertyOp23
 70
     1
102
RTVSPropertyOp24
 70
     1
102
RTVSPropertyOp25
 70
     1
102
RTVSPropertyOp26
 70
     1
102
RTVSPropertyOp27
 70
     1
102
RTVSPropertyOp28
 70
     1
102
RTVSPropertyOp29
 70
     1
102
RTVSPropertyOp30
 70
     1
102
RTVSPropertyOp31
 70
     1
102
RTVSPropertyOp32
 70
     1
102
RTVSPropertyOp33
 70
     1
102
RTVSPropertyOp34
 70
     1
102
RTVSPropertyOp35
 70
     1
102
RTVSPropertyOp36
 70
     1
102
RTVSPropertyOp37
 70
     1
102
RTVSPropertyOp38
 70
     1
102
RTVSPropertyOp39
 70
     1
102
RTVSPropertyOp40
 70
     1
102
RTVSPropertyOp41
 70
     1
102
RTVSPropertyOp42
 70
     1
102
RTVSPropertyOp43
 70
     1
102
RTVSPropertyOp44
 70
     1
102
RTVSPropertyOp45
 70
     1
102
RTVSPropertyOp46
 70
     1
102
RTVSPropertyOp47
 70
     1
102
RTVSPropertyOp48
 70
     1
102
RTVSPropertyOp49
 70
     1
102
RTVSPropertyOp50
 70
     1
102
RTVSPropertyOp51
 70
     0
102
RTVSPropertyOp52
 70
     0
102
RTVSPropertyOp53
 70
     1
102
RTVSPropertyOp54
 70
     1
102
RTVSPropertyOp55
 70
     1
102
RTVSPropertyOp56
 70
     1
102
RTVSPropertyOp57
 70
     1
102
RTVSPropertyOp58
 70
     1
102
RTVSPropertyOp59
 70
     1
102
RTVSPropertyOp60
 70
     1
102
RTVSPropertyOp61
 70
     1
102
RTVSPropertyOp62
 70
     1
  0
XRECORD
  5
28C5
102
{ACAD_REACTORS
330
28C4
102
}
330
28C4
100
AcDbXrecord
280
     1
102
RTVSPost2010Prop28
280
     0
102
RTVSPost2010PropOp28
 70
     1
102
RTVSPost2010Prop29
280
     1
102
RTVSPost2010PropOp29
 70
     1
102
RTVSPost2010Prop30
280
     1
102
RTVSPost2010PropOp30
 70
     1
102
RTVSPost2010Prop31
280
     0
102
RTVSPost2010PropOp31
 70
     1
102
RTVSPost2010Prop32
280
     0
102
RTVSPost2010PropOp32
 70
     1
102
RTVSPost2010Prop33
280
     0
102
RTVSPost2010PropOp33
 70
     1
102
RTVSPost2010Prop34
280
     0
102
RTVSPost2010PropOp34
 70
     1
102
RTVSPost2010Prop35
280
     0
102
RTVSPost2010PropOp35
 70
     1
102
RTVSPost2010Prop36
280
     0
102
RTVSPost2010PropOp36
 70
     1
102
RTVSPost2010Prop37
 90
       50
102
RTVSPost2010PropOp37
 70
     1
102
RTVSPost2010Prop38
140
0.0
102
RTVSPost2010PropOp38
 70
     1
102
RTVSPost2010Prop39
140
1.0
102
RTVSPost2010PropOp39
 70
     1
102
RTVSPost2010Prop40
 90
        0
102
RTVSPost2010PropOp40
 70
     1
102
RTVSPost2010Prop41ColorIndex
 90
       18
102
RTVSPost2010Prop41ColorRGB
 90
        0
102
RTVSPost2010PropOp41
 70
     1
102
RTVSPost2010Prop42
 90
       50
102
RTVSPost2010PropOp42
 70
     1
102
RTVSPost2010Prop43
 90
        3
102
RTVSPost2010PropOp43
 70
     1
102
RTVSPost2010Prop44ColorIndex
 90
        5
102
RTVSPost2010Prop44ColorRGB
 90
      255
102
RTVSPost2010PropOp44
 70
     1
102
RTVSPost2010Prop45
280
     0
102
RTVSPost2010PropOp45
 70
     1
102
RTVSPost2010Prop46
 90
       50
102
RTVSPost2010PropOp46
 70
     1
102
RTVSPost2010Prop47
 90
       50
102
RTVSPost2010PropOp47
 70
     1
102
RTVSPost2010Prop48
 90
       50
102
RTVSPost2010PropOp48
 70
     1
102
RTVSPost2010Prop49
280
     0
102
RTVSPost2010PropOp49
 70
     1
102
RTVSPost2010Prop50
 90
       50
102
RTVSPost2010PropOp50
 70
     1
102
RTVSPost2010Prop51ColorIndex
 90
      256
102
RTVSPost2010Prop51ColorRGB
 90
-16777216
102
RTVSPost2010PropOp51
 70
     0
102
RTVSPost2010Prop52
140
1.0
102
RTVSPost2010PropOp52
 70
     0
102
RTVSPost2010Prop53
 90
        2
102
RTVSPost2010PropOp53
 70
     1
102
RTVSPost2010Prop54
  1
strokes_ogs.tif
102
RTVSPost2010PropOp54
 70
     1
102
RTVSPost2010Prop55
280
     0
102
RTVSPost2010PropOp55
 70
     1
102
RTVSPost2010Prop56
140
1.0
102
RTVSPost2010PropOp56
 70
     1
102
RTVSPost2010Prop57
140
1.0
102
RTVSPost2010PropOp57
 70
     1
102
RTVSPropertyOp0
 70
     1
102
RTVSPropertyOp1
 70
     1
102
RTVSPropertyOp2
 70
     1
102
RTVSPropertyOp3
 70
     1
102
RTVSPropertyOp4
 70
     1
102
RTVSPropertyOp5
 70
     1
102
RTVSPropertyOp6
 70
     1
102
RTVSPropertyOp7
 70
     1
102
RTVSPropertyOp8
 70
     1
102
RTVSPropertyOp9
 70
     1
102
RTVSPropertyOp10
 70
     1
102
RTVSPropertyOp11
 70
     1
102
RTVSPropertyOp12
 70
     1
102
RTVSPropertyOp13
 70
     1
102
RTVSPropertyOp14
 70
     1
102
RTVSPropertyOp15
 70
     1
102
RTVSPropertyOp16
 70
     1
102
RTVSPropertyOp17
 70
     1
102
RTVSPropertyOp18
 70
     1
102
RTVSPropertyOp19
 70
     1
102
RTVSPropertyOp20
 70
     1
102
RTVSPropertyOp21
 70
     1
102
RTVSPropertyOp22
 70
     1
102
RTVSPropertyOp23
 70
     1
102
RTVSPropertyOp24
 70
     1
102
RTVSPropertyOp25
 70
     1
102
RTVSPropertyOp26
 70
     1
102
RTVSPropertyOp27
 70
     1
102
RTVSPropertyOp28
 70
     1
102
RTVSPropertyOp29
 70
     1
102
RTVSPropertyOp30
 70
     1
102
RTVSPropertyOp31
 70
     1
102
RTVSPropertyOp32
 70
     1
102
RTVSPropertyOp33
 70
     1
102
RTVSPropertyOp34
 70
     1
102
RTVSPropertyOp35
 70
     1
102
RTVSPropertyOp36
 70
     1
102
RTVSPropertyOp37
 70
     1
102
RTVSPropertyOp38
 70
     1
102
RTVSPropertyOp39
 70
     1
102
RTVSPropertyOp40
 70
     1
102
RTVSPropertyOp41
 70
     1
102
RTVSPropertyOp42
 70
     1
102
RTVSPropertyOp43
 70
     1
102
RTVSPropertyOp44
 70
     1
102
RTVSPropertyOp45
 70
     1
102
RTVSPropertyOp46
 70
     1
102
RTVSPropertyOp47
 70
     1
102
RTVSPropertyOp48
 70
     1
102
RTVSPropertyOp49
 70
     1
102
RTVSPropertyOp50
 70
     1
102
RTVSPropertyOp51
 70
     0
102
RTVSPropertyOp52
 70
     0
102
RTVSPropertyOp53
 70
     1
102
RTVSPropertyOp54
 70
     1
102
RTVSPropertyOp55
 70
     1
102
RTVSPropertyOp56
 70
     1
102
RTVSPropertyOp57
 70
     1
102
RTVSPropertyOp58
 70
     1
102
RTVSPropertyOp59
 70
     1
102
RTVSPropertyOp60
 70
     1
102
RTVSPropertyOp61
 70
     1
102
RTVSPropertyOp62
 70
     1
  0
XRECORD
  5
28BF
102
{ACAD_REACTORS
330
28BE
102
}
330
28BE
100
AcDbXrecord
280
     1
102
RTVSPost2010Prop28
280
     0
102
RTVSPost2010PropOp28
 70
     1
102
RTVSPost2010Prop29
280
     1
102
RTVSPost2010PropOp29
 70
     1
102
RTVSPost2010Prop30
280
     1
102
RTVSPost2010PropOp30
 70
     1
102
RTVSPost2010Prop31
280
     0
102
RTVSPost2010PropOp31
 70
     1
102
RTVSPost2010Prop32
280
     0
102
RTVSPost2010PropOp32
 70
     1
102
RTVSPost2010Prop33
280
     0
102
RTVSPost2010PropOp33
 70
     1
102
RTVSPost2010Prop34
280
     0
102
RTVSPost2010PropOp34
 70
     1
102
RTVSPost2010Prop35
280
     0
102
RTVSPost2010PropOp35
 70
     1
102
RTVSPost2010Prop36
280
     0
102
RTVSPost2010PropOp36
 70
     1
102
RTVSPost2010Prop37
 90
       50
102
RTVSPost2010PropOp37
 70
     1
102
RTVSPost2010Prop38
140
0.0
102
RTVSPost2010PropOp38
 70
     1
102
RTVSPost2010Prop39
140
1.0
102
RTVSPost2010PropOp39
 70
     1
102
RTVSPost2010Prop40
 90
        0
102
RTVSPost2010PropOp40
 70
     1
102
RTVSPost2010Prop41ColorIndex
 90
       18
102
RTVSPost2010Prop41ColorRGB
 90
        0
102
RTVSPost2010PropOp41
 70
     1
102
RTVSPost2010Prop42
 90
       50
102
RTVSPost2010PropOp42
 70
     1
102
RTVSPost2010Prop43
 90
        3
102
RTVSPost2010PropOp43
 70
     1
102
RTVSPost2010Prop44ColorIndex
 90
        5
102
RTVSPost2010Prop44ColorRGB
 90
      255
102
RTVSPost2010PropOp44
 70
     1
102
RTVSPost2010Prop45
280
     0
102
RTVSPost2010PropOp45
 70
     1
102
RTVSPost2010Prop46
 90
       50
102
RTVSPost2010PropOp46
 70
     1
102
RTVSPost2010Prop47
 90
       50
102
RTVSPost2010PropOp47
 70
     1
102
RTVSPost2010Prop48
 90
       50
102
RTVSPost2010PropOp48
 70
     1
102
RTVSPost2010Prop49
280
     0
102
RTVSPost2010PropOp49
 70
     1
102
RTVSPost2010Prop50
 90
       50
102
RTVSPost2010PropOp50
 70
     1
102
RTVSPost2010Prop51ColorIndex
 90
      256
102
RTVSPost2010Prop51ColorRGB
 90
-16777216
102
RTVSPost2010PropOp51
 70
     0
102
RTVSPost2010Prop52
140
1.0
102
RTVSPost2010PropOp52
 70
     0
102
RTVSPost2010Prop53
 90
        2
102
RTVSPost2010PropOp53
 70
     1
102
RTVSPost2010Prop54
  1
strokes_ogs.tif
102
RTVSPost2010PropOp54
 70
     1
102
RTVSPost2010Prop55
280
     0
102
RTVSPost2010PropOp55
 70
     1
102
RTVSPost2010Prop56
140
1.0
102
RTVSPost2010PropOp56
 70
     1
102
RTVSPost2010Prop57
140
1.0
102
RTVSPost2010PropOp57
 70
     1
102
RTVSPropertyOp0
 70
     1
102
RTVSPropertyOp1
 70
     1
102
RTVSPropertyOp2
 70
     1
102
RTVSPropertyOp3
 70
     1
102
RTVSPropertyOp4
 70
     1
102
RTVSPropertyOp5
 70
     1
102
RTVSPropertyOp6
 70
     1
102
RTVSPropertyOp7
 70
     1
102
RTVSPropertyOp8
 70
     1
102
RTVSPropertyOp9
 70
     1
102
RTVSPropertyOp10
 70
     1
102
RTVSPropertyOp11
 70
     1
102
RTVSPropertyOp12
 70
     1
102
RTVSPropertyOp13
 70
     1
102
RTVSPropertyOp14
 70
     1
102
RTVSPropertyOp15
 70
     1
102
RTVSPropertyOp16
 70
     1
102
RTVSPropertyOp17
 70
     1
102
RTVSPropertyOp18
 70
     1
102
RTVSPropertyOp19
 70
     1
102
RTVSPropertyOp20
 70
     1
102
RTVSPropertyOp21
 70
     1
102
RTVSPropertyOp22
 70
     1
102
RTVSPropertyOp23
 70
     1
102
RTVSPropertyOp24
 70
     1
102
RTVSPropertyOp25
 70
     1
102
RTVSPropertyOp26
 70
     1
102
RTVSPropertyOp27
 70
     1
102
RTVSPropertyOp28
 70
     1
102
RTVSPropertyOp29
 70
     1
102
RTVSPropertyOp30
 70
     1
102
RTVSPropertyOp31
 70
     1
102
RTVSPropertyOp32
 70
     1
102
RTVSPropertyOp33
 70
     1
102
RTVSPropertyOp34
 70
     1
102
RTVSPropertyOp35
 70
     1
102
RTVSPropertyOp36
 70
     1
102
RTVSPropertyOp37
 70
     1
102
RTVSPropertyOp38
 70
     1
102
RTVSPropertyOp39
 70
     1
102
RTVSPropertyOp40
 70
     1
102
RTVSPropertyOp41
 70
     1
102
RTVSPropertyOp42
 70
     1
102
RTVSPropertyOp43
 70
     1
102
RTVSPropertyOp44
 70
     1
102
RTVSPropertyOp45
 70
     1
102
RTVSPropertyOp46
 70
     1
102
RTVSPropertyOp47
 70
     1
102
RTVSPropertyOp48
 70
     1
102
RTVSPropertyOp49
 70
     1
102
RTVSPropertyOp50
 70
     1
102
RTVSPropertyOp51
 70
     0
102
RTVSPropertyOp52
 70
     0
102
RTVSPropertyOp53
 70
     1
102
RTVSPropertyOp54
 70
     1
102
RTVSPropertyOp55
 70
     1
102
RTVSPropertyOp56
 70
     1
102
RTVSPropertyOp57
 70
     1
102
RTVSPropertyOp58
 70
     1
102
RTVSPropertyOp59
 70
     1
102
RTVSPropertyOp60
 70
     1
102
RTVSPropertyOp61
 70
     1
102
RTVSPropertyOp62
 70
     1
  0
XRECORD
  5
28C1
102
{ACAD_REACTORS
330
28C0
102
}
330
28C0
100
AcDbXrecord
280
     1
102
RTVSPost2010Prop28
280
     0
102
RTVSPost2010PropOp28
 70
     1
102
RTVSPost2010Prop29
280
     1
102
RTVSPost2010PropOp29
 70
     1
102
RTVSPost2010Prop30
280
     1
102
RTVSPost2010PropOp30
 70
     1
102
RTVSPost2010Prop31
280
     0
102
RTVSPost2010PropOp31
 70
     1
102
RTVSPost2010Prop32
280
     0
102
RTVSPost2010PropOp32
 70
     1
102
RTVSPost2010Prop33
280
     0
102
RTVSPost2010PropOp33
 70
     1
102
RTVSPost2010Prop34
280
     0
102
RTVSPost2010PropOp34
 70
     1
102
RTVSPost2010Prop35
280
     0
102
RTVSPost2010PropOp35
 70
     1
102
RTVSPost2010Prop36
280
     0
102
RTVSPost2010PropOp36
 70
     1
102
RTVSPost2010Prop37
 90
       50
102
RTVSPost2010PropOp37
 70
     1
102
RTVSPost2010Prop38
140
0.0
102
RTVSPost2010PropOp38
 70
     1
102
RTVSPost2010Prop39
140
1.0
102
RTVSPost2010PropOp39
 70
     1
102
RTVSPost2010Prop40
 90
        0
102
RTVSPost2010PropOp40
 70
     1
102
RTVSPost2010Prop41ColorIndex
 90
       18
102
RTVSPost2010Prop41ColorRGB
 90
        0
102
RTVSPost2010PropOp41
 70
     1
102
RTVSPost2010Prop42
 90
       50
102
RTVSPost2010PropOp42
 70
     1
102
RTVSPost2010Prop43
 90
        3
102
RTVSPost2010PropOp43
 70
     1
102
RTVSPost2010Prop44ColorIndex
 90
        5
102
RTVSPost2010Prop44ColorRGB
 90
      255
102
RTVSPost2010PropOp44
 70
     1
102
RTVSPost2010Prop45
280
     0
102
RTVSPost2010PropOp45
 70
     1
102
RTVSPost2010Prop46
 90
       50
102
RTVSPost2010PropOp46
 70
     1
102
RTVSPost2010Prop47
 90
       50
102
RTVSPost2010PropOp47
 70
     1
102
RTVSPost2010Prop48
 90
       50
102
RTVSPost2010PropOp48
 70
     1
102
RTVSPost2010Prop49
280
     0
102
RTVSPost2010PropOp49
 70
     1
102
RTVSPost2010Prop50
 90
       50
102
RTVSPost2010PropOp50
 70
     1
102
RTVSPost2010Prop51ColorIndex
 90
      256
102
RTVSPost2010Prop51ColorRGB
 90
-16777216
102
RTVSPost2010PropOp51
 70
     0
102
RTVSPost2010Prop52
140
1.0
102
RTVSPost2010PropOp52
 70
     0
102
RTVSPost2010Prop53
 90
        2
102
RTVSPost2010PropOp53
 70
     1
102
RTVSPost2010Prop54
  1
strokes_ogs.tif
102
RTVSPost2010PropOp54
 70
     1
102
RTVSPost2010Prop55
280
     0
102
RTVSPost2010PropOp55
 70
     1
102
RTVSPost2010Prop56
140
1.0
102
RTVSPost2010PropOp56
 70
     1
102
RTVSPost2010Prop57
140
1.0
102
RTVSPost2010PropOp57
 70
     1
102
RTVSPropertyOp0
 70
     1
102
RTVSPropertyOp1
 70
     1
102
RTVSPropertyOp2
 70
     1
102
RTVSPropertyOp3
 70
     1
102
RTVSPropertyOp4
 70
     1
102
RTVSPropertyOp5
 70
     1
102
RTVSPropertyOp6
 70
     1
102
RTVSPropertyOp7
 70
     1
102
RTVSPropertyOp8
 70
     1
102
RTVSPropertyOp9
 70
     1
102
RTVSPropertyOp10
 70
     1
102
RTVSPropertyOp11
 70
     1
102
RTVSPropertyOp12
 70
     1
102
RTVSPropertyOp13
 70
     1
102
RTVSPropertyOp14
 70
     1
102
RTVSPropertyOp15
 70
     1
102
RTVSPropertyOp16
 70
     1
102
RTVSPropertyOp17
 70
     1
102
RTVSPropertyOp18
 70
     1
102
RTVSPropertyOp19
 70
     1
102
RTVSPropertyOp20
 70
     1
102
RTVSPropertyOp21
 70
     1
102
RTVSPropertyOp22
 70
     1
102
RTVSPropertyOp23
 70
     1
102
RTVSPropertyOp24
 70
     1
102
RTVSPropertyOp25
 70
     1
102
RTVSPropertyOp26
 70
     1
102
RTVSPropertyOp27
 70
     1
102
RTVSPropertyOp28
 70
     1
102
RTVSPropertyOp29
 70
     1
102
RTVSPropertyOp30
 70
     1
102
RTVSPropertyOp31
 70
     1
102
RTVSPropertyOp32
 70
     1
102
RTVSPropertyOp33
 70
     1
102
RTVSPropertyOp34
 70
     1
102
RTVSPropertyOp35
 70
     1
102
RTVSPropertyOp36
 70
     1
102
RTVSPropertyOp37
 70
     1
102
RTVSPropertyOp38
 70
     1
102
RTVSPropertyOp39
 70
     1
102
RTVSPropertyOp40
 70
     1
102
RTVSPropertyOp41
 70
     1
102
RTVSPropertyOp42
 70
     1
102
RTVSPropertyOp43
 70
     1
102
RTVSPropertyOp44
 70
     1
102
RTVSPropertyOp45
 70
     1
102
RTVSPropertyOp46
 70
     1
102
RTVSPropertyOp47
 70
     1
102
RTVSPropertyOp48
 70
     1
102
RTVSPropertyOp49
 70
     1
102
RTVSPropertyOp50
 70
     1
102
RTVSPropertyOp51
 70
     0
102
RTVSPropertyOp52
 70
     0
102
RTVSPropertyOp53
 70
     1
102
RTVSPropertyOp54
 70
     1
102
RTVSPropertyOp55
 70
     1
102
RTVSPropertyOp56
 70
     1
102
RTVSPropertyOp57
 70
     1
102
RTVSPropertyOp58
 70
     1
102
RTVSPropertyOp59
 70
     1
102
RTVSPropertyOp60
 70
     1
102
RTVSPropertyOp61
 70
     1
102
RTVSPropertyOp62
 70
     1
  0
XRECORD
  5
28A3
102
{ACAD_REACTORS
330
28A2
102
}
330
28A2
100
AcDbXrecord
280
     1
102
RTVSPost2010Prop28
280
     0
102
RTVSPost2010PropOp28
 70
     1
102
RTVSPost2010Prop29
280
     1
102
RTVSPost2010PropOp29
 70
     1
102
RTVSPost2010Prop30
280
     1
102
RTVSPost2010PropOp30
 70
     1
102
RTVSPost2010Prop31
280
     0
102
RTVSPost2010PropOp31
 70
     1
102
RTVSPost2010Prop32
280
     0
102
RTVSPost2010PropOp32
 70
     1
102
RTVSPost2010Prop33
280
     0
102
RTVSPost2010PropOp33
 70
     1
102
RTVSPost2010Prop34
280
     0
102
RTVSPost2010PropOp34
 70
     1
102
RTVSPost2010Prop35
280
     0
102
RTVSPost2010PropOp35
 70
     1
102
RTVSPost2010Prop36
280
     0
102
RTVSPost2010PropOp36
 70
     1
102
RTVSPost2010Prop37
 90
       50
102
RTVSPost2010PropOp37
 70
     1
102
RTVSPost2010Prop38
140
0.0
102
RTVSPost2010PropOp38
 70
     1
102
RTVSPost2010Prop39
140
1.0
102
RTVSPost2010PropOp39
 70
     1
102
RTVSPost2010Prop40
 90
        0
102
RTVSPost2010PropOp40
 70
     1
102
RTVSPost2010Prop41ColorIndex
 90
       18
102
RTVSPost2010Prop41ColorRGB
 90
        0
102
RTVSPost2010PropOp41
 70
     1
102
RTVSPost2010Prop42
 90
       50
102
RTVSPost2010PropOp42
 70
     1
102
RTVSPost2010Prop43
 90
        3
102
RTVSPost2010PropOp43
 70
     1
102
RTVSPost2010Prop44ColorIndex
 90
        5
102
RTVSPost2010Prop44ColorRGB
 90
      255
102
RTVSPost2010PropOp44
 70
     1
102
RTVSPost2010Prop45
280
     0
102
RTVSPost2010PropOp45
 70
     1
102
RTVSPost2010Prop46
 90
       50
102
RTVSPost2010PropOp46
 70
     1
102
RTVSPost2010Prop47
 90
       50
102
RTVSPost2010PropOp47
 70
     1
102
RTVSPost2010Prop48
 90
       50
102
RTVSPost2010PropOp48
 70
     1
102
RTVSPost2010Prop49
280
     0
102
RTVSPost2010PropOp49
 70
     1
102
RTVSPost2010Prop50
 90
       50
102
RTVSPost2010PropOp50
 70
     1
102
RTVSPost2010Prop51ColorIndex
 90
      256
102
RTVSPost2010Prop51ColorRGB
 90
-16777216
102
RTVSPost2010PropOp51
 70
     0
102
RTVSPost2010Prop52
140
1.0
102
RTVSPost2010PropOp52
 70
     0
102
RTVSPost2010Prop53
 90
        2
102
RTVSPost2010PropOp53
 70
     1
102
RTVSPost2010Prop54
  1
strokes_ogs.tif
102
RTVSPost2010PropOp54
 70
     1
102
RTVSPost2010Prop55
280
     0
102
RTVSPost2010PropOp55
 70
     1
102
RTVSPost2010Prop56
140
1.0
102
RTVSPost2010PropOp56
 70
     1
102
RTVSPost2010Prop57
140
1.0
102
RTVSPost2010PropOp57
 70
     1
102
RTVSPropertyOp0
 70
     1
102
RTVSPropertyOp1
 70
     1
102
RTVSPropertyOp2
 70
     1
102
RTVSPropertyOp3
 70
     1
102
RTVSPropertyOp4
 70
     1
102
RTVSPropertyOp5
 70
     1
102
RTVSPropertyOp6
 70
     1
102
RTVSPropertyOp7
 70
     1
102
RTVSPropertyOp8
 70
     1
102
RTVSPropertyOp9
 70
     1
102
RTVSPropertyOp10
 70
     1
102
RTVSPropertyOp11
 70
     1
102
RTVSPropertyOp12
 70
     1
102
RTVSPropertyOp13
 70
     1
102
RTVSPropertyOp14
 70
     1
102
RTVSPropertyOp15
 70
     1
102
RTVSPropertyOp16
 70
     1
102
RTVSPropertyOp17
 70
     1
102
RTVSPropertyOp18
 70
     1
102
RTVSPropertyOp19
 70
     1
102
RTVSPropertyOp20
 70
     1
102
RTVSPropertyOp21
 70
     1
102
RTVSPropertyOp22
 70
     1
102
RTVSPropertyOp23
 70
     1
102
RTVSPropertyOp24
 70
     1
102
RTVSPropertyOp25
 70
     1
102
RTVSPropertyOp26
 70
     1
102
RTVSPropertyOp27
 70
     1
102
RTVSPropertyOp28
 70
     1
102
RTVSPropertyOp29
 70
     1
102
RTVSPropertyOp30
 70
     1
102
RTVSPropertyOp31
 70
     1
102
RTVSPropertyOp32
 70
     1
102
RTVSPropertyOp33
 70
     1
102
RTVSPropertyOp34
 70
     1
102
RTVSPropertyOp35
 70
     1
102
RTVSPropertyOp36
 70
     1
102
RTVSPropertyOp37
 70
     1
102
RTVSPropertyOp38
 70
     1
102
RTVSPropertyOp39
 70
     1
102
RTVSPropertyOp40
 70
     1
102
RTVSPropertyOp41
 70
     1
102
RTVSPropertyOp42
 70
     1
102
RTVSPropertyOp43
 70
     1
102
RTVSPropertyOp44
 70
     1
102
RTVSPropertyOp45
 70
     1
102
RTVSPropertyOp46
 70
     1
102
RTVSPropertyOp47
 70
     1
102
RTVSPropertyOp48
 70
     1
102
RTVSPropertyOp49
 70
     1
102
RTVSPropertyOp50
 70
     1
102
RTVSPropertyOp51
 70
     0
102
RTVSPropertyOp52
 70
     0
102
RTVSPropertyOp53
 70
     1
102
RTVSPropertyOp54
 70
     1
102
RTVSPropertyOp55
 70
     1
102
RTVSPropertyOp56
 70
     1
102
RTVSPropertyOp57
 70
     1
102
RTVSPropertyOp58
 70
     1
102
RTVSPropertyOp59
 70
     1
102
RTVSPropertyOp60
 70
     1
102
RTVSPropertyOp61
 70
     1
102
RTVSPropertyOp62
 70
     1
  0
XRECORD
  5
28BB
102
{ACAD_REACTORS
330
28BA
102
}
330
28BA
100
AcDbXrecord
280
     1
102
RTVSPost2010Prop28
280
     0
102
RTVSPost2010PropOp28
 70
     1
102
RTVSPost2010Prop29
280
     1
102
RTVSPost2010PropOp29
 70
     1
102
RTVSPost2010Prop30
280
     1
102
RTVSPost2010PropOp30
 70
     1
102
RTVSPost2010Prop31
280
     0
102
RTVSPost2010PropOp31
 70
     1
102
RTVSPost2010Prop32
280
     0
102
RTVSPost2010PropOp32
 70
     1
102
RTVSPost2010Prop33
280
     0
102
RTVSPost2010PropOp33
 70
     1
102
RTVSPost2010Prop34
280
     0
102
RTVSPost2010PropOp34
 70
     1
102
RTVSPost2010Prop35
280
     0
102
RTVSPost2010PropOp35
 70
     1
102
RTVSPost2010Prop36
280
     0
102
RTVSPost2010PropOp36
 70
     1
102
RTVSPost2010Prop37
 90
       50
102
RTVSPost2010PropOp37
 70
     1
102
RTVSPost2010Prop38
140
0.0
102
RTVSPost2010PropOp38
 70
     1
102
RTVSPost2010Prop39
140
1.0
102
RTVSPost2010PropOp39
 70
     1
102
RTVSPost2010Prop40
 90
        0
102
RTVSPost2010PropOp40
 70
     1
102
RTVSPost2010Prop41ColorIndex
 90
       18
102
RTVSPost2010Prop41ColorRGB
 90
        0
102
RTVSPost2010PropOp41
 70
     1
102
RTVSPost2010Prop42
 90
       50
102
RTVSPost2010PropOp42
 70
     1
102
RTVSPost2010Prop43
 90
        3
102
RTVSPost2010PropOp43
 70
     1
102
RTVSPost2010Prop44ColorIndex
 90
        5
102
RTVSPost2010Prop44ColorRGB
 90
      255
102
RTVSPost2010PropOp44
 70
     1
102
RTVSPost2010Prop45
280
     0
102
RTVSPost2010PropOp45
 70
     1
102
RTVSPost2010Prop46
 90
       50
102
RTVSPost2010PropOp46
 70
     1
102
RTVSPost2010Prop47
 90
       50
102
RTVSPost2010PropOp47
 70
     1
102
RTVSPost2010Prop48
 90
       50
102
RTVSPost2010PropOp48
 70
     1
102
RTVSPost2010Prop49
280
     0
102
RTVSPost2010PropOp49
 70
     1
102
RTVSPost2010Prop50
 90
       50
102
RTVSPost2010PropOp50
 70
     1
102
RTVSPost2010Prop51ColorIndex
 90
      256
102
RTVSPost2010Prop51ColorRGB
 90
-16777216
102
RTVSPost2010PropOp51
 70
     0
102
RTVSPost2010Prop52
140
1.0
102
RTVSPost2010PropOp52
 70
     0
102
RTVSPost2010Prop53
 90
        2
102
RTVSPost2010PropOp53
 70
     1
102
RTVSPost2010Prop54
  1
strokes_ogs.tif
102
RTVSPost2010PropOp54
 70
     1
102
RTVSPost2010Prop55
280
     0
102
RTVSPost2010PropOp55
 70
     1
102
RTVSPost2010Prop56
140
1.0
102
RTVSPost2010PropOp56
 70
     1
102
RTVSPost2010Prop57
140
1.0
102
RTVSPost2010PropOp57
 70
     1
102
RTVSPropertyOp0
 70
     1
102
RTVSPropertyOp1
 70
     1
102
RTVSPropertyOp2
 70
     1
102
RTVSPropertyOp3
 70
     1
102
RTVSPropertyOp4
 70
     1
102
RTVSPropertyOp5
 70
     1
102
RTVSPropertyOp6
 70
     1
102
RTVSPropertyOp7
 70
     1
102
RTVSPropertyOp8
 70
     1
102
RTVSPropertyOp9
 70
     1
102
RTVSPropertyOp10
 70
     1
102
RTVSPropertyOp11
 70
     1
102
RTVSPropertyOp12
 70
     1
102
RTVSPropertyOp13
 70
     1
102
RTVSPropertyOp14
 70
     1
102
RTVSPropertyOp15
 70
     1
102
RTVSPropertyOp16
 70
     1
102
RTVSPropertyOp17
 70
     1
102
RTVSPropertyOp18
 70
     1
102
RTVSPropertyOp19
 70
     1
102
RTVSPropertyOp20
 70
     1
102
RTVSPropertyOp21
 70
     1
102
RTVSPropertyOp22
 70
     1
102
RTVSPropertyOp23
 70
     1
102
RTVSPropertyOp24
 70
     1
102
RTVSPropertyOp25
 70
     1
102
RTVSPropertyOp26
 70
     1
102
RTVSPropertyOp27
 70
     1
102
RTVSPropertyOp28
 70
     1
102
RTVSPropertyOp29
 70
     1
102
RTVSPropertyOp30
 70
     1
102
RTVSPropertyOp31
 70
     1
102
RTVSPropertyOp32
 70
     1
102
RTVSPropertyOp33
 70
     1
102
RTVSPropertyOp34
 70
     1
102
RTVSPropertyOp35
 70
     1
102
RTVSPropertyOp36
 70
     1
102
RTVSPropertyOp37
 70
     1
102
RTVSPropertyOp38
 70
     1
102
RTVSPropertyOp39
 70
     1
102
RTVSPropertyOp40
 70
     1
102
RTVSPropertyOp41
 70
     1
102
RTVSPropertyOp42
 70
     1
102
RTVSPropertyOp43
 70
     1
102
RTVSPropertyOp44
 70
     1
102
RTVSPropertyOp45
 70
     1
102
RTVSPropertyOp46
 70
     1
102
RTVSPropertyOp47
 70
     1
102
RTVSPropertyOp48
 70
     1
102
RTVSPropertyOp49
 70
     1
102
RTVSPropertyOp50
 70
     1
102
RTVSPropertyOp51
 70
     0
102
RTVSPropertyOp52
 70
     0
102
RTVSPropertyOp53
 70
     1
102
RTVSPropertyOp54
 70
     1
102
RTVSPropertyOp55
 70
     1
102
RTVSPropertyOp56
 70
     1
102
RTVSPropertyOp57
 70
     1
102
RTVSPropertyOp58
 70
     1
102
RTVSPropertyOp59
 70
     1
102
RTVSPropertyOp60
 70
     1
102
RTVSPropertyOp61
 70
     1
102
RTVSPropertyOp62
 70
     1
  0
XRECORD
  5
28C3
102
{ACAD_REACTORS
330
28C2
102
}
330
28C2
100
AcDbXrecord
280
     1
102
RTVSPost2010Prop28
280
     0
102
RTVSPost2010PropOp28
 70
     1
102
RTVSPost2010Prop29
280
     1
102
RTVSPost2010PropOp29
 70
     1
102
RTVSPost2010Prop30
280
     1
102
RTVSPost2010PropOp30
 70
     1
102
RTVSPost2010Prop31
280
     0
102
RTVSPost2010PropOp31
 70
     1
102
RTVSPost2010Prop32
280
     0
102
RTVSPost2010PropOp32
 70
     1
102
RTVSPost2010Prop33
280
     0
102
RTVSPost2010PropOp33
 70
     1
102
RTVSPost2010Prop34
280
     0
102
RTVSPost2010PropOp34
 70
     1
102
RTVSPost2010Prop35
280
     0
102
RTVSPost2010PropOp35
 70
     1
102
RTVSPost2010Prop36
280
     0
102
RTVSPost2010PropOp36
 70
     1
102
RTVSPost2010Prop37
 90
       50
102
RTVSPost2010PropOp37
 70
     1
102
RTVSPost2010Prop38
140
0.0
102
RTVSPost2010PropOp38
 70
     1
102
RTVSPost2010Prop39
140
1.0
102
RTVSPost2010PropOp39
 70
     1
102
RTVSPost2010Prop40
 90
        0
102
RTVSPost2010PropOp40
 70
     1
102
RTVSPost2010Prop41ColorIndex
 90
       18
102
RTVSPost2010Prop41ColorRGB
 90
        0
102
RTVSPost2010PropOp41
 70
     1
102
RTVSPost2010Prop42
 90
       50
102
RTVSPost2010PropOp42
 70
     1
102
RTVSPost2010Prop43
 90
        3
102
RTVSPost2010PropOp43
 70
     1
102
RTVSPost2010Prop44ColorIndex
 90
        5
102
RTVSPost2010Prop44ColorRGB
 90
      255
102
RTVSPost2010PropOp44
 70
     1
102
RTVSPost2010Prop45
280
     0
102
RTVSPost2010PropOp45
 70
     1
102
RTVSPost2010Prop46
 90
       50
102
RTVSPost2010PropOp46
 70
     1
102
RTVSPost2010Prop47
 90
       50
102
RTVSPost2010PropOp47
 70
     1
102
RTVSPost2010Prop48
 90
       50
102
RTVSPost2010PropOp48
 70
     1
102
RTVSPost2010Prop49
280
     0
102
RTVSPost2010PropOp49
 70
     1
102
RTVSPost2010Prop50
 90
       50
102
RTVSPost2010PropOp50
 70
     1
102
RTVSPost2010Prop51ColorIndex
 90
      256
102
RTVSPost2010Prop51ColorRGB
 90
-16777216
102
RTVSPost2010PropOp51
 70
     0
102
RTVSPost2010Prop52
140
1.0
102
RTVSPost2010PropOp52
 70
     0
102
RTVSPost2010Prop53
 90
        2
102
RTVSPost2010PropOp53
 70
     1
102
RTVSPost2010Prop54
  1
strokes_ogs.tif
102
RTVSPost2010PropOp54
 70
     1
102
RTVSPost2010Prop55
280
     0
102
RTVSPost2010PropOp55
 70
     1
102
RTVSPost2010Prop56
140
1.0
102
RTVSPost2010PropOp56
 70
     1
102
RTVSPost2010Prop57
140
1.0
102
RTVSPost2010PropOp57
 70
     1
102
RTVSPropertyOp0
 70
     1
102
RTVSPropertyOp1
 70
     1
102
RTVSPropertyOp2
 70
     1
102
RTVSPropertyOp3
 70
     1
102
RTVSPropertyOp4
 70
     1
102
RTVSPropertyOp5
 70
     1
102
RTVSPropertyOp6
 70
     1
102
RTVSPropertyOp7
 70
     1
102
RTVSPropertyOp8
 70
     1
102
RTVSPropertyOp9
 70
     1
102
RTVSPropertyOp10
 70
     1
102
RTVSPropertyOp11
 70
     1
102
RTVSPropertyOp12
 70
     1
102
RTVSPropertyOp13
 70
     1
102
RTVSPropertyOp14
 70
     1
102
RTVSPropertyOp15
 70
     1
102
RTVSPropertyOp16
 70
     1
102
RTVSPropertyOp17
 70
     1
102
RTVSPropertyOp18
 70
     1
102
RTVSPropertyOp19
 70
     1
102
RTVSPropertyOp20
 70
     1
102
RTVSPropertyOp21
 70
     1
102
RTVSPropertyOp22
 70
     1
102
RTVSPropertyOp23
 70
     1
102
RTVSPropertyOp24
 70
     1
102
RTVSPropertyOp25
 70
     1
102
RTVSPropertyOp26
 70
     1
102
RTVSPropertyOp27
 70
     1
102
RTVSPropertyOp28
 70
     1
102
RTVSPropertyOp29
 70
     1
102
RTVSPropertyOp30
 70
     1
102
RTVSPropertyOp31
 70
     1
102
RTVSPropertyOp32
 70
     1
102
RTVSPropertyOp33
 70
     1
102
RTVSPropertyOp34
 70
     1
102
RTVSPropertyOp35
 70
     1
102
RTVSPropertyOp36
 70
     1
102
RTVSPropertyOp37
 70
     1
102
RTVSPropertyOp38
 70
     1
102
RTVSPropertyOp39
 70
     1
102
RTVSPropertyOp40
 70
     1
102
RTVSPropertyOp41
 70
     1
102
RTVSPropertyOp42
 70
     1
102
RTVSPropertyOp43
 70
     1
102
RTVSPropertyOp44
 70
     1
102
RTVSPropertyOp45
 70
     1
102
RTVSPropertyOp46
 70
     1
102
RTVSPropertyOp47
 70
     1
102
RTVSPropertyOp48
 70
     1
102
RTVSPropertyOp49
 70
     1
102
RTVSPropertyOp50
 70
     1
102
RTVSPropertyOp51
 70
     0
102
RTVSPropertyOp52
 70
     0
102
RTVSPropertyOp53
 70
     1
102
RTVSPropertyOp54
 70
     1
102
RTVSPropertyOp55
 70
     1
102
RTVSPropertyOp56
 70
     1
102
RTVSPropertyOp57
 70
     1
102
RTVSPropertyOp58
 70
     1
102
RTVSPropertyOp59
 70
     1
102
RTVSPropertyOp60
 70
     1
102
RTVSPropertyOp61
 70
     1
102
RTVSPropertyOp62
 70
     1
  0
ENDSEC
  0
EOF
